999
DXF file: O:\ORAC_PRODUCTEN\ORAC_EXTRUSIE\SX\184\sx184-prod-mm.dxf
999
Pro/ENGINEER 2018500 by Parametric Technology Corporation
  0
SECTION
  2
HEADER
  9
$ACADVER
  1
AC1024
  9
$DWGCODEPAGE
  3
ANSI_1250
  9
$EXTMAX
 10
297.0
 20
210.0
 30
0.0
  9
$EXTMIN
 10
0.0
 20
0.0
 30
0.0
  9
$LIMMIN
 10
0.0
 20
0.0
  9
$LIMMAX
 10
297.0
 20
210.0
  9
$VIEWCTR
 10
148.5
 20
105.0
  9
$VIEWSIZE
 40
210.0
  9
$CLAYER
  8
0
  9
$LTSCALE
 40
16.335
  9
$CELTYPE
  6
BYLAYER
  9
$DIMSCALE
 40
1.0
  9
$DIMASZ
 40
3.5
  9
$DIMEXO
 40
1.0
  9
$DIMDLI
 40
11.286
  9
$DIMEXE
 40
1.5
  9
$DIMCEN
 40
2.673
  9
$DIMLFAC
 40
1.0
  9
$DIMBLK
  1
_FILLED
  9
$DIMALT
 70
0
  9
$DIMALTF
 40
0.0393700787
  9
$DIMTXT
 40
2.5
  9
$DIMTOL
 70
1
  9
$DIMLIM
 70
0
  9
$DIMTFAC
 40
1.0
  9
$DIMTP
 40
0.001
  9
$DIMTM
 40
0.001
  9
$DIMGAP
 40
0.625
  9
$DIMDSEP
 70
44
  9
$AUNITS
 70
0
  9
$PDMODE
 70
3
  9
$PDSIZE
 40
8.0
  9
$HANDSEED
  5
2E9
  9
$TILEMODE
 70
1
  9
$MEASUREMENT
 70
1
  9
$INSUNITS
 70
4
  0
ENDSEC
  0
SECTION
  2
CLASSES
  0
CLASS
  1
ACDBDICTIONARYWDFLT
  2
AcDbDictionaryWithDefault
  3
AutoCAD 2000
 90
0
 91
1
280
0
281
0
  0
CLASS
  1
ACDBPLACEHOLDER
  2
AcDbPlaceHolder
  3
AutoCAD 2000
 90
0
 91
1
280
0
281
0
  0
CLASS
  1
LAYOUT
  2
AcDbLayout
  3
AutoCAD 2000
 90
0
 91
0
280
0
281
0
  0
CLASS
  1
TABLESTYLE
  2
AcDbTableStyle
  3
ObjectDBX Classes
 90
2047
 91
1
280
0
281
0
  0
CLASS
  1
ACAD_TABLE
  2
AcDbTable
  3
ObjectDBX Classes
 90
1025
 91
1
280
0
281
1
  0
ENDSEC
  0
SECTION
  2
TABLES
  0
TABLE
  2
VPORT
  5
8
100
AcDbSymbolTable
 70
2
  0
VPORT
  5
1F4
100
AcDbSymbolTableRecord
100
AcDbViewportTableRecord
  2
*ACTIVE
 70
0
 10
0.0
 20
0.0
 11
1.0
 21
1.0
 12
148.5
 22
105.0
 13
0.0
 23
0.0
 14
1.0
 24
1.0
 15
0.0
 25
0.0
 16
0.0
 26
0.0
 36
1.0
 17
0.0
 27
0.0
 37
0.0
 40
210.0
 41
1.4142857143
 42
50.0
 43
0.0
 44
0.0
 50
0.0
 51
0.0
 71
0
 72
100
 73
1
 74
1
 75
0
 76
0
 77
0
 78
0
  0
ENDTAB
  0
TABLE
  2
LTYPE
  5
5
100
AcDbSymbolTable
 70
6
  0
LTYPE
  5
14
100
AcDbSymbolTableRecord
100
AcDbLinetypeTableRecord
  2
BYBLOCK
 70
0
  3

 72
65
 73
0
 40
0.0
  0
LTYPE
  5
15
100
AcDbSymbolTableRecord
100
AcDbLinetypeTableRecord
  2
BYLAYER
 70
0
  3

 72
65
 73
0
 40
0.0
  0
LTYPE
  5
16
100
AcDbSymbolTableRecord
100
AcDbLinetypeTableRecord
  2
CONTINUOUS
 70
64
  3
Solid line
 72
65
 73
0
 40
0.0
  0
LTYPE
  5
1F5
100
AcDbSymbolTableRecord
100
AcDbLinetypeTableRecord
  2
CENTER
 70
64
  3
____ _ ____ _ ____ _ ____ _ ____ _ ____ _ ____
 72
65
 73
4
 40
0.6
 49
0.375
 74
0
 49
-0.075
 74
0
 49
0.075
 74
0
 49
-0.075
 74
0
  0
LTYPE
  5
1F6
100
AcDbSymbolTableRecord
100
AcDbLinetypeTableRecord
  2
HIDDEN
 70
64
  3
- - - - - - - - - - - - - - - - - - - -
 72
65
 73
2
 40
0.2
 49
0.1
 74
0
 49
-0.1
 74
0
  0
LTYPE
  5
1F7
100
AcDbSymbolTableRecord
100
AcDbLinetypeTableRecord
  2
PHANTOM
 70
64
  3
_____ _ _ _____ _ _ _____ _ _ _____
 72
65
 73
6
 40
0.8
 49
0.45
 74
0
 49
-0.05
 74
0
 49
0.1
 74
0
 49
-0.05
 74
0
 49
0.1
 74
0
 49
-0.05
 74
0
  0
LTYPE
  5
1F8
100
AcDbSymbolTableRecord
100
AcDbLinetypeTableRecord
  2
DOT
 70
64
  3
. . . . . . . . . . . . . . . . . . . .
 72
65
 73
2
 40
0.2
 49
0.1
 74
0
 49
-0.1
 74
0
  0
LTYPE
  5
1F9
100
AcDbSymbolTableRecord
100
AcDbLinetypeTableRecord
  2
DASHED
 70
64
  3
- - - - - - - - - - - - - - - - - - - -
 72
65
 73
2
 40
0.2
 49
0.1
 74
0
 49
-0.1
 74
0
  0
ENDTAB
  0
TABLE
  2
LAYER
  5
2
100
AcDbSymbolTable
 70
36
  0
LAYER
  5
10
100
AcDbSymbolTableRecord
100
AcDbLayerTableRecord
  2
0
 70
0
 62
7
  6
CONTINUOUS
370
-3
390
F
  0
LAYER
  5
1FA
100
AcDbSymbolTableRecord
100
AcDbLayerTableRecord
  2
DEFAULT_1
 70
0
 62
7
  6
CENTER
370
-3
390
F
  0
LAYER
  5
1FB
100
AcDbSymbolTableRecord
100
AcDbLayerTableRecord
  2
DEFAULT_2
 70
0
 62
8
  6
HIDDEN
370
-3
390
F
  0
LAYER
  5
1FC
100
AcDbSymbolTableRecord
100
AcDbLayerTableRecord
  2
DEFAULT_3
 70
0
 62
7
  6
PHANTOM
370
-3
390
F
  0
LAYER
  5
1FD
100
AcDbSymbolTableRecord
100
AcDbLayerTableRecord
  2
DTM_ALL
 70
0
 62
7
  6
CONTINUOUS
370
-3
390
F
  0
LAYER
  5
1FE
100
AcDbSymbolTableRecord
100
AcDbLayerTableRecord
  2
DTM_AXIS
 70
0
 62
7
  6
CONTINUOUS
370
-3
390
F
  0
LAYER
  5
1FF
100
AcDbSymbolTableRecord
100
AcDbLayerTableRecord
  2
DTM_CSYS
 70
0
 62
7
  6
CONTINUOUS
370
-3
390
F
  0
LAYER
  5
200
100
AcDbSymbolTableRecord
100
AcDbLayerTableRecord
  2
DTM_CURVE
 70
0
 62
7
  6
CONTINUOUS
370
-3
390
F
  0
LAYER
  5
201
100
AcDbSymbolTableRecord
100
AcDbLayerTableRecord
  2
DTM_MASTER
 70
0
 62
7
  6
CONTINUOUS
370
-3
390
F
  0
LAYER
  5
202
100
AcDbSymbolTableRecord
100
AcDbLayerTableRecord
  2
DTM_POINT
 70
0
 62
7
  6
CONTINUOUS
370
-3
390
F
  0
LAYER
  5
203
100
AcDbSymbolTableRecord
100
AcDbLayerTableRecord
  2
DTM_QUILT
 70
0
 62
7
  6
CONTINUOUS
370
-3
390
F
  0
LAYER
  5
204
100
AcDbSymbolTableRecord
100
AcDbLayerTableRecord
  2
GTOL
 70
0
 62
7
  6
CONTINUOUS
370
-3
390
F
  0
LAYER
  5
205
100
AcDbSymbolTableRecord
100
AcDbLayerTableRecord
  2
NOTES
 70
0
 62
7
  6
CONTINUOUS
370
-3
390
F
  0
ENDTAB
  0
TABLE
  2
STYLE
  5
3
100
AcDbSymbolTable
 70
1
  0
STYLE
  5
11
100
AcDbSymbolTableRecord
100
AcDbTextStyleTableRecord
  2
STANDARD
 70
0
 40
0.0
 41
1.0
 50
0.0
 71
0
 42
0.2
  3
cgtime.ttf
  4

  0
STYLE
  5
206
100
AcDbSymbolTableRecord
100
AcDbTextStyleTableRecord
  2
TEXTSTYLE_1
 70
0
 40
0.0
 41
0.8
 50
0.0
 71
0
 42
0.2
  3
gdt
  4

  0
STYLE
  5
207
100
AcDbSymbolTableRecord
100
AcDbTextStyleTableRecord
  2
TEXTSTYLE_2
 70
0
 40
0.0
 41
1.0
 50
0.0
 71
0
 42
0.2
  3
trium.ttf
  4

  0
STYLE
  5
208
100
AcDbSymbolTableRecord
100
AcDbTextStyleTableRecord
  2
TEXTSTYLE_3
 70
0
 40
0.0
 41
1.0
 50
0.0
 71
0
 42
0.2
  3
calibri.ttf
  4

  0
ENDTAB
  0
TABLE
  2
VIEW
  5
6
100
AcDbSymbolTable
 70
0
  0
ENDTAB
  0
TABLE
  2
UCS
  5
7
100
AcDbSymbolTable
 70
0
  0
ENDTAB
  0
TABLE
  2
APPID
  5
9
100
AcDbSymbolTable
 70
1
  0
APPID
  5
209
100
AcDbSymbolTableRecord
100
AcDbRegAppTableRecord
  2
ACAD
 70
0
  0
ENDTAB
  0
TABLE
  2
BLOCK_RECORD
  5
1
100
AcDbSymbolTable
 70
0
  0
BLOCK_RECORD
  5
20A
100
AcDbSymbolTableRecord
100
AcDbBlockTableRecord
  2
*Model_Space
  0
BLOCK_RECORD
  5
20B
100
AcDbSymbolTableRecord
100
AcDbBlockTableRecord
  2
*Paper_Space
  0
BLOCK_RECORD
  5
20C
100
AcDbSymbolTableRecord
100
AcDbBlockTableRecord
  2
_FILLED
  0
BLOCK_RECORD
  5
20D
100
AcDbSymbolTableRecord
100
AcDbBlockTableRecord
  2
*D0
  0
BLOCK_RECORD
  5
20E
100
AcDbSymbolTableRecord
100
AcDbBlockTableRecord
  2
*D1
  0
BLOCK_RECORD
  5
20F
100
AcDbSymbolTableRecord
100
AcDbBlockTableRecord
  2
*D2
  0
BLOCK_RECORD
  5
210
100
AcDbSymbolTableRecord
100
AcDbBlockTableRecord
  2
*D3
  0
BLOCK_RECORD
  5
211
100
AcDbSymbolTableRecord
100
AcDbBlockTableRecord
  2
*D4
  0
BLOCK_RECORD
  5
212
100
AcDbSymbolTableRecord
100
AcDbBlockTableRecord
  2
*D5
  0
BLOCK_RECORD
  5
213
100
AcDbSymbolTableRecord
100
AcDbBlockTableRecord
  2
*T1
  0
ENDTAB
  0
TABLE
  2
DIMSTYLE
  5
A
100
AcDbSymbolTable
 70
1
100
AcDbDimStyleTable
 71
0
  0
DIMSTYLE
105
214
100
AcDbSymbolTableRecord
100
AcDbDimStyleTableRecord
  2
STANDARD
 70
0
  3

  4

 40
1.0
 41
3.5
 42
1.0
 43
0.38
 44
1.5
 45
0.0
 46
0.0
 47
0.001
 48
0.001
140
2.5
141
0.09
142
0.0
143
25.4
144
1.0
145
0.0
146
1.0
147
0.625
 71
1.0
 72
0.0
 73
1
 74
1
 75
0
 76
0
 77
0
 78
8
 79
2
170
0
171
2
172
0
173
0
174
0
175
0
176
0
177
0
178
0
270
2
179
3
271
3
272
3
273
2
274
2
275
0
280
0
281
0
282
0
283
1
284
8
285
0
286
0
287
3
288
0
340
11
278
44
341
20C
342
20C
343
20C
344
20C
  0
DIMSTYLE
105
215
100
AcDbSymbolTableRecord
100
AcDbDimStyleTableRecord
  2
DIMSTYLE_1
 70
0
  3

  4

 40
1.0
 41
3.5
 42
1.0
 43
0.38
 44
1.5
 45
0.0
 46
0.0
 47
0.0
 48
0.0
140
2.5
141
0.09
142
0.0
143
25.4
144
1.0
145
0.0
146
1.0
147
1.25
 71
0.0
 72
0.0
 73
1
 74
1
 75
0
 76
0
 77
0
 78
8
 79
2
170
0
171
2
172
0
173
0
174
0
175
0
176
0
177
0
178
0
270
2
179
3
271
3
272
3
273
2
274
2
275
0
280
0
281
0
282
0
283
1
284
8
285
0
286
0
287
3
288
0
340
11
278
44
341
20C
342
20C
343
20C
344
20C
  0
DIMSTYLE
105
216
100
AcDbSymbolTableRecord
100
AcDbDimStyleTableRecord
  2
DIMSTYLE_2
 70
0
  3

  4

 40
1.0
 41
3.5
 42
1.0
 43
0.38
 44
1.5
 45
0.0
 46
0.0
 47
0.0
 48
0.0
140
2.5
141
0.09
142
0.0
143
25.4
144
1.0
145
0.0
146
1.0
147
1.25
 71
0.0
 72
0.0
 73
1
 74
1
 75
0
 76
0
 77
0
 78
8
 79
2
170
0
171
2
172
0
173
0
174
0
175
0
176
0
177
0
178
0
270
2
179
3
271
0
272
0
273
2
274
2
275
0
280
0
281
0
282
0
283
1
284
8
285
0
286
0
287
3
288
0
340
11
278
44
341
20C
342
20C
343
20C
344
20C
  0
ENDTAB
  0
ENDSEC
  0
SECTION
  2
BLOCKS
  0
BLOCK
  5
20
100
AcDbEntity
  8
0
100
AcDbBlockBegin
  2
*Model_Space
 70
0
 10
0.0
 20
0.0
 30
0.0
  3
*Model_Space
  1

  0
ENDBLK
  5
21
100
AcDbEntity
  8
0
100
AcDbBlockEnd
  0
BLOCK
  5
1C
100
AcDbEntity
  8
0
100
AcDbBlockBegin
  2
*Paper_Space
 70
0
 10
0.0
 20
0.0
 30
0.0
  3
*Paper_Space
  1

  0
ENDBLK
  5
1D
100
AcDbEntity
  8
0
100
AcDbBlockEnd
  0
BLOCK
  5
217
100
AcDbEntity
  8
0
100
AcDbBlockBegin
  2
_FILLED
 70
64
 10
0.0
 20
0.0
  3
_FILLED
  1

  0
SOLID
  5
218
100
AcDbEntity
  8
0
  6
BYBLOCK
 62
0
100
AcDbTrace
 10
0.0
 20
0.0
 11
-1.0
 21
0.2142857143
 12
-1.0
 22
-0.2142857143
 13
-1.0
 23
-0.2142857143
  0
ENDBLK
  5
219
100
AcDbEntity
  8
0
  6
BYBLOCK
 62
0
100
AcDbBlockEnd
  0
BLOCK
  5
21A
100
AcDbEntity
  8
0
100
AcDbBlockBegin
 62
2
  6
CONTINUOUS
  2
*D0
 70
65
 10
0.0
 20
0.0
  3
*D0
  1

  0
TEXT
  5
21B
100
AcDbEntity
  8
0
100
AcDbText
 62
2
  6
CONTINUOUS
 10
69.873101053
 20
48.2339761938
  7
STANDARD
 40
2.5
  1
13
 72
5
 11
73.5112333487
 21
48.2339761938
100
AcDbText
  0
TEXT
  5
21C
100
AcDbEntity
  8
0
100
AcDbText
 62
2
  6
CONTINUOUS
 10
73.5112333487
 20
48.2339761938
  7
STANDARD
 40
2.5
  1
mm
 72
5
 11
79.1824395744
 21
48.2339761938
100
AcDbText
  0
TEXT
  5
21D
100
AcDbEntity
  8
0
100
AcDbText
 62
2
  6
CONTINUOUS
 10
71.2592878234
 20
44.4839761938
  7
STANDARD
 40
2.5
  1
1/2"
 72
5
 11
77.796252804
 21
44.4839761938
100
AcDbText
  0
LINE
  5
21E
100
AcDbEntity
  8
0
100
AcDbLine
 62
2
  6
CONTINUOUS
 10
81.0277703137
 20
56.2438324619
 11
81.0277703137
 21
47.9839761938
  0
LINE
  5
21F
100
AcDbEntity
  8
0
100
AcDbLine
 62
2
  6
CONTINUOUS
 10
68.0277703137
 20
56.0438324619
 11
68.0277703137
 21
47.9839761938
  0
LINE
  5
220
100
AcDbEntity
  8
0
100
AcDbLine
 62
2
  6
CONTINUOUS
 10
81.0277703137
 20
49.4839761938
 11
86.0277703137
 21
49.4839761938
  0
LINE
  5
221
100
AcDbEntity
  8
0
100
AcDbLine
 62
2
  6
CONTINUOUS
 10
68.0277703137
 20
49.4839761938
 11
63.0277703137
 21
49.4839761938
  0
INSERT
  5
222
100
AcDbEntity
  8
0
100
AcDbBlockReference
 62
2
  6
CONTINUOUS
  2
_FILLED
 10
81.0277703137
 20
49.4839761938
 41
3.5
 42
3.5
 43
3.5
 50
180.0
  0
INSERT
  5
223
100
AcDbEntity
  8
0
100
AcDbBlockReference
 62
2
  6
CONTINUOUS
  2
_FILLED
 10
68.0277703137
 20
49.4839761938
 41
3.5
 42
3.5
 43
3.5
  0
ENDBLK
  5
224
100
AcDbEntity
  8
0
  6
BYBLOCK
 62
0
100
AcDbBlockEnd
  0
BLOCK
  5
225
100
AcDbEntity
  8
0
100
AcDbBlockBegin
 62
2
  6
CONTINUOUS
  2
*D1
 70
65
 10
0.0
 20
0.0
  3
*D1
  1

  0
TEXT
  5
226
100
AcDbEntity
  8
0
100
AcDbText
 62
2
  6
CONTINUOUS
 10
87.1258860733
 20
110.7938324619
  7
STANDARD
 40
2.5
  1
110
 72
5
 11
92.5830845168
 21
110.7938324619
100
AcDbText
  0
TEXT
  5
227
100
AcDbEntity
  8
0
100
AcDbText
 62
2
  6
CONTINUOUS
 10
92.5830845168
 20
110.7938324619
  7
STANDARD
 40
2.5
  1
mm
 72
5
 11
98.2542907425
 21
110.7938324619
100
AcDbText
  0
TEXT
  5
228
100
AcDbEntity
  8
0
100
AcDbText
 62
2
  6
CONTINUOUS
 10
87.90409619
 20
107.0438324619
  7
STANDARD
 40
2.5
  1
4-3/8"
 72
5
 11
97.4760806258
 21
107.0438324619
100
AcDbText
  0
LINE
  5
229
100
AcDbEntity
  8
0
100
AcDbLine
 62
2
  6
CONTINUOUS
 10
81.8277703137
 20
57.0438324619
 11
94.1900884079
 21
57.0438324619
  0
LINE
  5
22A
100
AcDbEntity
  8
0
100
AcDbLine
 62
2
  6
CONTINUOUS
 10
69.0277703137
 20
167.0438324619
 11
94.1900884079
 21
167.0438324619
  0
LINE
  5
22B
100
AcDbEntity
  8
0
100
AcDbLine
 62
2
  6
CONTINUOUS
 10
92.6900884079
 20
57.0438324619
 11
92.6900884079
 21
105.7938324619
  0
LINE
  5
22C
100
AcDbEntity
  8
0
100
AcDbLine
 62
2
  6
CONTINUOUS
 10
92.6900884079
 20
167.0438324619
 11
92.6900884079
 21
114.5438324619
  0
INSERT
  5
22D
100
AcDbEntity
  8
0
100
AcDbBlockReference
 62
2
  6
CONTINUOUS
  2
_FILLED
 10
92.6900884079
 20
57.0438324619
 41
3.5
 42
3.5
 43
3.5
 50
270.0
  0
INSERT
  5
22E
100
AcDbEntity
  8
0
100
AcDbBlockReference
 62
2
  6
CONTINUOUS
  2
_FILLED
 10
92.6900884079
 20
167.0438324619
 41
3.5
 42
3.5
 43
3.5
 50
90.0
  0
ENDBLK
  5
22F
100
AcDbEntity
  8
0
  6
BYBLOCK
 62
0
100
AcDbBlockEnd
  0
BLOCK
  5
230
100
AcDbEntity
  8
0
100
AcDbBlockBegin
 62
2
  6
CONTINUOUS
  2
*D2
 70
65
 10
0.0
 20
0.0
  3
*D2
  1

  0
TEXT
  5
231
100
AcDbEntity
  8
0
100
AcDbText
 62
2
  6
CONTINUOUS
 10
55.7515718108
 20
138.2589418167
  7
STANDARD
 40
2.5
  1
20
 72
5
 11
59.3897041065
 21
138.2589418167
100
AcDbText
  0
TEXT
  5
232
100
AcDbEntity
  8
0
100
AcDbText
 62
2
  6
CONTINUOUS
 10
59.3897041065
 20
138.2589418167
  7
STANDARD
 40
2.5
  1
mm
 72
5
 11
65.0609103322
 21
138.2589418167
100
AcDbText
  0
TEXT
  5
233
100
AcDbEntity
  8
0
100
AcDbText
 62
2
  6
CONTINUOUS
 10
57.1377585812
 20
134.5089418167
  7
STANDARD
 40
2.5
  1
3/4"
 72
5
 11
63.6747235618
 21
134.5089418167
100
AcDbText
  0
LINE
  5
234
100
AcDbEntity
  8
0
100
AcDbLine
 62
2
  6
CONTINUOUS
 10
68.0277703137
 20
127.2938324619
 11
58.9062410715
 21
127.2938324619
  0
LINE
  5
235
100
AcDbEntity
  8
0
100
AcDbLine
 62
2
  6
CONTINUOUS
 10
72.0277703137
 20
147.5227360613
 11
58.9062410715
 21
147.5227360613
  0
LINE
  5
236
100
AcDbEntity
  8
0
100
AcDbLine
 62
2
  6
CONTINUOUS
 10
60.4062410715
 20
127.2938324619
 11
60.4062410715
 21
133.2589418167
  0
LINE
  5
237
100
AcDbEntity
  8
0
100
AcDbLine
 62
2
  6
CONTINUOUS
 10
60.4062410715
 20
147.5227360613
 11
60.4062410715
 21
142.0089418167
  0
INSERT
  5
238
100
AcDbEntity
  8
0
100
AcDbBlockReference
 62
2
  6
CONTINUOUS
  2
_FILLED
 10
60.4062410715
 20
127.2938324619
 41
3.5
 42
3.5
 43
3.5
 50
270.0
  0
INSERT
  5
239
100
AcDbEntity
  8
0
100
AcDbBlockReference
 62
2
  6
CONTINUOUS
  2
_FILLED
 10
60.4062410715
 20
147.5227360613
 41
3.5
 42
3.5
 43
3.5
 50
90.0
  0
ENDBLK
  5
23A
100
AcDbEntity
  8
0
  6
BYBLOCK
 62
0
100
AcDbBlockEnd
  0
BLOCK
  5
23B
100
AcDbEntity
  8
0
100
AcDbBlockBegin
 62
2
  6
CONTINUOUS
  2
*D3
 70
65
 10
0.0
 20
0.0
  3
*D3
  1

  0
TEXT
  5
23C
100
AcDbEntity
  8
0
100
AcDbText
 62
2
  6
CONTINUOUS
 10
55.8446580285
 20
111.7763831074
  7
STANDARD
 40
2.5
  1
24
 72
5
 11
59.4827903242
 21
111.7763831074
100
AcDbText
  0
TEXT
  5
23D
100
AcDbEntity
  8
0
100
AcDbText
 62
2
  6
CONTINUOUS
 10
59.4827903242
 20
111.7763831074
  7
STANDARD
 40
2.5
  1
mm
 72
5
 11
65.1539965499
 21
111.7763831074
100
AcDbText
  0
TEXT
  5
23E
100
AcDbEntity
  8
0
100
AcDbText
 62
2
  6
CONTINUOUS
 10
58.7483545266
 20
108.0263831074
  7
STANDARD
 40
2.5
  1
1"
 72
5
 11
62.2503000519
 21
108.0263831074
100
AcDbText
  0
LINE
  5
23F
100
AcDbEntity
  8
0
100
AcDbLine
 62
2
  6
CONTINUOUS
 10
72.0277703137
 20
99.2938324619
 11
58.9993272892
 21
99.2938324619
  0
LINE
  5
240
100
AcDbEntity
  8
0
100
AcDbLine
 62
2
  6
CONTINUOUS
 10
72.0277703137
 20
123.2938324619
 11
58.9993272892
 21
123.2938324619
  0
LINE
  5
241
100
AcDbEntity
  8
0
100
AcDbLine
 62
2
  6
CONTINUOUS
 10
60.4993272892
 20
99.2938324619
 11
60.4993272892
 21
106.7763831074
  0
LINE
  5
242
100
AcDbEntity
  8
0
100
AcDbLine
 62
2
  6
CONTINUOUS
 10
60.4993272892
 20
123.2938324619
 11
60.4993272892
 21
115.5263831074
  0
INSERT
  5
243
100
AcDbEntity
  8
0
100
AcDbBlockReference
 62
2
  6
CONTINUOUS
  2
_FILLED
 10
60.4993272892
 20
99.2938324619
 41
3.5
 42
3.5
 43
3.5
 50
270.0
  0
INSERT
  5
244
100
AcDbEntity
  8
0
100
AcDbBlockReference
 62
2
  6
CONTINUOUS
  2
_FILLED
 10
60.4993272892
 20
123.2938324619
 41
3.5
 42
3.5
 43
3.5
 50
90.0
  0
ENDBLK
  5
245
100
AcDbEntity
  8
0
  6
BYBLOCK
 62
0
100
AcDbBlockEnd
  0
BLOCK
  5
246
100
AcDbEntity
  8
0
100
AcDbBlockBegin
 62
2
  6
CONTINUOUS
  2
*D4
 70
65
 10
0.0
 20
0.0
  3
*D4
  1

  0
TEXT
  5
247
100
AcDbEntity
  8
0
100
AcDbText
 62
2
  6
CONTINUOUS
 10
55.931454559
 20
83.1085540619
  7
STANDARD
 40
2.5
  1
24
 72
5
 11
59.5695868548
 21
83.1085540619
100
AcDbText
  0
TEXT
  5
248
100
AcDbEntity
  8
0
100
AcDbText
 62
2
  6
CONTINUOUS
 10
59.5695868548
 20
83.1085540619
  7
STANDARD
 40
2.5
  1
mm
 72
5
 11
65.2407930804
 21
83.1085540619
100
AcDbText
  0
TEXT
  5
249
100
AcDbEntity
  8
0
100
AcDbText
 62
2
  6
CONTINUOUS
 10
58.8351510571
 20
79.3585540619
  7
STANDARD
 40
2.5
  1
1"
 72
5
 11
62.3370965824
 21
79.3585540619
100
AcDbText
  0
LINE
  5
24A
100
AcDbEntity
  8
0
100
AcDbLine
 62
2
  6
CONTINUOUS
 10
72.0277703137
 20
70.0438324619
 11
59.0861238197
 21
70.0438324619
  0
LINE
  5
24B
100
AcDbEntity
  8
0
100
AcDbLine
 62
2
  6
CONTINUOUS
 10
72.0277703137
 20
94.2938324619
 11
59.0861238197
 21
94.2938324619
  0
LINE
  5
24C
100
AcDbEntity
  8
0
100
AcDbLine
 62
2
  6
CONTINUOUS
 10
60.5861238197
 20
70.0438324619
 11
60.5861238197
 21
78.1085540619
  0
LINE
  5
24D
100
AcDbEntity
  8
0
100
AcDbLine
 62
2
  6
CONTINUOUS
 10
60.5861238197
 20
94.2938324619
 11
60.5861238197
 21
86.8585540619
  0
INSERT
  5
24E
100
AcDbEntity
  8
0
100
AcDbBlockReference
 62
2
  6
CONTINUOUS
  2
_FILLED
 10
60.5861238197
 20
70.0438324619
 41
3.5
 42
3.5
 43
3.5
 50
270.0
  0
INSERT
  5
24F
100
AcDbEntity
  8
0
100
AcDbBlockReference
 62
2
  6
CONTINUOUS
  2
_FILLED
 10
60.5861238197
 20
94.2938324619
 41
3.5
 42
3.5
 43
3.5
 50
90.0
  0
ENDBLK
  5
250
100
AcDbEntity
  8
0
  6
BYBLOCK
 62
0
100
AcDbBlockEnd
  0
BLOCK
  5
251
100
AcDbEntity
  8
0
100
AcDbBlockBegin
 62
2
  6
CONTINUOUS
  2
*D5
 70
65
 10
0.0
 20
0.0
  3
*D5
  1

  0
TEXT
  5
252
100
AcDbEntity
  8
0
100
AcDbText
 62
2
  6
CONTINUOUS
 10
53.2826229712
 20
64.5820800677
  7
STANDARD
 40
2.5
  1
5
 72
5
 11
55.1016891191
 21
64.5820800677
100
AcDbText
  0
TEXT
  5
253
100
AcDbEntity
  8
0
100
AcDbText
 62
2
  6
CONTINUOUS
 10
55.1016891191
 20
64.5820800677
  7
STANDARD
 40
2.5
  1
mm
 72
5
 11
60.7728953448
 21
64.5820800677
100
AcDbText
  0
TEXT
  5
254
100
AcDbEntity
  8
0
100
AcDbText
 62
2
  6
CONTINUOUS
 10
54.2359303642
 20
60.8320800677
  7
STANDARD
 40
2.5
  1
1/4"
 72
5
 11
60.7728953448
 21
60.8320800677
100
AcDbText
  0
LINE
  5
255
100
AcDbEntity
  8
0
100
AcDbLine
 62
2
  6
CONTINUOUS
 10
73.0277703137
 20
69.0438324619
 11
73.0277703137
 21
64.3320800677
  0
LINE
  5
256
100
AcDbEntity
  8
0
100
AcDbLine
 62
2
  6
CONTINUOUS
 10
73.0277703137
 20
65.8320800677
 11
78.0277703137
 21
65.8320800677
  0
LINE
  5
257
100
AcDbEntity
  8
0
100
AcDbLine
 62
2
  6
CONTINUOUS
 10
68.0277703137
 20
65.8320800677
 11
62.0228953448
 21
65.8320800677
  0
INSERT
  5
258
100
AcDbEntity
  8
0
100
AcDbBlockReference
 62
2
  6
CONTINUOUS
  2
_FILLED
 10
73.0277703137
 20
65.8320800677
 41
3.5
 42
3.5
 43
3.5
 50
180.0
  0
INSERT
  5
259
100
AcDbEntity
  8
0
100
AcDbBlockReference
 62
2
  6
CONTINUOUS
  2
_FILLED
 10
68.0277703137
 20
65.8320800677
 41
3.5
 42
3.5
 43
3.5
  0
ENDBLK
  5
25A
100
AcDbEntity
  8
0
  6
BYBLOCK
 62
0
100
AcDbBlockEnd
  0
BLOCK
  5
25B
100
AcDbEntity
  8
0
100
AcDbBlockBegin
  2
*T1
 70
1
 10
0.0
 20
0.0
  3
*T1
  1

  0
LINE
  5
25C
100
AcDbEntity
  8
0
100
AcDbLine
 62
7
  6
CONTINUOUS
 10
0.0
 20
0.0
 11
148.0
 21
0.0
  0
LINE
  5
25D
100
AcDbEntity
  8
0
100
AcDbLine
 62
7
  6
CONTINUOUS
 10
0.0
 20
0.0
 11
0.0
 21
-43.0
  0
LINE
  5
25E
100
AcDbEntity
  8
0
100
AcDbLine
 62
7
  6
CONTINUOUS
 10
45.0
 20
-20.0
 11
148.0
 21
-20.0
  0
LINE
  5
25F
100
AcDbEntity
  8
0
100
AcDbLine
 62
7
  6
CONTINUOUS
 10
45.0
 20
-28.0
 11
148.0
 21
-28.0
  0
LINE
  5
260
100
AcDbEntity
  8
0
100
AcDbLine
 62
7
  6
CONTINUOUS
 10
0.0
 20
-43.0
 11
148.0
 21
-43.0
  0
LINE
  5
261
100
AcDbEntity
  8
0
100
AcDbLine
 62
7
  6
CONTINUOUS
 10
45.0
 20
0.0
 11
45.0
 21
-43.0
  0
LINE
  5
262
100
AcDbEntity
  8
0
100
AcDbLine
 62
7
  6
CONTINUOUS
 10
143.0
 20
0.0
 11
143.0
 21
-20.0
  0
LINE
  5
263
100
AcDbEntity
  8
0
100
AcDbLine
 62
7
  6
CONTINUOUS
 10
148.0
 20
0.0
 11
148.0
 21
-43.0
  0
TEXT
  5
264
100
AcDbEntity
  8
0
100
AcDbText
 62
7
  6
CONTINUOUS
 10
8.9659749243
 20
-9.175
  7
STANDARD
 40
8.0
  1
O
 72
5
 11
17.370644185
 21
-9.175
100
AcDbText
  0
TEXT
  5
265
100
AcDbEntity
  8
0
100
AcDbText
 62
7
  6
CONTINUOUS
 10
17.370644185
 20
-9.175
  7
STANDARD
 40
5.5
  1
RAC
 72
5
 11
33.9562472979
 21
-9.175
100
AcDbText
  0
TEXT
  5
266
100
AcDbEntity
  8
0
100
AcDbText
 62
7
  6
CONTINUOUS
 10
33.9562472979
 20
-4.425
  7
TEXTSTYLE_2
 40
3.0
  1
®
 72
5
 11
36.0340250757
 21
-4.425
100
AcDbText
  0
TEXT
  5
267
100
AcDbEntity
  8
0
100
AcDbText
 62
7
  6
CONTINUOUS
 10
9.5323389537
 20
-13.825
  7
TEXTSTYLE_2
 40
3.0
  1
D  E  C  O  R
 72
5
 11
34.3878945093
 21
-13.825
100
AcDbText
  0
TEXT
  5
268
100
AcDbEntity
  8
0
100
AcDbText
 62
7
  6
CONTINUOUS
 10
34.3878945093
 20
-13.825
  7
STANDARD
 40
2.5
  1
 
 72
5
 11
35.4676610463
 21
-13.825
100
AcDbText
  0
TEXT
  5
269
100
AcDbEntity
  8
0
100
AcDbText
 62
7
  6
CONTINUOUS
 10
52.8786764706
 20
-4.6
  7
TEXTSTYLE_3
 40
2.7
  1
Part name:
 72
5
 11
71.9375
 21
-4.6
100
AcDbText
  0
TEXT
  5
26A
100
AcDbEntity
  8
0
100
AcDbText
 62
7
  6
CONTINUOUS
 10
49.6908613445
 20
-11.35
  7
TEXTSTYLE_3
 40
2.7
  1
Designed by:
 72
5
 11
71.9375
 21
-11.35
100
AcDbText
  0
TEXT
  5
26B
100
AcDbEntity
  8
0
100
AcDbText
 62
7
  6
CONTINUOUS
 10
49.3732142857
 20
-18.1
  7
TEXTSTYLE_3
 40
2.7
  1
Designed on:
 72
5
 11
71.9375
 21
-18.1
100
AcDbText
  0
TEXT
  5
26C
100
AcDbEntity
  8
0
100
AcDbText
 62
2
  6
CONTINUOUS
 10
74.0625
 20
-4.6
  7
TEXTSTYLE_3
 40
2.7
  1
SX184
 72
5
 11
84.6923319328
 21
-4.6
100
AcDbText
  0
TEXT
  5
26D
100
AcDbEntity
  8
0
100
AcDbText
 62
2
  6
CONTINUOUS
 10
74.0625
 20
-11.35
  7
TEXTSTYLE_3
 40
2.7
  1
ORAC
 72
5
 11
83.9209033613
 21
-11.35
100
AcDbText
  0
TEXT
  5
26E
100
AcDbEntity
  8
0
100
AcDbText
 62
2
  6
CONTINUOUS
 10
74.0625
 20
-18.1
  7
TEXTSTYLE_3
 40
2.7
  1
12-Jun-2017
 72
5
 11
95.4356092437
 21
-18.1
100
AcDbText
  0
TEXT
  5
26F
100
AcDbEntity
  8
0
100
AcDbText
 62
2
  6
CONTINUOUS
 10
95.4356092437
 20
-18.1
  7
TEXTSTYLE_3
 40
2.7
  1
 
 72
5
 11
96.399894958
 21
-18.1
100
AcDbText
  0
TEXT
  5
270
100
AcDbEntity
  8
0
100
AcDbText
 62
2
  6
CONTINUOUS
 10
146.5625
 20
-16.0
  7
TEXTSTYLE_3
 40
1.5
  1
Version: 
 50
90.0
 72
5
 11
146.5625
 21
-7.5294117647
100
AcDbText
  0
TEXT
  5
271
100
AcDbEntity
  8
0
100
AcDbText
 62
2
  6
CONTINUOUS
 10
146.5625
 20
-7.5294117647
  7
TEXTSTYLE_3
 40
1.5
  1
1.0
 50
90.0
 72
5
 11
146.5625
 21
-4.5357142857
100
AcDbText
  0
TEXT
  5
272
100
AcDbEntity
  8
0
100
AcDbText
 62
2
  6
CONTINUOUS
 10
146.5625
 20
-4.5357142857
  7
TEXTSTYLE_3
 40
1.5
  1
 
 50
90.0
 72
5
 11
146.5625
 21
-4.0
100
AcDbText
  0
TEXT
  5
273
100
AcDbEntity
  8
0
100
AcDbText
 62
7
  6
CONTINUOUS
 10
9.6586134454
 20
-22.75
  7
TEXTSTYLE_3
 40
2.5
  1
Biekorfstraat 32
 72
5
 11
35.3413865546
 21
-22.75
100
AcDbText
  0
TEXT
  5
274
100
AcDbEntity
  8
0
100
AcDbText
 62
7
  6
CONTINUOUS
 10
2.2584033613
 20
-26.5
  7
TEXTSTYLE_3
 40
2.5
  1
8400 Oostende - Belgium
 72
5
 11
42.7415966387
 21
-26.5
100
AcDbText
  0
TEXT
  5
275
100
AcDbEntity
  8
0
100
AcDbText
 62
7
  6
CONTINUOUS
 10
4.2699579832
 20
-30.25
  7
TEXTSTYLE_3
 40
2.5
  1
Tel  +32 (0)59 80 32 52
 72
5
 11
40.7300420168
 21
-30.25
100
AcDbText
  0
TEXT
  5
276
100
AcDbEntity
  8
0
100
AcDbText
 62
7
  6
CONTINUOUS
 10
5.7405462185
 20
-34.0
  7
TEXTSTYLE_3
 40
2.5
  1
www.oracdecor.com
 72
5
 11
39.2594537815
 21
-34.0
100
AcDbText
  0
TEXT
  5
277
100
AcDbEntity
  8
0
100
AcDbText
 62
7
  6
CONTINUOUS
 10
5.5777310924
 20
-37.75
  7
TEXTSTYLE_3
 40
2.5
  1
info@oracdecor.com
 72
5
 11
39.4222689076
 21
-37.75
100
AcDbText
  0
TEXT
  5
278
100
AcDbEntity
  8
0
100
AcDbText
 62
7
  6
CONTINUOUS
 10
46.0625
 20
-23.375
  7
TEXTSTYLE_3
 40
2.5
  1
Unless otherwise specified: all dimensions are in millimeters 
 72
5
 11
143.4259453782
 21
-23.375
100
AcDbText
  0
TEXT
  5
279
100
AcDbEntity
  8
0
100
AcDbText
 62
7
  6
CONTINUOUS
 10
46.0625
 20
-27.125
  7
TEXTSTYLE_3
 40
2.5
  1
and inches, scale 1:1, length 2 meters
 72
5
 11
106.1675420168
 21
-27.125
100
AcDbText
  0
TEXT
  5
27A
100
AcDbEntity
  8
0
100
AcDbText
 62
7
  6
CONTINUOUS
 10
46.0625
 20
-31.81
  7
TEXTSTYLE_3
 40
1.8
  1
All information in this document is Orac's exclusive property.  It may in no case 
 72
5
 11
137.5070378151
 21
-31.81
100
AcDbText
  0
TEXT
  5
27B
100
AcDbEntity
  8
0
100
AcDbText
 62
7
  6
CONTINUOUS
 10
46.0625
 20
-34.87
  7
TEXTSTYLE_3
 40
1.8
  1
be reproduced, even partly, be communicated to a third party or used for any 
 72
5
 11
136.3272058824
 21
-34.87
100
AcDbText
  0
TEXT
  5
27C
100
AcDbEntity
  8
0
100
AcDbText
 62
7
  6
CONTINUOUS
 10
46.0625
 20
-37.93
  7
TEXTSTYLE_3
 40
1.8
  1
possible purpose without ORAC's express written permission. Further legal 
 72
5
 11
132.7952731092
 21
-37.93
100
AcDbText
  0
TEXT
  5
27D
100
AcDbEntity
  8
0
100
AcDbText
 62
7
  6
CONTINUOUS
 10
46.0625
 20
-40.99
  7
TEXTSTYLE_3
 40
1.8
  1
information can be found at https://www.oracdecor.com/en/general-sales-conditions
 72
5
 11
145.349894958
 21
-40.99
100
AcDbText
  0
ENDBLK
  5
27E
100
AcDbEntity
  8
0
  6
BYBLOCK
 62
0
100
AcDbBlockEnd
  0
ENDSEC
  0
SECTION
  2
ENTITIES
  0
DIMENSION
  5
27F
100
AcDbEntity
  8
0
100
AcDbDimension
 62
2
  6
CONTINUOUS
  2
*D0
 10
68.0277703137
 20
49.4839761938
 11
74.5277703137
 21
47.6089761938
 70
160
 71
2
 72
2
 41
0.9
 42
13.0
  1
<>mm\P1/2"
  3
DIMSTYLE_1
100
AcDbAlignedDimension
 13
81.0277703137
 23
57.2438324619
 14
68.0277703137
 24
57.0438324619
 50
180.0
100
AcDbRotatedDimension
  0
DIMENSION
  5
280
100
AcDbEntity
  8
0
100
AcDbDimension
 62
2
  6
CONTINUOUS
  2
*D1
 10
92.6900884079
 20
167.0438324619
 11
92.6900884079
 21
110.1688324619
 70
160
 71
2
 72
2
 41
0.9
 42
110.0
  1
<>mm\P4-3/8"
  3
DIMSTYLE_1
100
AcDbAlignedDimension
 13
80.8277703137
 23
57.0438324619
 14
68.0277703137
 24
167.0438324619
 50
90.0
100
AcDbRotatedDimension
  0
DIMENSION
  5
281
100
AcDbEntity
  8
0
100
AcDbDimension
 62
2
  6
CONTINUOUS
  2
*D2
 10
60.4062410715
 20
147.5227360613
 11
60.4062410715
 21
137.6339418167
 70
160
 71
2
 72
2
 41
0.9
 42
20.2289035994
  1
<>mm\P3/4"
  3
DIMSTYLE_2
100
AcDbAlignedDimension
 13
69.0277703137
 23
127.2938324619
 14
73.0277703137
 24
147.5227360613
 50
90.0
100
AcDbRotatedDimension
  0
DIMENSION
  5
282
100
AcDbEntity
  8
0
100
AcDbDimension
 62
2
  6
CONTINUOUS
  2
*D3
 10
60.4993272892
 20
123.2938324619
 11
60.4993272892
 21
111.1513831074
 70
160
 71
2
 72
2
 41
0.9
 42
24.0
  1
<>mm\P1"
  3
DIMSTYLE_1
100
AcDbAlignedDimension
 13
73.0277703137
 23
99.2938324619
 14
73.0277703137
 24
123.2938324619
 50
90.0
100
AcDbRotatedDimension
  0
DIMENSION
  5
283
100
AcDbEntity
  8
0
100
AcDbDimension
 62
2
  6
CONTINUOUS
  2
*D4
 10
60.5861238197
 20
94.2938324619
 11
60.5861238197
 21
82.4835540619
 70
160
 71
2
 72
2
 41
0.9
 42
24.25
  1
<>mm\P1"
  3
DIMSTYLE_2
100
AcDbAlignedDimension
 13
73.0277703137
 23
70.0438324619
 14
73.0277703137
 24
94.2938324619
 50
90.0
100
AcDbRotatedDimension
  0
DIMENSION
  5
284
100
AcDbEntity
  8
0
100
AcDbDimension
 62
2
  6
CONTINUOUS
  2
*D5
 10
68.0277703137
 20
65.8320800677
 11
57.027759158
 21
63.9570800677
 70
160
 71
3
 72
2
 41
0.9
 42
5.0
  1
<>mm\P1/4"
  3
DIMSTYLE_1
100
AcDbAlignedDimension
 13
73.0277703137
 23
70.0438324619
 14
68.0277703137
 24
65.3351203094
 50
180.0
100
AcDbRotatedDimension
  0
ACAD_TABLE
  5
285
100
AcDbEntity
  8
0
 62
2
  6
CONTINUOUS
100
AcDbBlockReference
  2
*T1
 10
144.0
 20
48.0
 30
0.0
100
AcDbTable
342
       2E7
343
213
 11
1.0
 21
0.0
 31
0.0
 90
22
 91
4
 92
4
 93
0
 94
0
 95
0
 96
0
141
15.0
141
5.0
141
8.0
141
15.0
142
45.0
142
28.0
142
70.0
142
5.0
171
1
172
0
173
0
174
0
175
1
176
1
 91
41
178
0
145
0.0
301
CELL_VALUE
 90
4
  1
\A1;O\H5.5;RAC\fCG Triumvirate;\H3.0;\S®^ ;\PD  E  C  O  R\fCG Times;\H2.5; 
304
ACVALUE_END
170
5
140
8.0
 64
7
171
1
172
0
173
0
174
0
175
1
176
2
 91
57
178
0
145
0.0
  7
TEXTSTYLE_3
301
CELL_VALUE
 90
4
  1
Part name:\PDesigned by:\PDesigned on:
304
ACVALUE_END
170
6
140
2.7
 64
7
171
1
172
0
173
0
174
0
175
1
176
2
 91
49
178
0
145
0.0
  7
TEXTSTYLE_3
301
CELL_VALUE
 90
4
  1
SX184\PORAC\P12-Jun-2017 
304
ACVALUE_END
170
4
140
2.7
171
1
172
0
173
0
174
0
175
1
176
2
 91
49
178
0
145
0.0
  7
TEXTSTYLE_3
301
CELL_VALUE
 90
4
  1
Version: 1.0 
304
ACVALUE_END
170
6
140
1.5
171
1
172
0
173
0
174
0
175
1
176
3
 91
57
178
0
145
0.0
  7
TEXTSTYLE_3
301
CELL_VALUE
 90
4
  1
Biekorfstraat 32\P8400 Oostende - Belgium\PTel  +32 (0)59 80 32 52\Pwww.oracdecor.com\Pinfo@oracdecor.com
304
ACVALUE_END
170
5
140
2.5
 64
7
171
1
172
0
173
1
174
0
175
1
176
1
 91
1
178
0
145
0.0
170
1
171
1
172
0
173
1
174
0
175
1
176
1
 91
1
178
0
145
0.0
170
1
171
1
172
0
173
1
174
0
175
1
176
1
 91
1
178
0
145
0.0
170
1
171
1
172
0
173
1
174
0
175
1
176
1
 91
1
178
0
145
0.0
170
1
171
1
172
0
173
0
174
0
175
3
176
1
 91
57
178
0
145
0.0
  7
TEXTSTYLE_3
301
CELL_VALUE
 90
4
  1
Unless otherwise specified: all dimensions are in millimeters \Pand inches, scale 1:1, length 2 meters
304
ACVALUE_END
170
4
140
2.5
 64
7
171
1
172
0
173
1
174
0
175
1
176
1
 91
1
178
0
145
0.0
170
1
171
1
172
0
173
1
174
0
175
1
176
1
 91
1
178
0
145
0.0
170
1
171
1
172
0
173
1
174
0
175
1
176
1
 91
1
178
0
145
0.0
170
1
171
1
172
0
173
0
174
0
175
3
176
1
 91
57
178
0
145
0.0
  7
TEXTSTYLE_3
301
CELL_VALUE
 90
4
  2
All information in this document is Orac's exclusive property.  It may in no case \Pbe reproduced, even partly, be communicated to a third party or used for any \Ppossible purpose without ORAC's express written permission. Further legal \Pinformation
  1
 can be found at https://www.oracdecor.com/en/general-sales-conditions
304
ACVALUE_END
170
4
140
1.8
 64
7
171
1
172
0
173
1
174
0
175
1
176
1
 91
1
178
0
145
0.0
170
1
171
1
172
0
173
1
174
0
175
1
176
1
 91
1
178
0
145
0.0
170
1
  0
LINE
  5
286
100
AcDbEntity
  8
0
100
AcDbLine
 62
5
  6
CONTINUOUS
 10
0.0
 20
0.0
 11
0.0
 21
210.0
  0
LINE
  5
287
100
AcDbEntity
  8
0
100
AcDbLine
 62
7
  6
CONTINUOUS
 10
5.0
 20
5.0
 11
5.0
 21
195.0
  0
LINE
  5
288
100
AcDbEntity
  8
0
100
AcDbLine
 62
5
  6
CONTINUOUS
 10
0.0
 20
0.0
 11
297.0
 21
0.0
  0
LINE
  5
289
100
AcDbEntity
  8
0
100
AcDbLine
 62
7
  6
CONTINUOUS
 10
5.0
 20
5.0
 11
292.0
 21
5.0
  0
LINE
  5
28A
100
AcDbEntity
  8
0
100
AcDbLine
 62
4
  6
CONTINUOUS
 10
148.5
 20
195.0
 11
148.5
 21
205.0
  0
LINE
  5
28B
100
AcDbEntity
  8
0
100
AcDbLine
 62
7
  6
CONTINUOUS
 10
5.0
 20
195.0
 11
292.0
 21
195.0
  0
LINE
  5
28C
100
AcDbEntity
  8
0
100
AcDbLine
 62
5
  6
CONTINUOUS
 10
0.0
 20
210.0
 11
297.0
 21
210.0
  0
LINE
  5
28D
100
AcDbEntity
  8
0
100
AcDbLine
 62
7
  6
CONTINUOUS
 10
292.0
 20
5.0
 11
292.0
 21
195.0
  0
LINE
  5
28E
100
AcDbEntity
  8
0
100
AcDbLine
 62
5
  6
CONTINUOUS
 10
297.0
 20
0.0
 11
297.0
 21
210.0
  0
LINE
  5
28F
100
AcDbEntity
  8
DTM_AXIS
100
AcDbLine
 62
7
  6
CONTINUOUS
 10
223.3384175456
 20
58.7685952191
 11
236.1364680436
 21
58.7666457913
  0
LINE
  5
290
100
AcDbEntity
  8
DTM_AXIS
100
AcDbLine
 62
7
  6
CONTINUOUS
 10
223.3384175456
 20
168.7644067561
 11
258.2432304201
 21
186.2148195656
  0
LINE
  5
291
100
AcDbEntity
  8
DTM_AXIS
100
AcDbLine
 62
7
  6
CONTINUOUS
 10
224.3382652407
 20
70.7679859968
 11
227.3378083262
 21
70.7675290997
  0
LINE
  5
292
100
AcDbEntity
  8
DTM_AXIS
100
AcDbLine
 62
7
  6
CONTINUOUS
 10
223.8902242949
 20
160.6171096251
 11
224.0101768962
 21
160.6736994911
  0
LINE
  5
293
100
AcDbEntity
  8
DTM_AXIS
100
AcDbLine
 62
7
  6
CONTINUOUS
 10
223.3384175456
 20
168.7644067561
 11
223.3384175456
 21
164.3058643777
  0
LINE
  5
294
100
AcDbEntity
  8
DTM_AXIS
100
AcDbLine
 62
7
  6
CONTINUOUS
 10
223.3384175456
 20
159.7234631732
 11
223.3384175456
 21
155.9651016712
  0
LINE
  5
295
100
AcDbEntity
  8
DTM_AXIS
100
AcDbLine
 62
7
  6
CONTINUOUS
 10
223.3384175456
 20
128.0159583913
 11
223.3384175456
 21
127.0159964682
  0
LINE
  5
296
100
AcDbEntity
  8
DTM_AXIS
100
AcDbLine
 62
7
  6
CONTINUOUS
 10
223.3384175456
 20
99.0170626224
 11
223.3384175456
 21
98.0171006993
  0
LINE
  5
297
100
AcDbEntity
  8
DTM_AXIS
100
AcDbLine
 62
7
  6
CONTINUOUS
 10
223.3384175456
 20
69.7681763728
 11
223.3384175456
 21
67.0595673597
  0
LINE
  5
298
100
AcDbEntity
  8
DTM_AXIS
100
AcDbLine
 62
7
  6
CONTINUOUS
 10
223.3384175456
 20
62.4771661552
 11
223.3384175456
 21
58.7685952191
  0
LINE
  5
299
100
AcDbEntity
  8
DTM_AXIS
100
AcDbLine
 62
7
  6
CONTINUOUS
 10
224.3382652407
 20
97.0169864772
 11
227.3378083262
 21
97.0165295801
  0
LINE
  5
29A
100
AcDbEntity
  8
DTM_AXIS
100
AcDbLine
 62
7
  6
CONTINUOUS
 10
224.3382652407
 20
100.0168722464
 11
227.3378083262
 21
100.0164153493
  0
LINE
  5
29B
100
AcDbEntity
  8
DTM_AXIS
100
AcDbLine
 62
7
  6
CONTINUOUS
 10
228.3376560213
 20
71.7673387237
 11
228.3376560213
 21
96.016415358
  0
LINE
  5
29C
100
AcDbEntity
  8
DTM_AXIS
100
AcDbLine
 62
7
  6
CONTINUOUS
 10
228.3376560213
 20
101.0162249733
 11
228.3376560213
 21
125.0153111269
  0
LINE
  5
29D
100
AcDbEntity
  8
DTM_AXIS
100
AcDbLine
 62
7
  6
CONTINUOUS
 10
228.3376560213
 20
130.0151207422
 11
228.3376560213
 21
149.2432921639
  0
LINE
  5
29E
100
AcDbEntity
  8
DTM_AXIS
100
AcDbLine
 62
7
  6
CONTINUOUS
 10
223.8910925156
 20
128.9102537172
 11
228.3376560213
 21
131.1332814996
  0
LINE
  5
29F
100
AcDbEntity
  8
DTM_AXIS
100
AcDbLine
 62
7
  6
CONTINUOUS
 10
236.3364375826
 20
58.9666077161
 11
236.3364375826
 21
154.3006286943
  0
LINE
  5
2A0
100
AcDbEntity
  8
DTM_AXIS
100
AcDbLine
 62
7
  6
CONTINUOUS
 10
224.3382652407
 20
126.0158822461
 11
227.3378083262
 21
126.015425349
  0
LINE
  5
2A1
100
AcDbEntity
  8
DTM_AXIS
100
AcDbLine
 62
7
  6
CONTINUOUS
 10
224.3382652407
 20
129.0157680153
 11
227.3378083262
 21
129.0153111182
  0
LINE
  5
2A2
100
AcDbEntity
  8
DTM_AXIS
100
AcDbLine
 62
7
  6
CONTINUOUS
 10
223.8910925156
 20
99.9113579484
 11
228.3376560213
 21
102.1343857308
  0
LINE
  5
2A3
100
AcDbEntity
  8
DTM_AXIS
100
AcDbLine
 62
7
  6
CONTINUOUS
 10
224.3903781624
 20
154.8818344631
 11
223.9962971887
 21
155.0253446213
  0
LINE
  5
2A4
100
AcDbEntity
  8
DTM_AXIS
100
AcDbLine
 62
7
  6
CONTINUOUS
 10
271.2412504572
 20
76.4170205256
 11
271.2412504572
 21
171.7510415038
  0
LINE
  5
2A5
100
AcDbEntity
  8
DTM_AXIS
100
AcDbLine
 62
7
  6
CONTINUOUS
 10
223.8910925156
 20
70.6624716988
 11
228.3376560213
 21
72.8854994811
  0
LINE
  5
2A6
100
AcDbEntity
  8
DTM_AXIS
100
AcDbLine
 62
7
  6
CONTINUOUS
 10
223.8902242949
 20
63.3708126071
 11
224.0101768962
 21
63.4274024731
  0
LINE
  5
2A7
100
AcDbEntity
  8
DTM_AXIS
100
AcDbLine
 62
7
  6
CONTINUOUS
 10
236.2259025886
 20
58.7877486509
 11
271.1307154632
 21
76.2381614604
  0
LINE
  5
2A8
100
AcDbEntity
  8
DTM_AXIS
100
AcDbLine
 62
7
  6
CONTINUOUS
 10
68.0277703137
 20
57.0438324619
 11
80.8277703137
 21
57.0438324619
  0
LINE
  5
2A9
100
AcDbEntity
  8
DTM_AXIS
100
AcDbLine
 62
7
  6
CONTINUOUS
 10
69.0277703137
 20
69.0438324619
 11
72.0277703137
 21
69.0438324619
  0
LINE
  5
2AA
100
AcDbEntity
  8
DTM_AXIS
100
AcDbLine
 62
7
  6
CONTINUOUS
 10
69.0277703137
 20
95.2938324619
 11
72.0277703137
 21
95.2938324619
  0
LINE
  5
2AB
100
AcDbEntity
  8
DTM_AXIS
100
AcDbLine
 62
7
  6
CONTINUOUS
 10
69.0277703137
 20
98.2938324619
 11
72.0277703137
 21
98.2938324619
  0
LINE
  5
2AC
100
AcDbEntity
  8
DTM_AXIS
100
AcDbLine
 62
7
  6
CONTINUOUS
 10
68.0277703137
 20
167.0438324619
 11
68.0277703137
 21
162.5851203094
  0
LINE
  5
2AD
100
AcDbEntity
  8
DTM_AXIS
100
AcDbLine
 62
7
  6
CONTINUOUS
 10
68.0277703137
 20
158.0025446144
 11
68.0277703137
 21
154.2440400001
  0
LINE
  5
2AE
100
AcDbEntity
  8
DTM_AXIS
100
AcDbLine
 62
7
  6
CONTINUOUS
 10
68.0277703137
 20
126.2938324619
 11
68.0277703137
 21
125.2938324619
  0
LINE
  5
2AF
100
AcDbEntity
  8
DTM_AXIS
100
AcDbLine
 62
7
  6
CONTINUOUS
 10
68.0277703137
 20
97.2938324619
 11
68.0277703137
 21
96.2938324619
  0
LINE
  5
2B0
100
AcDbEntity
  8
DTM_AXIS
100
AcDbLine
 62
7
  6
CONTINUOUS
 10
68.0277703137
 20
68.0438324619
 11
68.0277703137
 21
65.3351203094
  0
LINE
  5
2B1
100
AcDbEntity
  8
DTM_AXIS
100
AcDbLine
 62
7
  6
CONTINUOUS
 10
68.0277703137
 20
60.7525446144
 11
68.0277703137
 21
57.0438324619
  0
LINE
  5
2B2
100
AcDbEntity
  8
DTM_AXIS
100
AcDbLine
 62
7
  6
CONTINUOUS
 10
73.0277703137
 20
70.0438324619
 11
73.0277703137
 21
94.2938324619
  0
LINE
  5
2B3
100
AcDbEntity
  8
DTM_AXIS
100
AcDbLine
 62
7
  6
CONTINUOUS
 10
73.0277703137
 20
99.2938324619
 11
73.0277703137
 21
123.2938324619
  0
LINE
  5
2B4
100
AcDbEntity
  8
DTM_AXIS
100
AcDbLine
 62
7
  6
CONTINUOUS
 10
73.0277703137
 20
128.2938324619
 11
73.0277703137
 21
147.5227360613
  0
LINE
  5
2B5
100
AcDbEntity
  8
DTM_AXIS
100
AcDbLine
 62
7
  6
CONTINUOUS
 10
81.0277703137
 20
57.2438324619
 11
81.0277703137
 21
152.5814836057
  0
LINE
  5
2B6
100
AcDbEntity
  8
DTM_AXIS
100
AcDbLine
 62
7
  6
CONTINUOUS
 10
69.0277703137
 20
124.2938324619
 11
72.0277703137
 21
124.2938324619
  0
LINE
  5
2B7
100
AcDbEntity
  8
DTM_AXIS
100
AcDbLine
 62
7
  6
CONTINUOUS
 10
69.0277703137
 20
127.2938324619
 11
72.0277703137
 21
127.2938324619
  0
LINE
  5
2B8
100
AcDbEntity
  8
DTM_AXIS
100
AcDbLine
 62
7
  6
CONTINUOUS
 10
69.0798911737
 20
153.160891786
 11
68.6857501704
 21
153.3043473793
  0
ARC
  5
2B9
100
AcDbEntity
  8
DTM_AXIS
100
AcDbCircle
 62
7
  6
CONTINUOUS
 10
222.3367849676
 20
149.2432878069
 40
6.0008710537
100
AcDbArc
 50
0.0000415996
 51
69.98806668
  0
ARC
  5
2BA
100
AcDbEntity
  8
DTM_AXIS
100
AcDbCircle
 62
7
  6
CONTINUOUS
 10
223.3381459326
 20
162.0145347052
 40
1.5000342344
100
AcDbArc
 50
296.6261594353
 51
66.4152882986
  0
ARC
  5
2BB
100
AcDbEntity
  8
DTM_AXIS
100
AcDbCircle
 62
7
  6
CONTINUOUS
 10
223.3381459325
 20
64.7682376872
 40
1.5000342345
100
AcDbArc
 50
296.6261594354
 51
66.4152882943
  0
ARC
  5
2BC
100
AcDbEntity
  8
DTM_AXIS
100
AcDbCircle
 62
7
  6
CONTINUOUS
 10
224.3385700449
 20
67.0595708081
 40
1.0001524993
100
AcDbArc
 50
180.0001975493
 51
246.4103899011
  0
ARC
  5
2BD
100
AcDbEntity
  8
DTM_AXIS
100
AcDbCircle
 62
7
  6
CONTINUOUS
 10
224.3385700449
 20
164.3058678261
 40
1.0001524993
100
AcDbArc
 50
180.0001975493
 51
246.4103899011
  0
ARC
  5
2BE
100
AcDbEntity
  8
DTM_AXIS
100
AcDbCircle
 62
7
  6
CONTINUOUS
 10
227.3375113959
 20
96.0163928477
 40
1.0001460119
100
AcDbArc
 50
0.0012895559
 51
89.9829894735
  0
ARC
  5
2BF
100
AcDbEntity
  8
DTM_AXIS
100
AcDbCircle
 62
7
  6
CONTINUOUS
 10
227.3375113959
 20
125.0152886166
 40
1.000146012
100
AcDbArc
 50
0.0012895579
 51
89.9829894719
  0
ARC
  5
2C0
100
AcDbEntity
  8
DTM_AXIS
100
AcDbCircle
 62
7
  6
CONTINUOUS
 10
224.3385622194
 20
98.0171231773
 40
1.000146008
100
AcDbArc
 50
180.0012877072
 51
269.9829866992
  0
ARC
  5
2C1
100
AcDbEntity
  8
DTM_AXIS
100
AcDbCircle
 62
7
  6
CONTINUOUS
 10
224.3385622194
 20
127.0160189461
 40
1.0001460079
100
AcDbArc
 50
180.0012877014
 51
269.9829867011
  0
ARC
  5
2C2
100
AcDbEntity
  8
DTM_AXIS
100
AcDbCircle
 62
7
  6
CONTINUOUS
 10
224.3385627212
 20
155.9651023974
 40
1.0001451756
100
AcDbArc
 50
180.0000415996
 51
249.98806668
  0
ARC
  5
2C3
100
AcDbEntity
  8
DTM_AXIS
100
AcDbCircle
 62
7
  6
CONTINUOUS
 10
227.3377774135
 20
101.016229799
 40
0.9998775294
100
AcDbArc
 50
270.0121013345
 51
359.9997234758
  0
ARC
  5
2C4
100
AcDbEntity
  8
DTM_AXIS
100
AcDbCircle
 62
7
  6
CONTINUOUS
 10
227.3377774135
 20
130.0151255678
 40
0.9998775294
100
AcDbArc
 50
270.0121013345
 51
359.9997234758
  0
ARC
  5
2C5
100
AcDbEntity
  8
DTM_AXIS
100
AcDbCircle
 62
7
  6
CONTINUOUS
 10
227.3377774135
 20
71.7673435493
 40
0.9998775294
100
AcDbArc
 50
270.0121013345
 51
359.9997234765
  0
ARC
  5
2C6
100
AcDbEntity
  8
DTM_AXIS
100
AcDbCircle
 62
7
  6
CONTINUOUS
 10
224.338202642
 20
69.7682293427
 40
0.9997755013
100
AcDbArc
 50
90.0121013345
 51
180.0030356074
  0
ARC
  5
2C7
100
AcDbEntity
  8
DTM_AXIS
100
AcDbCircle
 62
7
  6
CONTINUOUS
 10
224.338202642
 20
128.0160113612
 40
0.9997755013
100
AcDbArc
 50
90.0121013345
 51
180.0030356074
  0
ARC
  5
2C8
100
AcDbEntity
  8
DTM_AXIS
100
AcDbCircle
 62
7
  6
CONTINUOUS
 10
224.338202642
 20
99.0171155924
 40
0.9997755013
100
AcDbArc
 50
90.0121013345
 51
180.0030356074
  0
ARC
  5
2C9
100
AcDbEntity
  8
DTM_AXIS
100
AcDbCircle
 62
7
  6
CONTINUOUS
 10
224.3381349586
 20
62.4772445733
 40
0.9997117843
100
AcDbArc
 50
116.6475733565
 51
180.004494296
  0
ARC
  5
2CA
100
AcDbEntity
  8
DTM_AXIS
100
AcDbCircle
 62
7
  6
CONTINUOUS
 10
224.3381349586
 20
159.7235415913
 40
0.9997117843
100
AcDbArc
 50
116.6475733563
 51
180.004494296
  0
ARC
  5
2CB
100
AcDbEntity
  8
DTM_AXIS
100
AcDbCircle
 62
7
  6
CONTINUOUS
 10
271.0412632914
 20
76.4170263492
 40
0.1999871659
100
AcDbArc
 50
296.5151108098
 51
359.9983315683
  0
ARC
  5
2CC
100
AcDbEntity
  8
DTM_AXIS
100
AcDbCircle
 62
7
  6
CONTINUOUS
 10
236.1364504168
 20
58.9666135397
 40
0.1999871659
100
AcDbArc
 50
296.5151108098
 51
359.9983315683
  0
ARC
  5
2CD
100
AcDbEntity
  8
DTM_AXIS
100
AcDbCircle
 62
7
  6
CONTINUOUS
 10
67.0277703137
 20
147.5227360613
 40
6.0
100
AcDbArc
 50
0.0
 51
70.0
  0
ARC
  5
2CE
100
AcDbEntity
  8
DTM_AXIS
100
AcDbCircle
 62
7
  6
CONTINUOUS
 10
68.0277703137
 20
63.0438324619
 40
1.5
100
AcDbArc
 50
293.5781784782
 51
66.4218215218
  0
ARC
  5
2CF
100
AcDbEntity
  8
DTM_AXIS
100
AcDbCircle
 62
7
  6
CONTINUOUS
 10
68.0277703137
 20
160.2938324619
 40
1.5
100
AcDbArc
 50
293.5781784782
 51
66.4218215218
  0
ARC
  5
2D0
100
AcDbEntity
  8
DTM_AXIS
100
AcDbCircle
 62
7
  6
CONTINUOUS
 10
69.0277703137
 20
60.7525446144
 40
1.0
100
AcDbArc
 50
113.5781784782
 51
180.0
  0
ARC
  5
2D1
100
AcDbEntity
  8
DTM_AXIS
100
AcDbCircle
 62
7
  6
CONTINUOUS
 10
69.0277703137
 20
65.3351203094
 40
1.0
100
AcDbArc
 50
180.0
 51
246.4218215218
  0
ARC
  5
2D2
100
AcDbEntity
  8
DTM_AXIS
100
AcDbCircle
 62
7
  6
CONTINUOUS
 10
69.0277703137
 20
68.0438324619
 40
1.0
100
AcDbArc
 50
90.0
 51
180.0
  0
ARC
  5
2D3
100
AcDbEntity
  8
DTM_AXIS
100
AcDbCircle
 62
7
  6
CONTINUOUS
 10
69.0277703137
 20
96.2938324619
 40
1.0
100
AcDbArc
 50
180.0
 51
270.0
  0
ARC
  5
2D4
100
AcDbEntity
  8
DTM_AXIS
100
AcDbCircle
 62
7
  6
CONTINUOUS
 10
69.0277703137
 20
97.2938324619
 40
1.0
100
AcDbArc
 50
90.0
 51
180.0
  0
ARC
  5
2D5
100
AcDbEntity
  8
DTM_AXIS
100
AcDbCircle
 62
7
  6
CONTINUOUS
 10
69.0277703137
 20
125.2938324619
 40
1.0
100
AcDbArc
 50
180.0
 51
270.0
  0
ARC
  5
2D6
100
AcDbEntity
  8
DTM_AXIS
100
AcDbCircle
 62
7
  6
CONTINUOUS
 10
69.0277703137
 20
126.2938324619
 40
1.0
100
AcDbArc
 50
90.0
 51
180.0
  0
ARC
  5
2D7
100
AcDbEntity
  8
DTM_AXIS
100
AcDbCircle
 62
7
  6
CONTINUOUS
 10
69.0277703137
 20
154.2440400001
 40
1.0
100
AcDbArc
 50
180.0
 51
250.0
  0
ARC
  5
2D8
100
AcDbEntity
  8
DTM_AXIS
100
AcDbCircle
 62
7
  6
CONTINUOUS
 10
69.0277703137
 20
158.0025446144
 40
1.0
100
AcDbArc
 50
113.5781784782
 51
180.0
  0
ARC
  5
2D9
100
AcDbEntity
  8
DTM_AXIS
100
AcDbCircle
 62
7
  6
CONTINUOUS
 10
69.0277703137
 20
162.5851203094
 40
1.0
100
AcDbArc
 50
180.0
 51
246.4218215218
  0
ARC
  5
2DA
100
AcDbEntity
  8
DTM_AXIS
100
AcDbCircle
 62
7
  6
CONTINUOUS
 10
72.0277703137
 20
70.0438324619
 40
1.0
100
AcDbArc
 50
270.0
 51
360.0
  0
ARC
  5
2DB
100
AcDbEntity
  8
DTM_AXIS
100
AcDbCircle
 62
7
  6
CONTINUOUS
 10
72.0277703137
 20
128.2938324619
 40
1.0
100
AcDbArc
 50
270.0
 51
360.0
  0
ARC
  5
2DC
100
AcDbEntity
  8
DTM_AXIS
100
AcDbCircle
 62
7
  6
CONTINUOUS
 10
72.0277703137
 20
123.2938324619
 40
1.0
100
AcDbArc
 50
0.0
 51
90.0
  0
ARC
  5
2DD
100
AcDbEntity
  8
DTM_AXIS
100
AcDbCircle
 62
7
  6
CONTINUOUS
 10
72.0277703137
 20
99.2938324619
 40
1.0
100
AcDbArc
 50
270.0
 51
360.0
  0
ARC
  5
2DE
100
AcDbEntity
  8
DTM_AXIS
100
AcDbCircle
 62
7
  6
CONTINUOUS
 10
72.0277703137
 20
94.2938324619
 40
1.0
100
AcDbArc
 50
0.0
 51
90.0
  0
ARC
  5
2DF
100
AcDbEntity
  8
DTM_AXIS
100
AcDbCircle
 62
7
  6
CONTINUOUS
 10
80.8277703137
 20
57.2438324619
 40
0.2
100
AcDbArc
 50
270.0
 51
360.0
  0
SPLINE
  5
2E0
100
AcDbEntity
  8
DTM_AXIS
100
AcDbSpline
 62
7
  6
CONTINUOUS
 70
0
 71
3
 72
8
 73
4
 74
0
 42
0.0000001
 43
0.0000001
 44
0.0000000001
 40
0.0
 40
0.0
 40
0.0
 40
0.0
 40
1.0
 40
1.0
 40
1.0
 40
1.0
 10
236.1364680436
 20
58.7666457913
 30
0.0
 10
236.1670360442
 20
58.7666411351
 30
0.0
 10
236.1983798288
 20
58.7740128319
 30
0.0
 10
236.2257314516
 20
58.7876616932
 30
0.0
  0
SPLINE
  5
2E1
100
AcDbEntity
  8
DTM_AXIS
100
AcDbSpline
 62
7
  6
CONTINUOUS
 70
0
 71
3
 72
21
 73
17
 74
0
 42
0.0000001
 43
0.0000001
 44
0.0000000001
 40
0.0
 40
0.0
 40
0.0
 40
0.0
 40
0.1140807378
 40
0.1723830418
 40
0.2318204288
 40
0.3553593196
 40
0.4200202022
 40
0.4863425196
 40
0.5538808636
 40
0.6219288682
 40
0.6896723931
 40
0.7562706538
 40
0.8209478194
 40
0.8831931889
 40
0.9427660694
 40
1.0
 40
1.0
 40
1.0
 40
1.0
 10
271.2412504572
 20
171.7510415038
 30
0.0
 10
271.2412504572
 20
172.571878922
 30
0.0
 10
271.2335527478
 20
173.8154131609
 30
0.0
 10
271.0040635462
 20
175.4705700535
 30
0.0
 10
270.5890189402
 20
177.1591855954
 30
0.0
 10
269.8553264786
 20
178.8038486258
 30
0.0
 10
268.8409534317
 20
180.331490566
 30
0.0
 10
267.9305739804
 20
181.4356358162
 30
0.0
 10
266.8993795601
 20
182.4619796021
 30
0.0
 10
265.7705205995
 20
183.395770327
 30
0.0
 10
264.5678625434
 20
184.2203580777
 30
0.0
 10
263.3168953658
 20
184.9214152464
 30
0.0
 10
262.0411861464
 20
185.4849692083
 30
0.0
 10
260.7621680226
 20
185.8996086864
 30
0.0
 10
259.4963534557
 20
186.1547130322
 30
0.0
 10
258.6550418461
 20
186.2147568376
 30
0.0
 10
258.2432304201
 20
186.2148195656
 30
0.0
  0
SPLINE
  5
2E2
100
AcDbEntity
  8
DTM_AXIS
100
AcDbSpline
 62
7
  6
CONTINUOUS
 70
0
 71
3
 72
21
 73
17
 74
0
 42
0.0000001
 43
0.0000001
 44
0.0000000001
 40
0.0
 40
0.0
 40
0.0
 40
0.0
 40
0.1140807378
 40
0.1723830418
 40
0.2318204288
 40
0.3553593196
 40
0.4200202022
 40
0.4863425196
 40
0.5538808636
 40
0.6219288682
 40
0.6896723931
 40
0.7562706538
 40
0.8209478194
 40
0.8831931889
 40
0.9427660694
 40
1.0
 40
1.0
 40
1.0
 40
1.0
 10
236.3364375826
 20
154.3006286943
 30
0.0
 10
236.3364375826
 20
155.1214661125
 30
0.0
 10
236.3287398733
 20
156.3650003514
 30
0.0
 10
236.0992506716
 20
158.020157244
 30
0.0
 10
235.6842060657
 20
159.7087727859
 30
0.0
 10
234.9505136041
 20
161.3534358163
 30
0.0
 10
233.9361405571
 20
162.8810777565
 30
0.0
 10
233.0257611058
 20
163.9852230068
 30
0.0
 10
231.9945666855
 20
165.0115667927
 30
0.0
 10
230.8657077249
 20
165.9453575175
 30
0.0
 10
229.6630496688
 20
166.7699452683
 30
0.0
 10
228.4120824912
 20
167.4710024369
 30
0.0
 10
227.1363732719
 20
168.0345563988
 30
0.0
 10
225.857355148
 20
168.4491958769
 30
0.0
 10
224.5915405812
 20
168.7043002227
 30
0.0
 10
223.7502289715
 20
168.7643440281
 30
0.0
 10
223.3384175456
 20
168.7644067561
 30
0.0
  0
SPLINE
  5
2E3
100
AcDbEntity
  8
DTM_AXIS
100
AcDbSpline
 62
7
  6
CONTINUOUS
 70
0
 71
3
 72
21
 73
17
 74
0
 42
0.0000001
 43
0.0000001
 44
0.0000000001
 40
0.0
 40
0.0
 40
0.0
 40
0.0
 40
0.1140796124
 40
0.1723805306
 40
0.2318159018
 40
0.3553495309
 40
0.420007809
 40
0.4863278999
 40
0.5538646328
 40
0.6219118233
 40
0.6896554678
 40
0.7562548769
 40
0.8209342867
 40
0.8831830355
 40
0.9427604382
 40
1.0
 40
1.0
 40
1.0
 40
1.0
 10
81.0277703137
 20
152.5814836057
 30
0.0
 10
81.0277703137
 20
153.4023482442
 30
0.0
 10
81.0200726655
 20
154.6459187231
 30
0.0
 10
80.7905484984
 20
156.3011112881
 30
0.0
 10
80.3754423998
 20
157.9897254773
 30
0.0
 10
79.6416341234
 20
159.6343508151
 30
0.0
 10
78.6271048365
 20
161.1618975666
 30
0.0
 10
77.7165847877
 20
162.26594766
 30
0.0
 10
76.6852315859
 20
163.2921740401
 30
0.0
 10
75.556199078
 20
164.2258285821
 30
0.0
 10
74.3533563438
 20
165.0502643895
 30
0.0
 10
73.1021970756
 20
165.7511573182
 30
0.0
 10
71.8262920458
 20
166.3145376886
 30
0.0
 10
70.5470778267
 20
166.7289969602
 30
0.0
 10
69.2810700256
 20
166.9839164729
 30
0.0
 10
68.4396399826
 20
167.0438324619
 30
0.0
 10
68.0277703137
 20
167.0438324619
 30
0.0
  0
ENDSEC
  0
SECTION
  2
OBJECTS
  0
DICTIONARY
  5
C
100
AcDbDictionary
280
0
281
1
  3
ACAD_GROUP
350
D
  3
ACAD_MLINESTYLE
350
17
  3
ACAD_LAYOUT
350
1A
  3
ACAD_PLOTSETTINGS
350
19
  3
ACAD_PLOTSTYLENAME
350
E
  3
ACAD_TABLESTYLE
350
       2E4
  0
DICTIONARY
  5
D
102
{ACAD_REACTORS
330
C
102
}
100
AcDbDictionary
280
0
281
1
  0
ACDBDICTIONARYWDFLT
  5
E
102
{ACAD_REACTORS
330
C
102
}
100
AcDbDictionary
281
1
  3
Normal
350
F
100
AcDbDictionaryWithDefault
340
F
  0
DICTIONARY
  5
17
102
{ACAD_REACTORS
330
C
102
}
100
AcDbDictionary
280
0
281
1
  3
Standard
350
18
  0
DICTIONARY
  5
2E4
330
C
100
AcDbDictionary
281
1
  3
Standard
350
       2E7
  3
Standard1
350
       2E8
  0
DICTIONARY
  5
19
102
{ACAD_REACTORS
330
C
102
}
100
AcDbDictionary
281
1
  0
DICTIONARY
  5
1A
102
{ACAD_REACTORS
330
C
102
}
100
AcDbDictionary
281
1
  3
Model
350
2E5
  3
Layout1
350
2E6
  0
ACDBPLACEHOLDER
  5
F
102
{ACAD_REACTORS
330
E
102
}
  0
MLINESTYLE
  5
18
102
{ACAD_REACTORS
330
17
102
}
100
AcDbMlineStyle
  2
STANDARD
 70
0
  3

 62
256
 51
90.0
 52
90.0
 71
2
 49
0.5
 62
256
  6
BYLAYER
 49
-0.5
 62
256
  6
BYLAYER
  0
LAYOUT
  5
2E5
102
{ACAD_REACTORS
330
1A
102
}
100
AcDbPlotSettings
  1

  2
none_device
  4
ISO_A4_(297.00_x_210.00_MM)
  6

 40
0.0
 41
0.0
 42
0.0
 43
0.0
 44
297.0
 45
210.0
 46
0.0
 47
0.0
 48
0.0
 49
0.0
140
0.0
141
0.0
142
1.0
143
1.0
 70
1024
 72
1
 73
0
 74
0
  7

 75
0
147
1.0
148
0.0
149
0.0
100
AcDbLayout
  1
Model
 70
0
 71
0
 10
0.0
 20
0.0
 11
297.0
 21
210.0
 12
0.0
 22
0.0
 32
0.0
 14
0.0
 24
0.0
 34
0.0
 15
0.0
 25
0.0
 35
0.0
146
0.0
 13
0.0
 23
0.0
 33
0.0
 16
1.0
 26
0.0
 36
0.0
 17
0.0
 27
1.0
 37
0.0
 76
0
330
20A
345
0
346
0
  0
LAYOUT
  5
2E6
102
{ACAD_REACTORS
330
1A
102
}
100
AcDbPlotSettings
  1

  2
none_device
  4
ISO_A4_(297.00_x_210.00_MM)
  6

 40
0.0
 41
0.0
 42
0.0
 43
0.0
 44
297.0
 45
210.0
 46
0.0
 47
0.0
 48
0.0
 49
0.0
140
0.0
141
0.0
142
1.0
143
1.0
 70
0
 72
1
 73
0
 74
0
  7

 75
0
147
1.0
148
0.0
149
0.0
100
AcDbLayout
  1
Layout1
 70
0
 71
1
 10
0.0
 20
0.0
 11
297.0
 21
210.0
 12
0.0
 22
0.0
 32
0.0
 14
0.0
 24
0.0
 34
0.0
 15
0.0
 25
0.0
 35
0.0
146
0.0
 13
0.0
 23
0.0
 33
0.0
 16
1.0
 26
0.0
 36
0.0
 17
0.0
 27
1.0
 37
0.0
 76
0
330
20B
345
0
346
0
  0
TABLESTYLE
  5
2E7
102
{ACAD_REACTORS
330
2E4
330
285
102
}
330
2E4
100
AcDbTableStyle
  3
Standard
 70
0
 71
0
 40
0.06
 41
0.06
280
1
281
1
  7
Standard
140
0.18
170
1
 62
0
 63
7
283
0
  7
Standard
140
0.18
170
1
 62
0
 63
7
283
0
  7
Standard
140
0.18
170
1
 62
0
 63
7
283
0
  0
TABLESTYLE
  5
2E8
102
{ACAD_REACTORS
330
2E4
102
}
330
2E4
100
AcDbTableStyle
  3
Standard1
 70
1
 71
0
 40
0.06
 41
0.06
280
1
281
1
  7
Standard
140
0.18
170
1
 62
0
 63
7
283
0
  7
Standard
140
0.18
170
1
 62
0
 63
7
283
0
  7
Standard
140
0.18
170
1
 62
0
 63
7
283
0
  0
ENDSEC
  0
EOF
