999
DXF file: O:\ORAC_PRODUCTEN\ORAC_COEX\SX\168\eagle_ontwerp\sx168-prod-mm-inches.dxf
999
Pro/ENGINEER 2021404 by Parametric Technology Corporation
  0
SECTION
  2
HEADER
  9
$ACADVER
  1
AC1032
  9
$DWGCODEPAGE
  3
ANSI_1252
  9
$EXTMAX
 10
297.0
 20
210.0
 30
0.0
  9
$EXTMIN
 10
0.0
 20
0.0
 30
0.0
  9
$LIMMIN
 10
0.0
 20
0.0
  9
$LIMMAX
 10
297.0
 20
210.0
  9
$VIEWCTR
 10
148.5
 20
105.0
  9
$VIEWSIZE
 40
210.0
  9
$CLAYER
  8
0
  9
$LTSCALE
 40
16.335
  9
$CELTYPE
  6
BYLAYER
  9
$DIMSCALE
 40
1.0
  9
$DIMASZ
 40
3.5
  9
$DIMEXO
 40
1.0
  9
$DIMDLI
 40
11.286
  9
$DIMEXE
 40
1.5
  9
$DIMCEN
 40
2.673
  9
$DIMLFAC
 40
1.0
  9
$DIMBLK
  1
_FILLED
  9
$DIMALT
 70
0
  9
$DIMALTF
 40
0.0393700787
  9
$DIMTXT
 40
2.5
  9
$DIMTOL
 70
1
  9
$DIMLIM
 70
0
  9
$DIMTFAC
 40
1.0
  9
$DIMTP
 40
0.001
  9
$DIMTM
 40
0.001
  9
$DIMGAP
 40
0.625
  9
$DIMDSEP
 70
44
  9
$AUNITS
 70
0
  9
$PDMODE
 70
3
  9
$PDSIZE
 40
8.0
  9
$HANDSEED
  5
2F1
  9
$TILEMODE
 70
0
  9
$MEASUREMENT
 70
1
  9
$INSUNITS
 70
4
  0
ENDSEC
  0
SECTION
  2
CLASSES
  0
CLASS
  1
ACDBDICTIONARYWDFLT
  2
AcDbDictionaryWithDefault
  3
AutoCAD 2000
 90
0
 91
1
280
0
281
0
  0
CLASS
  1
ACDBPLACEHOLDER
  2
AcDbPlaceHolder
  3
AutoCAD 2000
 90
0
 91
1
280
0
281
0
  0
CLASS
  1
LAYOUT
  2
AcDbLayout
  3
AutoCAD 2000
 90
0
 91
0
280
0
281
0
  0
CLASS
  1
TABLESTYLE
  2
AcDbTableStyle
  3
ObjectDBX Classes
 90
2047
 91
1
280
0
281
0
  0
CLASS
  1
ACAD_TABLE
  2
AcDbTable
  3
ObjectDBX Classes
 90
1025
 91
1
280
0
281
1
  0
ENDSEC
  0
SECTION
  2
TABLES
  0
TABLE
  2
VPORT
  5
8
100
AcDbSymbolTable
 70
2
  0
VPORT
  5
1F4
100
AcDbSymbolTableRecord
100
AcDbViewportTableRecord
  2
*ACTIVE
 70
0
 10
0.0
 20
0.0
 11
1.0
 21
1.0
 12
148.5
 22
105.0
 13
0.0
 23
0.0
 14
1.0
 24
1.0
 15
0.0
 25
0.0
 16
0.0
 26
0.0
 36
1.0
 17
0.0
 27
0.0
 37
0.0
 40
210.0
 41
1.4142857143
 42
50.0
 43
0.0
 44
0.0
 50
0.0
 51
0.0
 71
0
 72
100
 73
1
 74
1
 75
0
 76
0
 77
0
 78
0
  0
ENDTAB
  0
TABLE
  2
LTYPE
  5
5
100
AcDbSymbolTable
 70
6
  0
LTYPE
  5
14
100
AcDbSymbolTableRecord
100
AcDbLinetypeTableRecord
  2
BYBLOCK
 70
0
  3

 72
65
 73
0
 40
0.0
  0
LTYPE
  5
15
100
AcDbSymbolTableRecord
100
AcDbLinetypeTableRecord
  2
BYLAYER
 70
0
  3

 72
65
 73
0
 40
0.0
  0
LTYPE
  5
16
100
AcDbSymbolTableRecord
100
AcDbLinetypeTableRecord
  2
CONTINUOUS
 70
64
  3
Solid line
 72
65
 73
0
 40
0.0
  0
LTYPE
  5
1F5
100
AcDbSymbolTableRecord
100
AcDbLinetypeTableRecord
  2
CENTER
 70
64
  3
____ _ ____ _ ____ _ ____ _ ____ _ ____ _ ____
 72
65
 73
4
 40
0.6
 49
0.375
 74
0
 49
-0.075
 74
0
 49
0.075
 74
0
 49
-0.075
 74
0
  0
LTYPE
  5
1F6
100
AcDbSymbolTableRecord
100
AcDbLinetypeTableRecord
  2
HIDDEN
 70
64
  3
- - - - - - - - - - - - - - - - - - - -
 72
65
 73
2
 40
0.2
 49
0.1
 74
0
 49
-0.1
 74
0
  0
LTYPE
  5
1F7
100
AcDbSymbolTableRecord
100
AcDbLinetypeTableRecord
  2
PHANTOM
 70
64
  3
_____ _ _ _____ _ _ _____ _ _ _____
 72
65
 73
6
 40
0.8
 49
0.45
 74
0
 49
-0.05
 74
0
 49
0.1
 74
0
 49
-0.05
 74
0
 49
0.1
 74
0
 49
-0.05
 74
0
  0
LTYPE
  5
1F8
100
AcDbSymbolTableRecord
100
AcDbLinetypeTableRecord
  2
DOT
 70
64
  3
. . . . . . . . . . . . . . . . . . . .
 72
65
 73
2
 40
0.2
 49
0.1
 74
0
 49
-0.1
 74
0
  0
LTYPE
  5
1F9
100
AcDbSymbolTableRecord
100
AcDbLinetypeTableRecord
  2
DASHED
 70
64
  3
- - - - - - - - - - - - - - - - - - - -
 72
65
 73
2
 40
0.2
 49
0.1
 74
0
 49
-0.1
 74
0
  0
ENDTAB
  0
TABLE
  2
LAYER
  5
2
100
AcDbSymbolTable
 70
36
  0
LAYER
  5
10
100
AcDbSymbolTableRecord
100
AcDbLayerTableRecord
  2
0
 70
0
 62
7
  6
CONTINUOUS
370
-3
390
F
  0
LAYER
  5
1FA
100
AcDbSymbolTableRecord
100
AcDbLayerTableRecord
  2
DEFAULT_1
 70
0
 62
7
  6
CENTER
370
-3
390
F
  0
LAYER
  5
1FB
100
AcDbSymbolTableRecord
100
AcDbLayerTableRecord
  2
DEFAULT_2
 70
0
 62
8
  6
HIDDEN
370
-3
390
F
  0
LAYER
  5
1FC
100
AcDbSymbolTableRecord
100
AcDbLayerTableRecord
  2
DEFAULT_3
 70
0
 62
7
  6
PHANTOM
370
-3
390
F
  0
LAYER
  5
1FD
100
AcDbSymbolTableRecord
100
AcDbLayerTableRecord
  2
01___PRT_ALL_DTM_PLN
 70
0
 62
7
  6
CONTINUOUS
370
-3
390
F
  0
LAYER
  5
1FE
100
AcDbSymbolTableRecord
100
AcDbLayerTableRecord
  2
01___PRT_DEF_DTM_PLN
 70
0
 62
7
  6
CONTINUOUS
370
-3
390
F
  0
LAYER
  5
1FF
100
AcDbSymbolTableRecord
100
AcDbLayerTableRecord
  2
02___PRT_ALL_AXES
 70
0
 62
7
  6
CONTINUOUS
370
-3
390
F
  0
LAYER
  5
200
100
AcDbSymbolTableRecord
100
AcDbLayerTableRecord
  2
03___PRT_ALL_CURVES
 70
0
 62
7
  6
CONTINUOUS
370
-3
390
F
  0
LAYER
  5
201
100
AcDbSymbolTableRecord
100
AcDbLayerTableRecord
  2
04___PRT_ALL_DTM_PNT
 70
0
 62
7
  6
CONTINUOUS
370
-3
390
F
  0
LAYER
  5
202
100
AcDbSymbolTableRecord
100
AcDbLayerTableRecord
  2
05___PRT_ALL_DTM_CSYS
 70
0
 62
7
  6
CONTINUOUS
370
-3
390
F
  0
LAYER
  5
203
100
AcDbSymbolTableRecord
100
AcDbLayerTableRecord
  2
05___PRT_DEF_DTM_CSYS
 70
0
 62
7
  6
CONTINUOUS
370
-3
390
F
  0
LAYER
  5
204
100
AcDbSymbolTableRecord
100
AcDbLayerTableRecord
  2
06___PRT_ALL_SURFS
 70
0
 62
7
  6
CONTINUOUS
370
-3
390
F
  0
LAYER
  5
205
100
AcDbSymbolTableRecord
100
AcDbLayerTableRecord
  2
AXES
 70
0
 62
7
  6
CONTINUOUS
370
-3
390
F
  0
LAYER
  5
206
100
AcDbSymbolTableRecord
100
AcDbLayerTableRecord
  2
CURVES
 70
0
 62
7
  6
CONTINUOUS
370
-3
390
F
  0
LAYER
  5
207
100
AcDbSymbolTableRecord
100
AcDbLayerTableRecord
  2
DTM_ALL
 70
0
 62
7
  6
CONTINUOUS
370
-3
390
F
  0
LAYER
  5
208
100
AcDbSymbolTableRecord
100
AcDbLayerTableRecord
  2
DTM_AXIS
 70
0
 62
7
  6
CONTINUOUS
370
-3
390
F
  0
LAYER
  5
209
100
AcDbSymbolTableRecord
100
AcDbLayerTableRecord
  2
DTM_CSYS
 70
0
 62
7
  6
CONTINUOUS
370
-3
390
F
  0
LAYER
  5
20A
100
AcDbSymbolTableRecord
100
AcDbLayerTableRecord
  2
DTM_CURVE
 70
0
 62
7
  6
CONTINUOUS
370
-3
390
F
  0
LAYER
  5
20B
100
AcDbSymbolTableRecord
100
AcDbLayerTableRecord
  2
DTM_MASTER
 70
0
 62
7
  6
CONTINUOUS
370
-3
390
F
  0
LAYER
  5
20C
100
AcDbSymbolTableRecord
100
AcDbLayerTableRecord
  2
DTM_POINT
 70
0
 62
7
  6
CONTINUOUS
370
-3
390
F
  0
LAYER
  5
20D
100
AcDbSymbolTableRecord
100
AcDbLayerTableRecord
  2
DTM_QUILT
 70
0
 62
7
  6
CONTINUOUS
370
-3
390
F
  0
LAYER
  5
20E
100
AcDbSymbolTableRecord
100
AcDbLayerTableRecord
  2
GTOL
 70
0
 62
7
  6
CONTINUOUS
370
-3
390
F
  0
LAYER
  5
20F
100
AcDbSymbolTableRecord
100
AcDbLayerTableRecord
  2
KALIBER-TEMPLATES
 70
0
 62
7
  6
CONTINUOUS
370
-3
390
F
  0
LAYER
  5
210
100
AcDbSymbolTableRecord
100
AcDbLayerTableRecord
  2
LAY0001
 70
0
 62
7
  6
CONTINUOUS
370
-3
390
F
  0
LAYER
  5
211
100
AcDbSymbolTableRecord
100
AcDbLayerTableRecord
  2
NOTES
 70
0
 62
7
  6
CONTINUOUS
370
-3
390
F
  0
LAYER
  5
212
100
AcDbSymbolTableRecord
100
AcDbLayerTableRecord
  2
REF_PLANS
 70
0
 62
7
  6
CONTINUOUS
370
-3
390
F
  0
LAYER
  5
213
100
AcDbSymbolTableRecord
100
AcDbLayerTableRecord
  2
SURFACES
 70
0
 62
7
  6
CONTINUOUS
370
-3
390
F
  0
LAYER
  5
214
100
AcDbSymbolTableRecord
100
AcDbLayerTableRecord
  2
XSEC_DATUMS
 70
0
 62
7
  6
CONTINUOUS
370
-3
390
F
  0
ENDTAB
  0
TABLE
  2
STYLE
  5
3
100
AcDbSymbolTable
 70
1
  0
STYLE
  5
11
100
AcDbSymbolTableRecord
100
AcDbTextStyleTableRecord
  2
STANDARD
 70
0
 40
0.0
 41
1.0
 50
0.0
 71
0
 42
0.2
  3
cgtime.ttf
  4

1001
ACAD
1000
CG Times
1071
34
  0
STYLE
  5
215
100
AcDbSymbolTableRecord
100
AcDbTextStyleTableRecord
  2
TEXTSTYLE_1
 70
0
 40
0.0
 41
0.8
 50
0.0
 71
0
 42
0.2
  3
gdt
  4

  0
STYLE
  5
216
100
AcDbSymbolTableRecord
100
AcDbTextStyleTableRecord
  2
TEXTSTYLE_2
 70
0
 40
0.0
 41
1.0
 50
0.0
 71
0
 42
0.2
  3
trium.ttf
  4

1001
ACAD
1000
CG Triumvirate
1071
34
  0
ENDTAB
  0
TABLE
  2
VIEW
  5
6
100
AcDbSymbolTable
 70
0
  0
ENDTAB
  0
TABLE
  2
UCS
  5
7
100
AcDbSymbolTable
 70
0
  0
ENDTAB
  0
TABLE
  2
APPID
  5
9
100
AcDbSymbolTable
 70
1
  0
APPID
  5
217
100
AcDbSymbolTableRecord
100
AcDbRegAppTableRecord
  2
ACAD
 70
0
  0
ENDTAB
  0
TABLE
  2
BLOCK_RECORD
  5
1
100
AcDbSymbolTable
 70
0
  0
BLOCK_RECORD
  5
218
100
AcDbSymbolTableRecord
100
AcDbBlockTableRecord
  2
*Model_Space
  0
BLOCK_RECORD
  5
219
100
AcDbSymbolTableRecord
100
AcDbBlockTableRecord
  2
*Paper_Space
  0
BLOCK_RECORD
  5
21A
100
AcDbSymbolTableRecord
100
AcDbBlockTableRecord
  2
_FILLED
  0
BLOCK_RECORD
  5
21B
100
AcDbSymbolTableRecord
100
AcDbBlockTableRecord
  2
*D0
  0
BLOCK_RECORD
  5
21C
100
AcDbSymbolTableRecord
100
AcDbBlockTableRecord
  2
*D1
  0
BLOCK_RECORD
  5
21D
100
AcDbSymbolTableRecord
100
AcDbBlockTableRecord
  2
*D2
  0
BLOCK_RECORD
  5
21E
100
AcDbSymbolTableRecord
100
AcDbBlockTableRecord
  2
*D3
  0
BLOCK_RECORD
  5
21F
100
AcDbSymbolTableRecord
100
AcDbBlockTableRecord
  2
*D4
  0
BLOCK_RECORD
  5
220
100
AcDbSymbolTableRecord
100
AcDbBlockTableRecord
  2
*T1
  0
ENDTAB
  0
TABLE
  2
DIMSTYLE
  5
A
100
AcDbSymbolTable
 70
1
100
AcDbDimStyleTable
 71
0
  0
DIMSTYLE
105
221
100
AcDbSymbolTableRecord
100
AcDbDimStyleTableRecord
  2
STANDARD
 70
0
  3

  4

 40
1.0
 41
3.5
 42
1.0
 43
0.38
 44
1.5
 45
0.0
 46
0.0
 47
0.001
 48
0.001
140
2.5
141
0.09
142
0.0
143
25.4
144
1.0
145
0.0
146
1.0
147
0.625
 71
1
 72
0
 73
1
 74
1
 75
0
 76
0
 77
0
 78
8
 79
2
170
0
171
2
172
0
173
0
174
0
175
0
176
0
177
0
178
0
270
2
179
3
271
3
272
3
273
2
274
2
275
0
280
0
281
0
282
0
283
1
284
8
285
0
286
0
287
3
288
0
340
11
278
44
341
21A
342
21A
343
21A
344
21A
  0
DIMSTYLE
105
222
100
AcDbSymbolTableRecord
100
AcDbDimStyleTableRecord
  2
DIMSTYLE_1
 70
0
  3

  4

 40
1.0
 41
3.5
 42
1.0
 43
0.38
 44
1.5
 45
0.0
 46
0.0
 47
0.0
 48
0.0
140
2.5
141
0.09
142
0.0
143
25.4
144
1.0
145
0.0
146
1.0
147
1.25
 71
0
 72
0
 73
1
 74
1
 75
0
 76
0
 77
0
 78
8
 79
2
170
0
171
2
172
0
173
0
174
0
175
0
176
0
177
0
178
0
270
2
179
3
271
3
272
3
273
2
274
2
275
0
280
0
281
0
282
0
283
1
284
8
285
0
286
0
287
3
288
0
340
11
278
44
341
21A
342
21A
343
21A
344
21A
  0
ENDTAB
  0
ENDSEC
  0
SECTION
  2
BLOCKS
  0
BLOCK
  5
20
100
AcDbEntity
  8
0
100
AcDbBlockBegin
  2
*Model_Space
 70
0
 10
0.0
 20
0.0
 30
0.0
  3
*Model_Space
  1

  0
ENDBLK
  5
21
100
AcDbEntity
  8
0
100
AcDbBlockEnd
  0
BLOCK
  5
1C
100
AcDbEntity
  8
0
100
AcDbBlockBegin
  2
*Paper_Space
 70
0
 10
0.0
 20
0.0
 30
0.0
  3
*Paper_Space
  1

  0
ENDBLK
  5
1D
100
AcDbEntity
  8
0
100
AcDbBlockEnd
  0
BLOCK
  5
223
100
AcDbEntity
  8
0
100
AcDbBlockBegin
  2
_FILLED
 70
64
 10
0.0
 20
0.0
  3
_FILLED
  1

  0
SOLID
  5
224
100
AcDbEntity
  8
0
  6
BYBLOCK
 62
0
100
AcDbTrace
 10
0.0
 20
0.0
 11
-1.0
 21
0.2142857143
 12
-1.0
 22
-0.2142857143
 13
-1.0
 23
-0.2142857143
  0
ENDBLK
  5
225
100
AcDbEntity
  8
0
  6
BYBLOCK
 62
0
100
AcDbBlockEnd
  0
BLOCK
  5
226
100
AcDbEntity
  8
0
100
AcDbBlockBegin
 62
2
  6
CONTINUOUS
  2
*D0
 70
65
 10
0.0
 20
0.0
  3
*D0
  1

  0
TEXT
  5
227
100
AcDbEntity
  8
0
100
AcDbText
 62
2
  6
CONTINUOUS
 10
60.5870586805
 20
180.5251904376
  7
STANDARD
 40
2.5
  1
13
 72
5
 11
64.2251909762
 21
180.5251904376
100
AcDbText
  0
TEXT
  5
228
100
AcDbEntity
  8
0
100
AcDbText
 62
2
  6
CONTINUOUS
 10
64.2251909762
 20
180.5251904376
  7
STANDARD
 40
2.5
  1
mm
 72
5
 11
69.8963972019
 21
180.5251904376
100
AcDbText
  0
TEXT
  5
229
100
AcDbEntity
  8
0
100
AcDbText
 62
2
  6
CONTINUOUS
 10
61.9732454509
 20
176.7751904376
  7
STANDARD
 40
2.5
  1
1/2"
 72
5
 11
68.5102104314
 21
176.7751904376
100
AcDbText
  0
LINE
  5
22A
100
AcDbEntity
  8
0
100
AcDbLine
 62
2
  6
CONTINUOUS
 10
58.7417279412
 20
175.9323529412
 11
58.7417279412
 21
183.2751904376
  0
LINE
  5
22B
100
AcDbEntity
  8
0
100
AcDbLine
 62
2
  6
CONTINUOUS
 10
71.7417279412
 20
176.1323529412
 11
71.7417279412
 21
183.2751904376
  0
LINE
  5
22C
100
AcDbEntity
  8
0
100
AcDbLine
 62
2
  6
CONTINUOUS
 10
58.7417279412
 20
181.7751904376
 11
53.7417279412
 21
181.7751904376
  0
LINE
  5
22D
100
AcDbEntity
  8
0
100
AcDbLine
 62
2
  6
CONTINUOUS
 10
71.7417279412
 20
181.7751904376
 11
76.7417279412
 21
181.7751904376
  0
INSERT
  5
22E
100
AcDbEntity
  8
0
100
AcDbBlockReference
 62
2
  6
CONTINUOUS
  2
_FILLED
 10
58.7417279412
 20
181.7751904376
 41
3.5
 42
3.5
 43
3.5
  0
INSERT
  5
22F
100
AcDbEntity
  8
0
100
AcDbBlockReference
 62
2
  6
CONTINUOUS
  2
_FILLED
 10
71.7417279412
 20
181.7751904376
 41
3.5
 42
3.5
 43
3.5
 50
180.0
  0
ENDBLK
  5
230
100
AcDbEntity
  8
0
  6
BYBLOCK
 62
0
100
AcDbBlockEnd
  0
BLOCK
  5
231
100
AcDbEntity
  8
0
100
AcDbBlockBegin
 62
2
  6
CONTINUOUS
  2
*D1
 70
65
 10
0.0
 20
0.0
  3
*D1
  1

  0
TEXT
  5
232
100
AcDbEntity
  8
0
100
AcDbText
 62
2
  6
CONTINUOUS
 10
77.6128427138
 20
99.3823529412
  7
STANDARD
 40
2.5
  1
150
 72
5
 11
83.0700411573
 21
99.3823529412
100
AcDbText
  0
TEXT
  5
233
100
AcDbEntity
  8
0
100
AcDbText
 62
2
  6
CONTINUOUS
 10
83.0700411573
 20
99.3823529412
  7
STANDARD
 40
2.5
  1
mm
 72
5
 11
88.741247383
 21
99.3823529412
100
AcDbText
  0
TEXT
  5
234
100
AcDbEntity
  8
0
100
AcDbText
 62
2
  6
CONTINUOUS
 10
78.3910528305
 20
95.6323529412
  7
STANDARD
 40
2.5
  1
5-7/8"
 72
5
 11
87.9630372663
 21
95.6323529412
100
AcDbText
  0
LINE
  5
235
100
AcDbEntity
  8
0
100
AcDbLine
 62
2
  6
CONTINUOUS
 10
72.2417279412
 20
175.6323529412
 11
84.6770450484
 21
175.6323529412
  0
LINE
  5
236
100
AcDbEntity
  8
0
100
AcDbLine
 62
2
  6
CONTINUOUS
 10
72.2417279412
 20
25.6323529412
 11
84.6770450484
 21
25.6323529412
  0
LINE
  5
237
100
AcDbEntity
  8
0
100
AcDbLine
 62
2
  6
CONTINUOUS
 10
83.1770450484
 20
175.6323529412
 11
83.1770450484
 21
103.1323529412
  0
LINE
  5
238
100
AcDbEntity
  8
0
100
AcDbLine
 62
2
  6
CONTINUOUS
 10
83.1770450484
 20
25.6323529412
 11
83.1770450484
 21
94.3823529412
  0
INSERT
  5
239
100
AcDbEntity
  8
0
100
AcDbBlockReference
 62
2
  6
CONTINUOUS
  2
_FILLED
 10
83.1770450484
 20
175.6323529412
 41
3.5
 42
3.5
 43
3.5
 50
90.0
  0
INSERT
  5
23A
100
AcDbEntity
  8
0
100
AcDbBlockReference
 62
2
  6
CONTINUOUS
  2
_FILLED
 10
83.1770450484
 20
25.6323529412
 41
3.5
 42
3.5
 43
3.5
 50
270.0
  0
ENDBLK
  5
23B
100
AcDbEntity
  8
0
  6
BYBLOCK
 62
0
100
AcDbBlockEnd
  0
BLOCK
  5
23C
100
AcDbEntity
  8
0
100
AcDbBlockBegin
 62
2
  6
CONTINUOUS
  2
*D2
 70
65
 10
0.0
 20
0.0
  3
*D2
  1

  0
TEXT
  5
23D
100
AcDbEntity
  8
0
100
AcDbText
 62
2
  6
CONTINUOUS
 10
33.4768954718
 20
66.1323529412
  7
STANDARD
 40
2.5
  1
65,5
 72
5
 11
40.1500472228
 21
66.1323529412
100
AcDbText
  0
TEXT
  5
23E
100
AcDbEntity
  8
0
100
AcDbText
 62
2
  6
CONTINUOUS
 10
40.1500472228
 20
66.1323529412
  7
STANDARD
 40
2.5
  1
mm
 72
5
 11
45.8212534485
 21
66.1323529412
100
AcDbText
  0
TEXT
  5
23F
100
AcDbEntity
  8
0
100
AcDbText
 62
2
  6
CONTINUOUS
 10
34.8630822422
 20
62.3823529412
  7
STANDARD
 40
2.5
  1
2-5/8"
 72
5
 11
44.435066678
 21
62.3823529412
100
AcDbText
  0
LINE
  5
240
100
AcDbEntity
  8
0
100
AcDbLine
 62
2
  6
CONTINUOUS
 10
62.7417279412
 20
100.1323529412
 11
38.1490744601
 21
100.1323529412
  0
LINE
  5
241
100
AcDbEntity
  8
0
100
AcDbLine
 62
2
  6
CONTINUOUS
 10
62.7417279412
 20
34.6323529412
 11
38.1490744601
 21
34.6323529412
  0
LINE
  5
242
100
AcDbEntity
  8
0
100
AcDbLine
 62
2
  6
CONTINUOUS
 10
39.6490744601
 20
100.1323529412
 11
39.6490744601
 21
69.8823529412
  0
LINE
  5
243
100
AcDbEntity
  8
0
100
AcDbLine
 62
2
  6
CONTINUOUS
 10
39.6490744601
 20
34.6323529412
 11
39.6490744601
 21
61.1323529412
  0
INSERT
  5
244
100
AcDbEntity
  8
0
100
AcDbBlockReference
 62
2
  6
CONTINUOUS
  2
_FILLED
 10
39.6490744601
 20
100.1323529412
 41
3.5
 42
3.5
 43
3.5
 50
90.0
  0
INSERT
  5
245
100
AcDbEntity
  8
0
100
AcDbBlockReference
 62
2
  6
CONTINUOUS
  2
_FILLED
 10
39.6490744601
 20
34.6323529412
 41
3.5
 42
3.5
 43
3.5
 50
270.0
  0
ENDBLK
  5
246
100
AcDbEntity
  8
0
  6
BYBLOCK
 62
0
100
AcDbBlockEnd
  0
BLOCK
  5
247
100
AcDbEntity
  8
0
100
AcDbBlockBegin
 62
2
  6
CONTINUOUS
  2
*D3
 70
65
 10
0.0
 20
0.0
  3
*D3
  1

  0
TEXT
  5
248
100
AcDbEntity
  8
0
100
AcDbText
 62
2
  6
CONTINUOUS
 10
32.9628622851
 20
137.1323529412
  7
STANDARD
 40
2.5
  1
56,5
 72
5
 11
39.636014036
 21
137.1323529412
100
AcDbText
  0
TEXT
  5
249
100
AcDbEntity
  8
0
100
AcDbText
 62
2
  6
CONTINUOUS
 10
39.636014036
 20
137.1323529412
  7
STANDARD
 40
2.5
  1
mm
 72
5
 11
45.3072202617
 21
137.1323529412
100
AcDbText
  0
TEXT
  5
24A
100
AcDbEntity
  8
0
100
AcDbText
 62
2
  6
CONTINUOUS
 10
34.3490490555
 20
133.3823529412
  7
STANDARD
 40
2.5
  1
2-1/4"
 72
5
 11
43.9210334913
 21
133.3823529412
100
AcDbText
  0
TEXT
  5
24B
100
AcDbEntity
  8
0
100
AcDbText
 62
2
  6
CONTINUOUS
 10
38.5951580049
 20
129.6323529412
  7
STANDARD
 40
2.5
  1
 
 72
5
 11
39.6749245419
 21
129.6323529412
100
AcDbText
  0
LINE
  5
24C
100
AcDbEntity
  8
0
100
AcDbLine
 62
2
  6
CONTINUOUS
 10
62.7417279412
 20
166.6323529412
 11
37.6350412734
 21
166.6323529412
  0
LINE
  5
24D
100
AcDbEntity
  8
0
100
AcDbLine
 62
2
  6
CONTINUOUS
 10
62.7417279412
 20
110.1323529412
 11
37.6350412734
 21
110.1323529412
  0
LINE
  5
24E
100
AcDbEntity
  8
0
100
AcDbLine
 62
2
  6
CONTINUOUS
 10
39.1350412734
 20
166.6323529412
 11
39.1350412734
 21
140.8823529412
  0
LINE
  5
24F
100
AcDbEntity
  8
0
100
AcDbLine
 62
2
  6
CONTINUOUS
 10
39.1350412734
 20
110.1323529412
 11
39.1350412734
 21
128.3823529412
  0
INSERT
  5
250
100
AcDbEntity
  8
0
100
AcDbBlockReference
 62
2
  6
CONTINUOUS
  2
_FILLED
 10
39.1350412734
 20
166.6323529412
 41
3.5
 42
3.5
 43
3.5
 50
90.0
  0
INSERT
  5
251
100
AcDbEntity
  8
0
100
AcDbBlockReference
 62
2
  6
CONTINUOUS
  2
_FILLED
 10
39.1350412734
 20
110.1323529412
 41
3.5
 42
3.5
 43
3.5
 50
270.0
  0
ENDBLK
  5
252
100
AcDbEntity
  8
0
  6
BYBLOCK
 62
0
100
AcDbBlockEnd
  0
BLOCK
  5
253
100
AcDbEntity
  8
0
100
AcDbBlockBegin
 62
2
  6
CONTINUOUS
  2
*D4
 70
65
 10
0.0
 20
0.0
  3
*D4
  1

  0
TEXT
  5
254
100
AcDbEntity
  8
0
100
AcDbText
 62
2
  6
CONTINUOUS
 10
44.8483051563
 20
40.4880127807
  7
STANDARD
 40
2.5
  1
5
 72
5
 11
46.6673713042
 21
40.4880127807
100
AcDbText
  0
TEXT
  5
255
100
AcDbEntity
  8
0
100
AcDbText
 62
2
  6
CONTINUOUS
 10
46.6673713042
 20
40.4880127807
  7
STANDARD
 40
2.5
  1
mm
 72
5
 11
52.3385775299
 21
40.4880127807
100
AcDbText
  0
TEXT
  5
256
100
AcDbEntity
  8
0
100
AcDbText
 62
2
  6
CONTINUOUS
 10
45.8016125493
 20
36.7380127807
  7
STANDARD
 40
2.5
  1
1/4"
 72
5
 11
52.3385775299
 21
36.7380127807
100
AcDbText
  0
LINE
  5
257
100
AcDbEntity
  8
0
100
AcDbLine
 62
2
  6
CONTINUOUS
 10
58.7417279412
 20
33.6323529412
 11
58.7417279412
 21
43.2380127807
  0
LINE
  5
258
100
AcDbEntity
  8
0
100
AcDbLine
 62
2
  6
CONTINUOUS
 10
58.7417279412
 20
41.7380127807
 11
53.5885775299
 21
41.7380127807
  0
LINE
  5
259
100
AcDbEntity
  8
0
100
AcDbLine
 62
2
  6
CONTINUOUS
 10
63.7417279412
 20
41.7380127807
 11
68.7417279412
 21
41.7380127807
  0
INSERT
  5
25A
100
AcDbEntity
  8
0
100
AcDbBlockReference
 62
2
  6
CONTINUOUS
  2
_FILLED
 10
58.7417279412
 20
41.7380127807
 41
3.5
 42
3.5
 43
3.5
  0
INSERT
  5
25B
100
AcDbEntity
  8
0
100
AcDbBlockReference
 62
2
  6
CONTINUOUS
  2
_FILLED
 10
63.7417279412
 20
41.7380127807
 41
3.5
 42
3.5
 43
3.5
 50
180.0
  0
ENDBLK
  5
25C
100
AcDbEntity
  8
0
  6
BYBLOCK
 62
0
100
AcDbBlockEnd
  0
BLOCK
  5
25D
100
AcDbEntity
  8
0
100
AcDbBlockBegin
  2
*T1
 70
1
 10
0.0
 20
0.0
  3
*T1
  1

  0
LINE
  5
25E
100
AcDbEntity
  8
0
100
AcDbLine
 62
7
  6
CONTINUOUS
 10
0.0
 20
0.0
 11
148.0
 21
0.0
  0
LINE
  5
25F
100
AcDbEntity
  8
0
100
AcDbLine
 62
7
  6
CONTINUOUS
 10
0.0
 20
0.0
 11
0.0
 21
-43.0
  0
LINE
  5
260
100
AcDbEntity
  8
0
100
AcDbLine
 62
7
  6
CONTINUOUS
 10
45.0
 20
-20.0
 11
148.0
 21
-20.0
  0
LINE
  5
261
100
AcDbEntity
  8
0
100
AcDbLine
 62
7
  6
CONTINUOUS
 10
45.0
 20
-28.0
 11
148.0
 21
-28.0
  0
LINE
  5
262
100
AcDbEntity
  8
0
100
AcDbLine
 62
7
  6
CONTINUOUS
 10
0.0
 20
-43.0
 11
148.0
 21
-43.0
  0
LINE
  5
263
100
AcDbEntity
  8
0
100
AcDbLine
 62
7
  6
CONTINUOUS
 10
45.0
 20
0.0
 11
45.0
 21
-43.0
  0
LINE
  5
264
100
AcDbEntity
  8
0
100
AcDbLine
 62
7
  6
CONTINUOUS
 10
143.0
 20
0.0
 11
143.0
 21
-20.0
  0
LINE
  5
265
100
AcDbEntity
  8
0
100
AcDbLine
 62
7
  6
CONTINUOUS
 10
148.0
 20
0.0
 11
148.0
 21
-43.0
  0
TEXT
  5
266
100
AcDbEntity
  8
0
100
AcDbText
 62
7
  6
CONTINUOUS
 10
8.9659749243
 20
-9.175
  7
STANDARD
 40
8.0
  1
O
 72
5
 11
17.370644185
 21
-9.175
100
AcDbText
  0
TEXT
  5
267
100
AcDbEntity
  8
0
100
AcDbText
 62
7
  6
CONTINUOUS
 10
17.370644185
 20
-9.175
  7
STANDARD
 40
5.5
  1
RAC
 72
5
 11
33.9562472979
 21
-9.175
100
AcDbText
  0
TEXT
  5
268
100
AcDbEntity
  8
0
100
AcDbText
 62
7
  6
CONTINUOUS
 10
33.9562472979
 20
-4.425
  7
TEXTSTYLE_2
 40
3.0
  1
®
 72
5
 11
36.0340250757
 21
-4.425
100
AcDbText
  0
TEXT
  5
269
100
AcDbEntity
  8
0
100
AcDbText
 62
7
  6
CONTINUOUS
 10
9.5323389537
 20
-13.825
  7
TEXTSTYLE_2
 40
3.0
  1
D  E  C  O  R
 72
5
 11
34.3878945093
 21
-13.825
100
AcDbText
  0
TEXT
  5
26A
100
AcDbEntity
  8
0
100
AcDbText
 62
7
  6
CONTINUOUS
 10
34.3878945093
 20
-13.825
  7
STANDARD
 40
2.5
  1
 
 72
5
 11
35.4676610463
 21
-13.825
100
AcDbText
  0
TEXT
  5
26B
100
AcDbEntity
  8
0
100
AcDbText
 62
7
  6
CONTINUOUS
 10
54.424270428
 20
-4.6
  7
STANDARD
 40
2.7
  1
Part name:
 72
5
 11
71.9375
 21
-4.6
100
AcDbText
  0
TEXT
  5
26C
100
AcDbEntity
  8
0
100
AcDbText
 62
7
  6
CONTINUOUS
 10
50.6211575875
 20
-11.35
  7
STANDARD
 40
2.7
  1
Designed by:
 72
5
 11
71.9375
 21
-11.35
100
AcDbText
  0
TEXT
  5
26D
100
AcDbEntity
  8
0
100
AcDbText
 62
7
  6
CONTINUOUS
 10
50.6211575875
 20
-18.1
  7
STANDARD
 40
2.7
  1
Designed on:
 72
5
 11
71.9375
 21
-18.1
100
AcDbText
  0
TEXT
  5
26E
100
AcDbEntity
  8
0
100
AcDbText
 62
2
  6
CONTINUOUS
 10
74.0625
 20
-4.6
  7
STANDARD
 40
2.7
  1
SX168
 72
5
 11
84.9045233463
 21
-4.6
100
AcDbText
  0
TEXT
  5
26F
100
AcDbEntity
  8
0
100
AcDbText
 62
2
  6
CONTINUOUS
 10
74.0625
 20
-11.35
  7
STANDARD
 40
2.7
  1
ORAC
 72
5
 11
85.0410992218
 21
-11.35
100
AcDbText
  0
TEXT
  5
270
100
AcDbEntity
  8
0
100
AcDbText
 62
2
  6
CONTINUOUS
 10
74.0625
 20
-18.1
  7
STANDARD
 40
2.7
  1
02-May-2022
 72
5
 11
95.7465466926
 21
-18.1
100
AcDbText
  0
TEXT
  5
271
100
AcDbEntity
  8
0
100
AcDbText
 62
2
  6
CONTINUOUS
 10
95.7465466926
 20
-18.1
  7
STANDARD
 40
2.7
  1
 
 72
5
 11
96.9126945525
 21
-18.1
100
AcDbText
  0
TEXT
  5
272
100
AcDbEntity
  8
0
100
AcDbText
 62
2
  6
CONTINUOUS
 10
146.5625
 20
-15.9620622568
  7
STANDARD
 40
1.5
  1
Version: 
 50
90.0
 72
5
 11
146.5625
 21
-7.5982490272
100
AcDbText
  0
TEXT
  5
273
100
AcDbEntity
  8
0
100
AcDbText
 62
2
  6
CONTINUOUS
 10
146.5625
 20
-7.5982490272
  7
STANDARD
 40
1.5
  1
1.0
 50
90.0
 72
5
 11
146.5625
 21
-4.6857976654
100
AcDbText
  0
TEXT
  5
274
100
AcDbEntity
  8
0
100
AcDbText
 62
2
  6
CONTINUOUS
 10
146.5625
 20
-4.6857976654
  7
STANDARD
 40
1.5
  1
 
 50
90.0
 72
5
 11
146.5625
 21
-4.0379377432
100
AcDbText
  0
TEXT
  5
275
100
AcDbEntity
  8
0
100
AcDbText
 62
7
  6
CONTINUOUS
 10
10.5836575875
 20
-22.75
  7
STANDARD
 40
2.5
  1
Biekorfstraat 32
 72
5
 11
34.4163424125
 21
-22.75
100
AcDbText
  0
TEXT
  5
276
100
AcDbEntity
  8
0
100
AcDbText
 62
7
  6
CONTINUOUS
 10
3.560311284
 20
-26.5
  7
STANDARD
 40
2.5
  1
8400 Oostende - Belgium
 72
5
 11
41.439688716
 21
-26.5
100
AcDbText
  0
TEXT
  5
277
100
AcDbEntity
  8
0
100
AcDbText
 62
7
  6
CONTINUOUS
 10
3.9688715953
 20
-30.25
  7
STANDARD
 40
2.5
  1
Tel  +32 (0)59 80 32 52
 72
5
 11
41.0311284047
 21
-30.25
100
AcDbText
  0
TEXT
  5
278
100
AcDbEntity
  8
0
100
AcDbText
 62
7
  6
CONTINUOUS
 10
6.9017509728
 20
-34.0
  7
STANDARD
 40
2.5
  1
www.oracdecor.com
 72
5
 11
38.0982490272
 21
-34.0
100
AcDbText
  0
TEXT
  5
279
100
AcDbEntity
  8
0
100
AcDbText
 62
7
  6
CONTINUOUS
 10
6.9017509728
 20
-37.75
  7
STANDARD
 40
2.5
  1
info@oracdecor.com
 72
5
 11
38.0982490272
 21
-37.75
100
AcDbText
  0
TEXT
  5
27A
100
AcDbEntity
  8
0
100
AcDbText
 62
7
  6
CONTINUOUS
 10
46.0625
 20
-23.375
  7
STANDARD
 40
2.5
  1
Unless otherwise specified: all dimensions are in millimeters 
 72
5
 11
137.5605544747
 21
-23.375
100
AcDbText
  0
TEXT
  5
27B
100
AcDbEntity
  8
0
100
AcDbText
 62
7
  6
CONTINUOUS
 10
46.0625
 20
-27.125
  7
STANDARD
 40
2.5
  1
and inches, scale 1:1, length 2 meters
 72
5
 11
102.3660019455
 21
-27.125
100
AcDbText
  0
TEXT
  5
27C
100
AcDbEntity
  8
0
100
AcDbText
 62
7
  6
CONTINUOUS
 10
46.0625
 20
-31.81
  7
STANDARD
 40
1.8
  1
All information in this document is Orac's exclusive property.  It may in no case 
 72
5
 11
133.5901264591
 21
-31.81
100
AcDbText
  0
TEXT
  5
27D
100
AcDbEntity
  8
0
100
AcDbText
 62
7
  6
CONTINUOUS
 10
46.0625
 20
-34.87
  7
STANDARD
 40
1.8
  1
be reproduced, even partly, be communicated to a third party or used for any 
 72
5
 11
129.8990758755
 21
-34.87
100
AcDbText
  0
TEXT
  5
27E
100
AcDbEntity
  8
0
100
AcDbText
 62
7
  6
CONTINUOUS
 10
46.0625
 20
-37.93
  7
STANDARD
 40
1.8
  1
possible purpose without ORAC's express written permission. Further legal 
 72
5
 11
128.2321498054
 21
-37.93
100
AcDbText
  0
TEXT
  5
27F
100
AcDbEntity
  8
0
100
AcDbText
 62
7
  6
CONTINUOUS
 10
46.0625
 20
-40.99
  7
STANDARD
 40
1.8
  1
information can be found at https://www.oracdecor.com/en/general-sales-conditions
 72
5
 11
136.4547178988
 21
-40.99
100
AcDbText
  0
ENDBLK
  5
280
100
AcDbEntity
  8
0
  6
BYBLOCK
 62
0
100
AcDbBlockEnd
  0
ENDSEC
  0
SECTION
  2
ENTITIES
  0
VIEWPORT
  5
281
100
AcDbEntity
 67
1
  8
0
100
AcDbViewport
 10
148.5
 20
105.0
 30
0.0
 40
297.0
 41
210.0
 68
1
 69
1
 12
148.5
 22
105.0
 13
0.0
 23
0.0
 14
10.0
 24
10.0
 15
10.0
 25
10.0
 16
0.0
 26
0.0
 36
1.0
 17
0.0
 27
0.0
 37
0.0
 42
50.0
 43
0.0
 44
0.0
 45
210.0
 50
0.0
 51
0.0
 72
100
 90
32864
  1

281
0
 71
1
 74
0
110
0.0
120
0.0
130
0.0
111
1.0
121
0.0
131
0.0
112
0.0
122
1.0
132
0.0
 79
0
146
0.0
  0
DIMENSION
  5
282
100
AcDbEntity
 67
1
  8
0
100
AcDbDimension
 62
2
  6
CONTINUOUS
  2
*D0
 10
71.7417279412
 20
181.7751904376
 11
65.2417279412
 21
179.9001904376
 70
160
 71
2
 72
2
 41
0.9
 42
13.0
  1
<>mm\P1/2"
  3
DIMSTYLE_1
100
AcDbAlignedDimension
 13
58.7417279412
 23
174.9323529412
 14
71.7417279412
 24
175.1323529412
100
AcDbRotatedDimension
  0
DIMENSION
  5
283
100
AcDbEntity
 67
1
  8
0
100
AcDbDimension
 62
2
  6
CONTINUOUS
  2
*D1
 10
83.1770450484
 20
25.6323529412
 11
83.1770450484
 21
98.7573529412
 70
160
 71
2
 72
2
 41
0.9
 42
150.0
  1
<>mm\P5-7/8"
  3
DIMSTYLE_1
100
AcDbAlignedDimension
 13
71.2417279412
 23
175.6323529412
 14
71.2417279412
 24
25.6323529412
 50
270.0
100
AcDbRotatedDimension
  0
DIMENSION
  5
284
100
AcDbEntity
 67
1
  8
0
100
AcDbDimension
 62
2
  6
CONTINUOUS
  2
*D2
 10
39.6490744601
 20
34.6323529412
 11
39.6490744601
 21
65.5073529412
 70
160
 71
2
 72
2
 41
0.9
 42
65.5
  1
<>mm\P2-5/8"
  3
DIMSTYLE_1
100
AcDbAlignedDimension
 13
63.7417279412
 23
100.1323529412
 14
63.7417279412
 24
34.6323529412
 50
270.0
100
AcDbRotatedDimension
  0
DIMENSION
  5
285
100
AcDbEntity
 67
1
  8
0
100
AcDbDimension
 62
2
  6
CONTINUOUS
  2
*D3
 10
39.1350412734
 20
110.1323529412
 11
39.1350412734
 21
136.5073529412
 70
160
 71
2
 72
2
 41
0.9
 42
56.5
  1
<>mm\P2-1/4"\P 
  3
DIMSTYLE_1
100
AcDbAlignedDimension
 13
63.7417279412
 23
166.6323529412
 14
63.7417279412
 24
110.1323529412
 50
270.0
100
AcDbRotatedDimension
  0
DIMENSION
  5
286
100
AcDbEntity
 67
1
  8
0
100
AcDbDimension
 62
2
  6
CONTINUOUS
  2
*D4
 10
63.7417279412
 20
41.7380127807
 11
48.5934413431
 21
39.8630127807
 70
160
 71
3
 72
2
 41
0.9
 42
5.0
  1
<>mm\P1/4"
  3
DIMSTYLE_1
100
AcDbAlignedDimension
 13
58.7417279412
 23
32.6323529412
 14
63.7417279412
 24
34.6323529412
100
AcDbRotatedDimension
  0
ACAD_TABLE
  5
287
100
AcDbEntity
 67
1
  8
0
 62
2
  6
CONTINUOUS
100
AcDbBlockReference
  2
*T1
 10
144.0
 20
48.0
 30
0.0
100
AcDbTable
342
       2EF
343
220
 11
1.0
 21
0.0
 31
0.0
 90
22
 91
4
 92
4
 93
0
 94
0
 95
0
 96
0
141
15.0
141
5.0
141
8.0
141
15.0
142
45.0
142
28.0
142
70.0
142
5.0
171
1
172
0
173
0
174
0
175
1
176
1
 91
41
178
0
145
0.0
301
CELL_VALUE
 90
4
  1
\A1;O\H5.5;RAC\fCG Triumvirate;\H3.0;\S®^ ;\PD  E  C  O  R\fCG Times;\H2.5; 
304
ACVALUE_END
170
5
140
8.0
 64
7
171
1
172
0
173
0
174
0
175
1
176
2
 91
41
178
0
145
0.0
301
CELL_VALUE
 90
4
  1
Part name:\PDesigned by:\PDesigned on:
304
ACVALUE_END
170
6
140
2.7
 64
7
171
1
172
0
173
0
174
0
175
1
176
2
 91
33
178
0
145
0.0
301
CELL_VALUE
 90
4
  1
SX168\PORAC\P02-May-2022 
304
ACVALUE_END
170
4
140
2.7
171
1
172
0
173
0
174
0
175
1
176
2
 91
33
178
0
145
1.5707963268
301
CELL_VALUE
 90
4
  1
Version: 1.0 
304
ACVALUE_END
170
6
140
1.5
171
1
172
0
173
0
174
0
175
1
176
3
 91
41
178
0
145
0.0
301
CELL_VALUE
 90
4
  1
Biekorfstraat 32\P8400 Oostende - Belgium\PTel  +32 (0)59 80 32 52\Pwww.oracdecor.com\Pinfo@oracdecor.com
304
ACVALUE_END
170
5
140
2.5
 64
7
171
1
172
0
173
1
174
0
175
1
176
1
 91
1
178
0
145
0.0
170
1
171
1
172
0
173
1
174
0
175
1
176
1
 91
1
178
0
145
0.0
170
1
171
1
172
0
173
1
174
0
175
1
176
1
 91
1
178
0
145
0.0
170
1
171
1
172
0
173
1
174
0
175
1
176
1
 91
1
178
0
145
0.0
170
1
171
1
172
0
173
0
174
0
175
3
176
1
 91
41
178
0
145
0.0
301
CELL_VALUE
 90
4
  1
Unless otherwise specified: all dimensions are in millimeters \Pand inches, scale 1:1, length 2 meters
304
ACVALUE_END
170
4
140
2.5
 64
7
171
1
172
0
173
1
174
0
175
1
176
1
 91
1
178
0
145
0.0
170
1
171
1
172
0
173
1
174
0
175
1
176
1
 91
1
178
0
145
0.0
170
1
171
1
172
0
173
1
174
0
175
1
176
1
 91
1
178
0
145
0.0
170
1
171
1
172
0
173
0
174
0
175
3
176
1
 91
41
178
0
145
0.0
301
CELL_VALUE
 90
4
  2
All information in this document is Orac's exclusive property.  It may in no case \Pbe reproduced, even partly, be communicated to a third party or used for any \Ppossible purpose without ORAC's express written permission. Further legal \Pinformation
  1
 can be found at https://www.oracdecor.com/en/general-sales-conditions
304
ACVALUE_END
170
4
140
1.8
 64
7
171
1
172
0
173
1
174
0
175
1
176
1
 91
1
178
0
145
0.0
170
1
171
1
172
0
173
1
174
0
175
1
176
1
 91
1
178
0
145
0.0
170
1
  0
TEXT
  5
288
100
AcDbEntity
 67
1
  8
0
100
AcDbText
 62
2
  6
CONTINUOUS
 10
205.2636734736
 20
66.2684599045
  7
STANDARD
 40
2.5
  1
SCALE  
 72
5
 11
219.0671754191
 21
66.2684599045
100
AcDbText
  0
TEXT
  5
289
100
AcDbEntity
 67
1
  8
0
100
AcDbText
 62
2
  6
CONTINUOUS
 10
219.0671754191
 20
66.2684599045
  7
STANDARD
 40
2.5
  1
1:2
 72
5
 11
223.9212610222
 21
66.2684599045
100
AcDbText
  0
LINE
  5
28A
100
AcDbEntity
 67
1
  8
0
100
AcDbLine
 62
5
  6
CONTINUOUS
 10
0.0
 20
0.0
 11
0.0
 21
210.0
  0
LINE
  5
28B
100
AcDbEntity
 67
1
  8
0
100
AcDbLine
 62
7
  6
CONTINUOUS
 10
5.0
 20
5.0
 11
5.0
 21
195.0
  0
LINE
  5
28C
100
AcDbEntity
 67
1
  8
0
100
AcDbLine
 62
5
  6
CONTINUOUS
 10
0.0
 20
0.0
 11
297.0
 21
0.0
  0
LINE
  5
28D
100
AcDbEntity
 67
1
  8
0
100
AcDbLine
 62
7
  6
CONTINUOUS
 10
5.0
 20
5.0
 11
292.0
 21
5.0
  0
LINE
  5
28E
100
AcDbEntity
 67
1
  8
0
100
AcDbLine
 62
4
  6
CONTINUOUS
 10
148.5
 20
195.0
 11
148.5
 21
205.0
  0
LINE
  5
28F
100
AcDbEntity
 67
1
  8
0
100
AcDbLine
 62
7
  6
CONTINUOUS
 10
5.0
 20
195.0
 11
292.0
 21
195.0
  0
LINE
  5
290
100
AcDbEntity
 67
1
  8
0
100
AcDbLine
 62
5
  6
CONTINUOUS
 10
0.0
 20
210.0
 11
297.0
 21
210.0
  0
LINE
  5
291
100
AcDbEntity
 67
1
  8
0
100
AcDbLine
 62
7
  6
CONTINUOUS
 10
292.0
 20
5.0
 11
292.0
 21
195.0
  0
LINE
  5
292
100
AcDbEntity
 67
1
  8
0
100
AcDbLine
 62
5
  6
CONTINUOUS
 10
297.0
 20
0.0
 11
297.0
 21
210.0
  0
LINE
  5
293
100
AcDbEntity
 67
1
  8
DTM_AXIS
100
AcDbLine
 62
7
  6
CONTINUOUS
 10
212.3082352947
 20
75.4884599045
 11
218.2073366961
 21
75.4884599045
  0
LINE
  5
294
100
AcDbEntity
 67
1
  8
DTM_AXIS
100
AcDbLine
 62
7
  6
CONTINUOUS
 10
212.456994103
 20
79.4878506851
 11
213.9567656457
 21
79.4878506851
  0
LINE
  5
295
100
AcDbEntity
 67
1
  8
DTM_AXIS
100
AcDbLine
 62
7
  6
CONTINUOUS
 10
229.4877400435
 20
167.8269653097
 11
212.0379916923
 21
150.3745588724
  0
LINE
  5
296
100
AcDbEntity
 67
1
  8
DTM_AXIS
100
AcDbLine
 62
7
  6
CONTINUOUS
 10
229.7351396592
 20
167.9294434785
 11
212.2853913079
 21
150.4770370412
  0
LINE
  5
297
100
AcDbEntity
 67
1
  8
DTM_AXIS
100
AcDbLine
 62
7
  6
CONTINUOUS
 10
211.993272501
 20
78.0236695846
 11
212.1333179696
 21
77.6738223507
  0
LINE
  5
298
100
AcDbEntity
 67
1
  8
DTM_AXIS
100
AcDbLine
 62
7
  6
CONTINUOUS
 10
218.1844927093
 20
150.4770370412
 11
235.6342410606
 21
167.9294434785
  0
LINE
  5
299
100
AcDbEntity
 67
1
  8
DTM_AXIS
100
AcDbLine
 62
7
  6
CONTINUOUS
 10
235.884279131
 20
167.6794815547
 11
218.4345307797
 21
150.2270751174
  0
LINE
  5
29A
100
AcDbEntity
 67
1
  8
DTM_AXIS
100
AcDbLine
 62
7
  6
CONTINUOUS
 10
212.1118054493
 20
148.291674595
 11
211.9719731307
 21
147.9418273612
  0
LINE
  5
29B
100
AcDbEntity
 67
1
  8
DTM_AXIS
100
AcDbLine
 62
7
  6
CONTINUOUS
 10
213.9478564909
 20
108.7333957684
 11
212.698046872
 21
108.7333957684
  0
LINE
  5
29C
100
AcDbEntity
 67
1
  8
DTM_AXIS
100
AcDbLine
 62
7
  6
CONTINUOUS
 10
211.9581819961
 20
75.8384065978
 11
211.957899124
 21
76.7669739492
  0
LINE
  5
29D
100
AcDbEntity
 67
1
  8
DTM_AXIS
100
AcDbLine
 62
7
  6
CONTINUOUS
 10
211.9574597329
 20
78.2093366405
 11
211.9572225487
 21
78.9879268375
  0
LINE
  5
29E
100
AcDbEntity
 67
1
  8
DTM_AXIS
100
AcDbLine
 62
7
  6
CONTINUOUS
 10
211.9365106673
 20
146.9775701082
 11
211.9362734831
 21
147.7561603053
  0
LINE
  5
29F
100
AcDbEntity
 67
1
  8
DTM_AXIS
100
AcDbLine
 62
7
  6
CONTINUOUS
 10
211.935834092
 20
149.1985229966
 11
211.9355512199
 21
150.1270903479
  0
LINE
  5
2A0
100
AcDbEntity
 67
1
  8
DTM_AXIS
100
AcDbLine
 62
7
  6
CONTINUOUS
 10
212.1970569717
 20
112.2328627015
 11
212.1979707311
 21
109.233319616
  0
LINE
  5
2A1
100
AcDbEntity
 67
1
  8
DTM_AXIS
100
AcDbLine
 62
7
  6
CONTINUOUS
 10
214.4565372001
 20
79.9877745327
 11
214.4479326317
 21
108.2334719209
  0
LINE
  5
2A2
100
AcDbEntity
 67
1
  8
DTM_AXIS
100
AcDbLine
 62
7
  6
CONTINUOUS
 10
214.4464096993
 20
113.2327103967
 11
214.4364344917
 21
145.977722413
  0
LINE
  5
2A3
100
AcDbEntity
 67
1
  8
DTM_AXIS
100
AcDbLine
 62
7
  6
CONTINUOUS
 10
212.696828526
 20
112.7327865491
 11
213.9466381449
 21
112.7327865491
  0
LINE
  5
2A4
100
AcDbEntity
 67
1
  8
DTM_AXIS
100
AcDbLine
 62
7
  6
CONTINUOUS
 10
218.4572224733
 20
75.7384218283
 11
218.4345307797
 21
150.2270751174
  0
LINE
  5
2A5
100
AcDbEntity
 67
1
  8
DTM_AXIS
100
AcDbLine
 62
7
  6
CONTINUOUS
 10
214.4459659818
 20
114.6892749229
 11
212.3434005037
 21
112.5863891651
  0
LINE
  5
2A6
100
AcDbEntity
 67
1
  8
DTM_AXIS
100
AcDbLine
 62
7
  6
CONTINUOUS
 10
214.4460290473
 20
114.4822535227
 11
212.696828526
 21
112.7327865491
  0
LINE
  5
2A7
100
AcDbEntity
 67
1
  8
DTM_AXIS
100
AcDbLine
 62
7
  6
CONTINUOUS
 10
213.9466381449
 20
112.7327865491
 11
214.4464477813
 21
113.2326723204
  0
LINE
  5
2A8
100
AcDbEntity
 67
1
  8
DTM_AXIS
100
AcDbLine
 62
7
  6
CONTINUOUS
 10
211.9716468602
 20
149.0128559407
 11
212.1116923287
 21
148.6630087068
  0
LINE
  5
2A9
100
AcDbEntity
 67
1
  8
DTM_AXIS
100
AcDbLine
 62
7
  6
CONTINUOUS
 10
212.1334310901
 20
77.3024882389
 11
211.9935987716
 21
76.952641005
  0
LINE
  5
2AA
100
AcDbEntity
 67
1
  8
DTM_AXIS
100
AcDbLine
 62
7
  6
CONTINUOUS
 10
235.9069708245
 20
93.1908282656
 11
235.884279131
 21
167.6794815547
  0
LINE
  5
2AB
100
AcDbEntity
 67
1
  8
DTM_AXIS
100
AcDbLine
 62
7
  6
CONTINUOUS
 10
214.4560173476
 20
81.6942629123
 11
212.1035660807
 21
79.3414533011
  0
LINE
  5
2AC
100
AcDbEntity
 67
1
  8
DTM_AXIS
100
AcDbLine
 62
7
  6
CONTINUOUS
 10
214.4560804131
 20
81.4872415121
 11
212.456994103
 21
79.4878506851
  0
LINE
  5
2AD
100
AcDbEntity
 67
1
  8
DTM_AXIS
100
AcDbLine
 62
7
  6
CONTINUOUS
 10
213.9567656457
 20
79.4878506851
 11
214.4565752821
 21
79.9877364565
  0
LINE
  5
2AE
100
AcDbEntity
 67
1
  8
DTM_AXIS
100
AcDbLine
 62
7
  6
CONTINUOUS
 10
213.9363583509
 20
146.4776462606
 11
212.4365868081
 21
146.4776462606
  0
LINE
  5
2AF
100
AcDbEntity
 67
1
  8
DTM_AXIS
100
AcDbLine
 62
7
  6
CONTINUOUS
 10
218.4572224733
 20
75.7384218283
 11
235.9069708245
 21
93.1908282656
  0
LINE
  5
2B0
100
AcDbEntity
 67
1
  8
DTM_AXIS
100
AcDbLine
 62
7
  6
CONTINUOUS
 10
218.3840507073
 20
75.5616585965
 11
235.8337990585
 21
93.0140650338
  0
LINE
  5
2B1
100
AcDbEntity
 67
1
  8
DTM_AXIS
100
AcDbLine
 62
7
  6
CONTINUOUS
 10
218.1844927093
 20
150.4770370412
 11
212.2853913079
 21
150.4770370412
  0
LINE
  5
2B2
100
AcDbEntity
 67
1
  8
DTM_AXIS
100
AcDbLine
 62
7
  6
CONTINUOUS
 10
235.6342410606
 20
167.9294434785
 11
229.7351396592
 21
167.9294434785
  0
LINE
  5
2B3
100
AcDbEntity
 67
1
  8
DTM_AXIS
100
AcDbLine
 62
7
  6
CONTINUOUS
 10
71.2417279412
 20
25.6323529412
 11
59.4417279412
 21
25.6323529412
  0
LINE
  5
2B4
100
AcDbEntity
 67
1
  8
DTM_AXIS
100
AcDbLine
 62
7
  6
CONTINUOUS
 10
62.7417279412
 20
33.6323529412
 11
59.7417279412
 21
33.6323529412
  0
LINE
  5
2B5
100
AcDbEntity
 67
1
  8
DTM_AXIS
100
AcDbLine
 62
7
  6
CONTINUOUS
 10
58.8132512503
 20
170.561161214
 11
59.0931716706
 21
171.2609622648
  0
LINE
  5
2B6
100
AcDbEntity
 67
1
  8
DTM_AXIS
100
AcDbLine
 62
7
  6
CONTINUOUS
 10
59.0931716706
 20
30.0037436175
 11
58.8132512503
 21
30.7035446684
  0
LINE
  5
2B7
100
AcDbEntity
 67
1
  8
DTM_AXIS
100
AcDbLine
 62
7
  6
CONTINUOUS
 10
58.7417279412
 20
174.9323529412
 11
58.7417279412
 21
173.0749353447
  0
LINE
  5
2B8
100
AcDbEntity
 67
1
  8
DTM_AXIS
100
AcDbLine
 62
7
  6
CONTINUOUS
 10
58.7417279412
 20
170.1897705376
 11
58.7417279412
 21
168.6323529412
  0
LINE
  5
2B9
100
AcDbEntity
 67
1
  8
DTM_AXIS
100
AcDbLine
 62
7
  6
CONTINUOUS
 10
58.7417279412
 20
32.6323529412
 11
58.7417279412
 21
31.0749353447
  0
LINE
  5
2BA
100
AcDbEntity
 67
1
  8
DTM_AXIS
100
AcDbLine
 62
7
  6
CONTINUOUS
 10
58.7417279412
 20
28.1897705376
 11
58.7417279412
 21
26.3323529412
  0
LINE
  5
2BB
100
AcDbEntity
 67
1
  8
DTM_AXIS
100
AcDbLine
 62
7
  6
CONTINUOUS
 10
59.2417279412
 20
102.1323529412
 11
59.2417279412
 21
108.1323529412
  0
LINE
  5
2BC
100
AcDbEntity
 67
1
  8
DTM_AXIS
100
AcDbLine
 62
7
  6
CONTINUOUS
 10
63.7417279412
 20
166.6323529412
 11
63.7417279412
 21
110.1323529412
  0
LINE
  5
2BD
100
AcDbEntity
 67
1
  8
DTM_AXIS
100
AcDbLine
 62
7
  6
CONTINUOUS
 10
63.7417279412
 20
100.1323529412
 11
63.7417279412
 21
34.6323529412
  0
LINE
  5
2BE
100
AcDbEntity
 67
1
  8
DTM_AXIS
100
AcDbLine
 62
7
  6
CONTINUOUS
 10
60.2417279412
 20
101.1323529412
 11
62.7417279412
 21
101.1323529412
  0
LINE
  5
2BF
100
AcDbEntity
 67
1
  8
DTM_AXIS
100
AcDbLine
 62
7
  6
CONTINUOUS
 10
71.7417279412
 20
175.1323529412
 11
71.7417279412
 21
26.1323529412
  0
LINE
  5
2C0
100
AcDbEntity
 67
1
  8
DTM_AXIS
100
AcDbLine
 62
7
  6
CONTINUOUS
 10
62.7417279412
 20
109.1323529412
 11
60.2417279412
 21
109.1323529412
  0
LINE
  5
2C1
100
AcDbEntity
 67
1
  8
DTM_AXIS
100
AcDbLine
 62
7
  6
CONTINUOUS
 10
58.8132512503
 20
28.561161214
 11
59.0931716706
 21
29.2609622648
  0
LINE
  5
2C2
100
AcDbEntity
 67
1
  8
DTM_AXIS
100
AcDbLine
 62
7
  6
CONTINUOUS
 10
59.0931716706
 20
172.0037436175
 11
58.8132512503
 21
172.7035446684
  0
LINE
  5
2C3
100
AcDbEntity
 67
1
  8
DTM_AXIS
100
AcDbLine
 62
7
  6
CONTINUOUS
 10
59.7417279412
 20
167.6323529412
 11
62.7417279412
 21
167.6323529412
  0
LINE
  5
2C4
100
AcDbEntity
 67
1
  8
DTM_AXIS
100
AcDbLine
 62
7
  6
CONTINUOUS
 10
59.4417279412
 20
175.6323529412
 11
71.2417279412
 21
175.6323529412
  0
ARC
  5
2C5
100
AcDbEntity
 67
1
  8
DTM_AXIS
100
AcDbCircle
 62
7
  6
CONTINUOUS
 10
212.698077572
 20
109.2335026419
 40
0.5001077272
100
AcDbArc
 50
180.0209687335
 51
269.996482787
  0
ARC
  5
2C6
100
AcDbEntity
 67
1
  8
DTM_AXIS
100
AcDbCircle
 62
7
  6
CONTINUOUS
 10
213.9363278334
 20
145.9775395698
 40
0.5001077272
100
AcDbArc
 50
0.0209478225
 51
89.996503698
  0
ARC
  5
2C7
100
AcDbEntity
 67
1
  8
DTM_AXIS
100
AcDbCircle
 62
7
  6
CONTINUOUS
 10
213.9478259734
 20
108.2332890776
 40
0.5001077272
100
AcDbArc
 50
0.0209478225
 51
89.996503698
  0
ARC
  5
2C8
100
AcDbEntity
 67
1
  8
DTM_AXIS
100
AcDbCircle
 62
7
  6
CONTINUOUS
 10
212.4366175082
 20
146.977753134
 40
0.5001077272
100
AcDbArc
 50
180.0209687335
 51
269.996482787
  0
ARC
  5
2C9
100
AcDbEntity
 67
1
  8
DTM_AXIS
100
AcDbCircle
 62
7
  6
CONTINUOUS
 10
211.6475794936
 20
148.4772002497
 40
0.4999255009
100
AcDbArc
 50
338.2161194237
 51
21.8187889328
  0
ARC
  5
2CA
100
AcDbEntity
 67
1
  8
DTM_AXIS
100
AcDbCircle
 62
7
  6
CONTINUOUS
 10
211.6692051344
 20
77.4880138935
 40
0.4999255009
100
AcDbArc
 50
338.2161194236
 51
21.8187889328
  0
ARC
  5
2CB
100
AcDbEntity
 67
1
  8
DTM_AXIS
100
AcDbCircle
 62
7
  6
CONTINUOUS
 10
213.9567836809
 20
79.9876233201
 40
0.4997726353
100
AcDbArc
 50
269.9979323796
 51
0.0195228939
  0
ARC
  5
2CC
100
AcDbEntity
 67
1
  8
DTM_AXIS
100
AcDbCircle
 62
7
  6
CONTINUOUS
 10
213.9466561801
 20
113.2325591841
 40
0.4997726353
100
AcDbArc
 50
269.9979323796
 51
0.0195228939
  0
ARC
  5
2CD
100
AcDbEntity
 67
1
  8
DTM_AXIS
100
AcDbCircle
 62
7
  6
CONTINUOUS
 10
212.4569760678
 20
78.9880780501
 40
0.4997726353
100
AcDbArc
 50
89.9979323796
 51
180.0195228939
  0
ARC
  5
2CE
100
AcDbEntity
 67
1
  8
DTM_AXIS
100
AcDbCircle
 62
7
  6
CONTINUOUS
 10
212.6968104908
 20
112.2330139141
 40
0.4997726353
100
AcDbArc
 50
89.9979323796
 51
180.0195228939
  0
ARC
  5
2CF
100
AcDbEntity
 67
1
  8
DTM_AXIS
100
AcDbCircle
 62
7
  6
CONTINUOUS
 10
212.3082571912
 20
75.8385351225
 40
0.3500758807
100
AcDbArc
 50
180.0210352644
 51
269.9964162561
  0
ARC
  5
2D0
100
AcDbEntity
 67
1
  8
DTM_AXIS
100
AcDbCircle
 62
7
  6
CONTINUOUS
 10
229.735126572
 20
167.5796044173
 40
0.3498390615
100
AcDbArc
 50
89.9978566198
 51
135.0029644202
  0
ARC
  5
2D1
100
AcDbEntity
 67
1
  8
DTM_AXIS
100
AcDbCircle
 62
7
  6
CONTINUOUS
 10
212.2853782208
 20
150.12719798
 40
0.3498390615
100
AcDbArc
 50
89.9978566198
 51
180.0195983818
  0
ARC
  5
2D2
100
AcDbEntity
 67
1
  8
DTM_AXIS
100
AcDbCircle
 62
7
  6
CONTINUOUS
 10
235.6342258018
 20
167.6793901331
 40
0.2500538636
100
AcDbArc
 50
0.0209478225
 51
89.996503698
  0
ARC
  5
2D3
100
AcDbEntity
 67
1
  8
DTM_AXIS
100
AcDbCircle
 62
7
  6
CONTINUOUS
 10
218.1844774506
 20
150.2269836958
 40
0.2500538636
100
AcDbArc
 50
0.0209478225
 51
89.996503698
  0
ARC
  5
2D4
100
AcDbEntity
 67
1
  8
DTM_AXIS
100
AcDbCircle
 62
7
  6
CONTINUOUS
 10
235.6570855553
 20
93.1907426863
 40
0.2498852839
100
AcDbArc
 50
315.005824959
 51
0.0196223386
  0
ARC
  5
2D5
100
AcDbEntity
 67
1
  8
DTM_AXIS
100
AcDbCircle
 62
7
  6
CONTINUOUS
 10
218.2073461469
 20
75.7383451762
 40
0.2498852719
100
AcDbArc
 50
269.9978330492
 51
0.0196223386
  0
ARC
  5
2D6
100
AcDbEntity
 67
1
  8
DTM_AXIS
100
AcDbCircle
 62
7
  6
CONTINUOUS
 10
59.7417279412
 20
32.6323529412
 40
1.0
100
AcDbArc
 50
90.0
 51
180.0
  0
ARC
  5
2D7
100
AcDbEntity
 67
1
  8
DTM_AXIS
100
AcDbCircle
 62
7
  6
CONTINUOUS
 10
60.2417279412
 20
102.1323529412
 40
1.0
100
AcDbArc
 50
180.0
 51
270.0
  0
ARC
  5
2D8
100
AcDbEntity
 67
1
  8
DTM_AXIS
100
AcDbCircle
 62
7
  6
CONTINUOUS
 10
60.2417279412
 20
108.1323529412
 40
1.0
100
AcDbArc
 50
90.0
 51
180.0
  0
ARC
  5
2D9
100
AcDbEntity
 67
1
  8
DTM_AXIS
100
AcDbCircle
 62
7
  6
CONTINUOUS
 10
59.7417279412
 20
168.6323529412
 40
1.0
100
AcDbArc
 50
180.0
 51
270.0
  0
ARC
  5
2DA
100
AcDbEntity
 67
1
  8
DTM_AXIS
100
AcDbCircle
 62
7
  6
CONTINUOUS
 10
59.7417279412
 20
170.1897705376
 40
1.0
100
AcDbArc
 50
158.1985905136
 51
180.0
  0
ARC
  5
2DB
100
AcDbEntity
 67
1
  8
DTM_AXIS
100
AcDbCircle
 62
7
  6
CONTINUOUS
 10
59.7417279412
 20
173.0749353447
 40
1.0
100
AcDbArc
 50
180.0
 51
201.8014094864
  0
ARC
  5
2DC
100
AcDbEntity
 67
1
  8
DTM_AXIS
100
AcDbCircle
 62
7
  6
CONTINUOUS
 10
59.7417279412
 20
28.1897705376
 40
1.0
100
AcDbArc
 50
158.1985905136
 51
180.0
  0
ARC
  5
2DD
100
AcDbEntity
 67
1
  8
DTM_AXIS
100
AcDbCircle
 62
7
  6
CONTINUOUS
 10
59.7417279412
 20
31.0749353447
 40
1.0
100
AcDbArc
 50
180.0
 51
201.8014094864
  0
ARC
  5
2DE
100
AcDbEntity
 67
1
  8
DTM_AXIS
100
AcDbCircle
 62
7
  6
CONTINUOUS
 10
58.1646949797
 20
171.6323529412
 40
1.0
100
AcDbArc
 50
338.1985905137
 51
21.8014094864
  0
ARC
  5
2DF
100
AcDbEntity
 67
1
  8
DTM_AXIS
100
AcDbCircle
 62
7
  6
CONTINUOUS
 10
62.7417279412
 20
166.6323529412
 40
1.0
100
AcDbArc
 50
0.0
 51
90.0
  0
ARC
  5
2E0
100
AcDbEntity
 67
1
  8
DTM_AXIS
100
AcDbCircle
 62
7
  6
CONTINUOUS
 10
62.7417279412
 20
110.1323529412
 40
1.0
100
AcDbArc
 50
270.0
 51
360.0
  0
ARC
  5
2E1
100
AcDbEntity
 67
1
  8
DTM_AXIS
100
AcDbCircle
 62
7
  6
CONTINUOUS
 10
62.7417279412
 20
100.1323529412
 40
1.0
100
AcDbArc
 50
0.0
 51
90.0
  0
ARC
  5
2E2
100
AcDbEntity
 67
1
  8
DTM_AXIS
100
AcDbCircle
 62
7
  6
CONTINUOUS
 10
62.7417279412
 20
34.6323529412
 40
1.0
100
AcDbArc
 50
270.0
 51
360.0
  0
ARC
  5
2E3
100
AcDbEntity
 67
1
  8
DTM_AXIS
100
AcDbCircle
 62
7
  6
CONTINUOUS
 10
58.1646949797
 20
29.6323529412
 40
1.0
100
AcDbArc
 50
338.1985905136
 51
21.8014094864
  0
ARC
  5
2E4
100
AcDbEntity
 67
1
  8
DTM_AXIS
100
AcDbCircle
 62
7
  6
CONTINUOUS
 10
59.4417279412
 20
174.9323529412
 40
0.7
100
AcDbArc
 50
90.0
 51
180.0
  0
ARC
  5
2E5
100
AcDbEntity
 67
1
  8
DTM_AXIS
100
AcDbCircle
 62
7
  6
CONTINUOUS
 10
59.4417279412
 20
26.3323529412
 40
0.7
100
AcDbArc
 50
180.0
 51
270.0
  0
ARC
  5
2E6
100
AcDbEntity
 67
1
  8
DTM_AXIS
100
AcDbCircle
 62
7
  6
CONTINUOUS
 10
71.2417279412
 20
175.1323529412
 40
0.5
100
AcDbArc
 50
0.0
 51
90.0
  0
ARC
  5
2E7
100
AcDbEntity
 67
1
  8
DTM_AXIS
100
AcDbCircle
 62
7
  6
CONTINUOUS
 10
71.2417279412
 20
26.1323529412
 40
0.5
100
AcDbArc
 50
270.0
 51
360.0
  0
SPLINE
  5
2E8
100
AcDbEntity
 67
1
  8
DTM_AXIS
100
AcDbSpline
 62
7
  6
CONTINUOUS
 70
0
 71
3
 72
8
 73
4
 74
0
 42
0.0000001
 43
0.0000001
 44
0.0000000001
 40
0.0
 40
0.0
 40
0.0
 40
0.0
 40
1.0
 40
1.0
 40
1.0
 40
1.0
 10
211.9574597329
 20
78.2093366405
 30
0.0
 10
211.9574789338
 20
78.1463068356
 30
0.0
 10
211.9698484519
 20
78.0821851431
 30
0.0
 10
211.993272501
 20
78.0236695846
 30
0.0
  0
SPLINE
  5
2E9
100
AcDbEntity
 67
1
  8
DTM_AXIS
100
AcDbSpline
 62
7
  6
CONTINUOUS
 70
0
 71
3
 72
8
 73
4
 74
0
 42
0.0000001
 43
0.0000001
 44
0.0000000001
 40
0.0
 40
0.0
 40
0.0
 40
0.0
 40
1.0
 40
1.0
 40
1.0
 40
1.0
 10
211.9935987716
 20
76.952641005
 30
0.0
 10
211.9702081062
 20
76.894119773
 30
0.0
 10
211.9578799252
 20
76.8299966234
 30
0.0
 10
211.957899124
 20
76.7669739492
 30
0.0
  0
SPLINE
  5
2EA
100
AcDbEntity
 67
1
  8
DTM_AXIS
100
AcDbSpline
 62
7
  6
CONTINUOUS
 70
0
 71
3
 72
8
 73
4
 74
0
 42
0.0000001
 43
0.0000001
 44
0.0000000001
 40
0.0
 40
0.0
 40
0.0
 40
0.0
 40
1.0
 40
1.0
 40
1.0
 40
1.0
 10
211.935834092
 20
149.1985229966
 30
0.0
 10
211.935853293
 20
149.1354931917
 30
0.0
 10
211.948222811
 20
149.0713714992
 30
0.0
 10
211.9716468602
 20
149.0128559407
 30
0.0
  0
SPLINE
  5
2EB
100
AcDbEntity
 67
1
  8
DTM_AXIS
100
AcDbSpline
 62
7
  6
CONTINUOUS
 70
0
 71
3
 72
8
 73
4
 74
0
 42
0.0000001
 43
0.0000001
 44
0.0000000001
 40
0.0
 40
0.0
 40
0.0
 40
0.0
 40
1.0
 40
1.0
 40
1.0
 40
1.0
 10
211.9719731307
 20
147.9418273612
 30
0.0
 10
211.9485824654
 20
147.8833061291
 30
0.0
 10
211.9362542844
 20
147.8191829795
 30
0.0
 10
211.9362734831
 20
147.7561603053
 30
0.0
  0
ENDSEC
  0
SECTION
  2
OBJECTS
  0
DICTIONARY
  5
C
100
AcDbDictionary
280
0
281
1
  3
ACAD_GROUP
350
D
  3
ACAD_MLINESTYLE
350
17
  3
ACAD_LAYOUT
350
1A
  3
ACAD_PLOTSETTINGS
350
19
  3
ACAD_PLOTSTYLENAME
350
E
  3
ACAD_TABLESTYLE
350
       2EC
  0
DICTIONARY
  5
D
102
{ACAD_REACTORS
330
C
102
}
100
AcDbDictionary
280
0
281
1
  0
ACDBDICTIONARYWDFLT
  5
E
102
{ACAD_REACTORS
330
C
102
}
100
AcDbDictionary
281
1
  3
Normal
350
F
100
AcDbDictionaryWithDefault
340
F
  0
DICTIONARY
  5
17
102
{ACAD_REACTORS
330
C
102
}
100
AcDbDictionary
280
0
281
1
  3
Standard
350
18
  0
DICTIONARY
  5
2EC
330
C
100
AcDbDictionary
281
1
  3
Standard
350
       2EF
  3
Standard1
350
       2F0
  0
DICTIONARY
  5
19
102
{ACAD_REACTORS
330
C
102
}
100
AcDbDictionary
281
1
  0
DICTIONARY
  5
1A
102
{ACAD_REACTORS
330
C
102
}
100
AcDbDictionary
281
1
  3
Model
350
2ED
  3
SX168-PROD-MM-INCHES_1
350
2EE
  0
ACDBPLACEHOLDER
  5
F
102
{ACAD_REACTORS
330
E
102
}
  0
MLINESTYLE
  5
18
102
{ACAD_REACTORS
330
17
102
}
100
AcDbMlineStyle
  2
STANDARD
 70
0
  3

 62
256
 51
90.0
 52
90.0
 71
2
 49
0.5
 62
256
  6
BYLAYER
 49
-0.5
 62
256
  6
BYLAYER
  0
LAYOUT
  5
2ED
102
{ACAD_REACTORS
330
1A
102
}
100
AcDbPlotSettings
  1

  2
none_device
  4

  6

 40
0.0
 41
0.0
 42
0.0
 43
0.0
 44
297.0
 45
210.0
 46
0.0
 47
0.0
 48
0.0
 49
0.0
140
0.0
141
0.0
142
1.0
143
1.0
 70
1024
 72
1
 73
0
 74
0
  7

 75
0
147
1.0
148
0.0
149
0.0
100
AcDbLayout
  1
Model
 70
0
 71
0
 10
0.0
 20
0.0
 11
297.0
 21
210.0
 12
0.0
 22
0.0
 32
0.0
 14
0.0
 24
0.0
 34
0.0
 15
0.0
 25
0.0
 35
0.0
146
0.0
 13
0.0
 23
0.0
 33
0.0
 16
1.0
 26
0.0
 36
0.0
 17
0.0
 27
1.0
 37
0.0
 76
0
330
218
345
0
346
0
  0
LAYOUT
  5
2EE
102
{ACAD_REACTORS
330
1A
102
}
100
AcDbPlotSettings
  1

  2
none_device
  4
ISO_A4_(297.00_x_210.00_MM)
  6

 40
0.0
 41
0.0
 42
0.0
 43
0.0
 44
297.0
 45
210.0
 46
0.0
 47
0.0
 48
0.0
 49
0.0
140
0.0
141
0.0
142
1.0
143
1.0
 70
0
 72
1
 73
0
 74
0
  7

 75
0
147
1.0
148
0.0
149
0.0
100
AcDbLayout
  1
SX168-PROD-MM-INCHES_1
 70
0
 71
1
 10
0.0
 20
0.0
 11
297.0
 21
210.0
 12
0.0
 22
0.0
 32
0.0
 14
0.0
 24
0.0
 34
0.0
 15
0.0
 25
0.0
 35
0.0
146
0.0
 13
0.0
 23
0.0
 33
0.0
 16
1.0
 26
0.0
 36
0.0
 17
0.0
 27
1.0
 37
0.0
 76
0
330
219
331
281
345
0
346
0
  0
TABLESTYLE
  5
2EF
102
{ACAD_REACTORS
330
2EC
330
287
102
}
330
2EC
100
AcDbTableStyle
  3
Standard
 70
0
 71
0
 40
0.06
 41
0.06
280
1
281
1
  7
Standard
140
0.18
170
1
 62
0
 63
7
283
0
  7
Standard
140
0.18
170
1
 62
0
 63
7
283
0
  7
Standard
140
0.18
170
1
 62
0
 63
7
283
0
  0
TABLESTYLE
  5
2F0
102
{ACAD_REACTORS
330
2EC
102
}
330
2EC
100
AcDbTableStyle
  3
Standard1
 70
1
 71
0
 40
0.06
 41
0.06
280
1
281
1
  7
Standard
140
0.18
170
1
 62
0
 63
7
283
0
  7
Standard
140
0.18
170
1
 62
0
 63
7
283
0
  7
Standard
140
0.18
170
1
 62
0
 63
7
283
0
  0
ENDSEC
  0
EOF
