999
DXF file: O:\ORAC_PRODUCTEN\ORAC_EXTRUSIE\SX\138\sx138-prod-mm.dxf
999
Pro/ENGINEER 2018500 by Parametric Technology Corporation
  0
SECTION
  2
HEADER
  9
$ACADVER
  1
AC1024
  9
$DWGCODEPAGE
  3
ANSI_1250
  9
$EXTMAX
 10
297.0
 20
210.0
 30
0.0
  9
$EXTMIN
 10
0.0
 20
0.0
 30
0.0
  9
$LIMMIN
 10
0.0
 20
0.0
  9
$LIMMAX
 10
297.0
 20
210.0
  9
$VIEWCTR
 10
148.5
 20
105.0
  9
$VIEWSIZE
 40
210.0
  9
$CLAYER
  8
0
  9
$LTSCALE
 40
16.335
  9
$CELTYPE
  6
BYLAYER
  9
$DIMSCALE
 40
1.0
  9
$DIMASZ
 40
3.5
  9
$DIMEXO
 40
1.0
  9
$DIMDLI
 40
11.286
  9
$DIMEXE
 40
1.5
  9
$DIMCEN
 40
2.673
  9
$DIMLFAC
 40
1.0
  9
$DIMBLK
  1
_FILLED
  9
$DIMALT
 70
0
  9
$DIMALTF
 40
0.0393700787
  9
$DIMTXT
 40
2.5
  9
$DIMTOL
 70
1
  9
$DIMLIM
 70
0
  9
$DIMTFAC
 40
1.0
  9
$DIMTP
 40
0.001
  9
$DIMTM
 40
0.001
  9
$DIMGAP
 40
0.625
  9
$DIMDSEP
 70
44
  9
$AUNITS
 70
0
  9
$PDMODE
 70
3
  9
$PDSIZE
 40
8.0
  9
$HANDSEED
  5
33C
  9
$TILEMODE
 70
1
  9
$MEASUREMENT
 70
1
  9
$INSUNITS
 70
4
  0
ENDSEC
  0
SECTION
  2
CLASSES
  0
CLASS
  1
ACDBDICTIONARYWDFLT
  2
AcDbDictionaryWithDefault
  3
AutoCAD 2000
 90
0
 91
1
280
0
281
0
  0
CLASS
  1
ACDBPLACEHOLDER
  2
AcDbPlaceHolder
  3
AutoCAD 2000
 90
0
 91
1
280
0
281
0
  0
CLASS
  1
LAYOUT
  2
AcDbLayout
  3
AutoCAD 2000
 90
0
 91
0
280
0
281
0
  0
CLASS
  1
TABLESTYLE
  2
AcDbTableStyle
  3
ObjectDBX Classes
 90
2047
 91
1
280
0
281
0
  0
CLASS
  1
ACAD_TABLE
  2
AcDbTable
  3
ObjectDBX Classes
 90
1025
 91
1
280
0
281
1
  0
ENDSEC
  0
SECTION
  2
TABLES
  0
TABLE
  2
VPORT
  5
8
100
AcDbSymbolTable
 70
2
  0
VPORT
  5
1F4
100
AcDbSymbolTableRecord
100
AcDbViewportTableRecord
  2
*ACTIVE
 70
0
 10
0.0
 20
0.0
 11
1.0
 21
1.0
 12
148.5
 22
105.0
 13
0.0
 23
0.0
 14
1.0
 24
1.0
 15
0.0
 25
0.0
 16
0.0
 26
0.0
 36
1.0
 17
0.0
 27
0.0
 37
0.0
 40
210.0
 41
1.4142857143
 42
50.0
 43
0.0
 44
0.0
 50
0.0
 51
0.0
 71
0
 72
100
 73
1
 74
1
 75
0
 76
0
 77
0
 78
0
  0
ENDTAB
  0
TABLE
  2
LTYPE
  5
5
100
AcDbSymbolTable
 70
6
  0
LTYPE
  5
14
100
AcDbSymbolTableRecord
100
AcDbLinetypeTableRecord
  2
BYBLOCK
 70
0
  3

 72
65
 73
0
 40
0.0
  0
LTYPE
  5
15
100
AcDbSymbolTableRecord
100
AcDbLinetypeTableRecord
  2
BYLAYER
 70
0
  3

 72
65
 73
0
 40
0.0
  0
LTYPE
  5
16
100
AcDbSymbolTableRecord
100
AcDbLinetypeTableRecord
  2
CONTINUOUS
 70
64
  3
Solid line
 72
65
 73
0
 40
0.0
  0
LTYPE
  5
1F5
100
AcDbSymbolTableRecord
100
AcDbLinetypeTableRecord
  2
CENTER
 70
64
  3
____ _ ____ _ ____ _ ____ _ ____ _ ____ _ ____
 72
65
 73
4
 40
0.6
 49
0.375
 74
0
 49
-0.075
 74
0
 49
0.075
 74
0
 49
-0.075
 74
0
  0
LTYPE
  5
1F6
100
AcDbSymbolTableRecord
100
AcDbLinetypeTableRecord
  2
HIDDEN
 70
64
  3
- - - - - - - - - - - - - - - - - - - -
 72
65
 73
2
 40
0.2
 49
0.1
 74
0
 49
-0.1
 74
0
  0
LTYPE
  5
1F7
100
AcDbSymbolTableRecord
100
AcDbLinetypeTableRecord
  2
PHANTOM
 70
64
  3
_____ _ _ _____ _ _ _____ _ _ _____
 72
65
 73
6
 40
0.8
 49
0.45
 74
0
 49
-0.05
 74
0
 49
0.1
 74
0
 49
-0.05
 74
0
 49
0.1
 74
0
 49
-0.05
 74
0
  0
LTYPE
  5
1F8
100
AcDbSymbolTableRecord
100
AcDbLinetypeTableRecord
  2
DOT
 70
64
  3
. . . . . . . . . . . . . . . . . . . .
 72
65
 73
2
 40
0.2
 49
0.1
 74
0
 49
-0.1
 74
0
  0
LTYPE
  5
1F9
100
AcDbSymbolTableRecord
100
AcDbLinetypeTableRecord
  2
DASHED
 70
64
  3
- - - - - - - - - - - - - - - - - - - -
 72
65
 73
2
 40
0.2
 49
0.1
 74
0
 49
-0.1
 74
0
  0
ENDTAB
  0
TABLE
  2
LAYER
  5
2
100
AcDbSymbolTable
 70
36
  0
LAYER
  5
10
100
AcDbSymbolTableRecord
100
AcDbLayerTableRecord
  2
0
 70
0
 62
7
  6
CONTINUOUS
370
-3
390
F
  0
LAYER
  5
1FA
100
AcDbSymbolTableRecord
100
AcDbLayerTableRecord
  2
DEFAULT_1
 70
0
 62
7
  6
CENTER
370
-3
390
F
  0
LAYER
  5
1FB
100
AcDbSymbolTableRecord
100
AcDbLayerTableRecord
  2
DEFAULT_2
 70
0
 62
8
  6
HIDDEN
370
-3
390
F
  0
LAYER
  5
1FC
100
AcDbSymbolTableRecord
100
AcDbLayerTableRecord
  2
DEFAULT_3
 70
0
 62
7
  6
PHANTOM
370
-3
390
F
  0
LAYER
  5
1FD
100
AcDbSymbolTableRecord
100
AcDbLayerTableRecord
  2
01___PRT_ALL_DTM_PLN
 70
0
 62
7
  6
CONTINUOUS
370
-3
390
F
  0
LAYER
  5
1FE
100
AcDbSymbolTableRecord
100
AcDbLayerTableRecord
  2
01___PRT_DEF_DTM_PLN
 70
0
 62
7
  6
CONTINUOUS
370
-3
390
F
  0
LAYER
  5
1FF
100
AcDbSymbolTableRecord
100
AcDbLayerTableRecord
  2
02___PRT_ALL_AXES
 70
0
 62
7
  6
CONTINUOUS
370
-3
390
F
  0
LAYER
  5
200
100
AcDbSymbolTableRecord
100
AcDbLayerTableRecord
  2
03___PRT_ALL_CURVES
 70
0
 62
7
  6
CONTINUOUS
370
-3
390
F
  0
LAYER
  5
201
100
AcDbSymbolTableRecord
100
AcDbLayerTableRecord
  2
04___PRT_ALL_DTM_PNT
 70
0
 62
7
  6
CONTINUOUS
370
-3
390
F
  0
LAYER
  5
202
100
AcDbSymbolTableRecord
100
AcDbLayerTableRecord
  2
05___PRT_ALL_DTM_CSYS
 70
0
 62
7
  6
CONTINUOUS
370
-3
390
F
  0
LAYER
  5
203
100
AcDbSymbolTableRecord
100
AcDbLayerTableRecord
  2
05___PRT_DEF_DTM_CSYS
 70
0
 62
7
  6
CONTINUOUS
370
-3
390
F
  0
LAYER
  5
204
100
AcDbSymbolTableRecord
100
AcDbLayerTableRecord
  2
06___PRT_ALL_SURFS
 70
0
 62
7
  6
CONTINUOUS
370
-3
390
F
  0
LAYER
  5
205
100
AcDbSymbolTableRecord
100
AcDbLayerTableRecord
  2
CURVES
 70
0
 62
7
  6
CONTINUOUS
370
-3
390
F
  0
LAYER
  5
206
100
AcDbSymbolTableRecord
100
AcDbLayerTableRecord
  2
DTM_ALL
 70
0
 62
7
  6
CONTINUOUS
370
-3
390
F
  0
LAYER
  5
207
100
AcDbSymbolTableRecord
100
AcDbLayerTableRecord
  2
DTM_AXIS
 70
0
 62
7
  6
CONTINUOUS
370
-3
390
F
  0
LAYER
  5
208
100
AcDbSymbolTableRecord
100
AcDbLayerTableRecord
  2
DTM_CSYS
 70
0
 62
7
  6
CONTINUOUS
370
-3
390
F
  0
LAYER
  5
209
100
AcDbSymbolTableRecord
100
AcDbLayerTableRecord
  2
DTM_CURVE
 70
0
 62
7
  6
CONTINUOUS
370
-3
390
F
  0
LAYER
  5
20A
100
AcDbSymbolTableRecord
100
AcDbLayerTableRecord
  2
DTM_MASTER
 70
0
 62
7
  6
CONTINUOUS
370
-3
390
F
  0
LAYER
  5
20B
100
AcDbSymbolTableRecord
100
AcDbLayerTableRecord
  2
DTM_POINT
 70
0
 62
7
  6
CONTINUOUS
370
-3
390
F
  0
LAYER
  5
20C
100
AcDbSymbolTableRecord
100
AcDbLayerTableRecord
  2
DTM_QUILT
 70
0
 62
7
  6
CONTINUOUS
370
-3
390
F
  0
LAYER
  5
20D
100
AcDbSymbolTableRecord
100
AcDbLayerTableRecord
  2
GTOL
 70
0
 62
7
  6
CONTINUOUS
370
-3
390
F
  0
LAYER
  5
20E
100
AcDbSymbolTableRecord
100
AcDbLayerTableRecord
  2
KALIBER-TEMPLATES
 70
0
 62
7
  6
CONTINUOUS
370
-3
390
F
  0
LAYER
  5
20F
100
AcDbSymbolTableRecord
100
AcDbLayerTableRecord
  2
LAY0001
 70
0
 62
7
  6
CONTINUOUS
370
-3
390
F
  0
LAYER
  5
210
100
AcDbSymbolTableRecord
100
AcDbLayerTableRecord
  2
NOTES
 70
0
 62
7
  6
CONTINUOUS
370
-3
390
F
  0
LAYER
  5
211
100
AcDbSymbolTableRecord
100
AcDbLayerTableRecord
  2
SURFACES
 70
0
 62
7
  6
CONTINUOUS
370
-3
390
F
  0
LAYER
  5
212
100
AcDbSymbolTableRecord
100
AcDbLayerTableRecord
  2
XSEC_DATUMS
 70
0
 62
7
  6
CONTINUOUS
370
-3
390
F
  0
ENDTAB
  0
TABLE
  2
STYLE
  5
3
100
AcDbSymbolTable
 70
1
  0
STYLE
  5
11
100
AcDbSymbolTableRecord
100
AcDbTextStyleTableRecord
  2
STANDARD
 70
0
 40
0.0
 41
1.0
 50
0.0
 71
0
 42
0.2
  3
cgtime.ttf
  4

  0
STYLE
  5
213
100
AcDbSymbolTableRecord
100
AcDbTextStyleTableRecord
  2
TEXTSTYLE_1
 70
0
 40
0.0
 41
0.8
 50
0.0
 71
0
 42
0.2
  3
gdt
  4

  0
STYLE
  5
214
100
AcDbSymbolTableRecord
100
AcDbTextStyleTableRecord
  2
TEXTSTYLE_2
 70
0
 40
0.0
 41
1.0
 50
0.0
 71
0
 42
0.2
  3
trium.ttf
  4

  0
STYLE
  5
215
100
AcDbSymbolTableRecord
100
AcDbTextStyleTableRecord
  2
TEXTSTYLE_3
 70
0
 40
0.0
 41
1.0
 50
0.0
 71
0
 42
0.2
  3
calibri.ttf
  4

  0
ENDTAB
  0
TABLE
  2
VIEW
  5
6
100
AcDbSymbolTable
 70
0
  0
ENDTAB
  0
TABLE
  2
UCS
  5
7
100
AcDbSymbolTable
 70
0
  0
ENDTAB
  0
TABLE
  2
APPID
  5
9
100
AcDbSymbolTable
 70
1
  0
APPID
  5
216
100
AcDbSymbolTableRecord
100
AcDbRegAppTableRecord
  2
ACAD
 70
0
  0
ENDTAB
  0
TABLE
  2
BLOCK_RECORD
  5
1
100
AcDbSymbolTable
 70
0
  0
BLOCK_RECORD
  5
217
100
AcDbSymbolTableRecord
100
AcDbBlockTableRecord
  2
*Model_Space
  0
BLOCK_RECORD
  5
218
100
AcDbSymbolTableRecord
100
AcDbBlockTableRecord
  2
*Paper_Space
  0
BLOCK_RECORD
  5
219
100
AcDbSymbolTableRecord
100
AcDbBlockTableRecord
  2
_FILLED
  0
BLOCK_RECORD
  5
21A
100
AcDbSymbolTableRecord
100
AcDbBlockTableRecord
  2
*D0
  0
BLOCK_RECORD
  5
21B
100
AcDbSymbolTableRecord
100
AcDbBlockTableRecord
  2
*D1
  0
BLOCK_RECORD
  5
21C
100
AcDbSymbolTableRecord
100
AcDbBlockTableRecord
  2
*D2
  0
BLOCK_RECORD
  5
21D
100
AcDbSymbolTableRecord
100
AcDbBlockTableRecord
  2
*D3
  0
BLOCK_RECORD
  5
21E
100
AcDbSymbolTableRecord
100
AcDbBlockTableRecord
  2
*D4
  0
BLOCK_RECORD
  5
21F
100
AcDbSymbolTableRecord
100
AcDbBlockTableRecord
  2
*D5
  0
BLOCK_RECORD
  5
220
100
AcDbSymbolTableRecord
100
AcDbBlockTableRecord
  2
*D6
  0
BLOCK_RECORD
  5
221
100
AcDbSymbolTableRecord
100
AcDbBlockTableRecord
  2
*D7
  0
BLOCK_RECORD
  5
222
100
AcDbSymbolTableRecord
100
AcDbBlockTableRecord
  2
*D8
  0
BLOCK_RECORD
  5
223
100
AcDbSymbolTableRecord
100
AcDbBlockTableRecord
  2
*T1
  0
ENDTAB
  0
TABLE
  2
DIMSTYLE
  5
A
100
AcDbSymbolTable
 70
1
100
AcDbDimStyleTable
 71
0
  0
DIMSTYLE
105
224
100
AcDbSymbolTableRecord
100
AcDbDimStyleTableRecord
  2
STANDARD
 70
0
  3

  4

 40
1.0
 41
3.5
 42
1.0
 43
0.38
 44
1.5
 45
0.0
 46
0.0
 47
0.001
 48
0.001
140
2.5
141
0.09
142
0.0
143
25.4
144
1.0
145
0.0
146
1.0
147
0.625
 71
1.0
 72
0.0
 73
1
 74
1
 75
0
 76
0
 77
0
 78
8
 79
2
170
0
171
2
172
0
173
0
174
0
175
0
176
0
177
0
178
0
270
2
179
3
271
3
272
3
273
2
274
2
275
0
280
0
281
0
282
0
283
1
284
8
285
0
286
0
287
3
288
0
340
11
278
44
341
219
342
219
343
219
344
219
  0
DIMSTYLE
105
225
100
AcDbSymbolTableRecord
100
AcDbDimStyleTableRecord
  2
DIMSTYLE_1
 70
0
  3

  4

 40
1.0
 41
3.5
 42
1.0
 43
0.38
 44
1.5
 45
0.0
 46
0.0
 47
0.0
 48
0.0
140
2.5
141
0.09
142
0.0
143
25.4
144
1.0
145
0.0
146
1.0
147
1.25
 71
0.0
 72
0.0
 73
1
 74
1
 75
0
 76
0
 77
0
 78
8
 79
2
170
0
171
2
172
0
173
0
174
0
175
0
176
0
177
0
178
0
270
2
179
3
271
0
272
0
273
2
274
2
275
0
280
0
281
0
282
0
283
1
284
8
285
0
286
0
287
3
288
0
340
11
278
44
341
219
342
219
343
219
344
219
  0
DIMSTYLE
105
226
100
AcDbSymbolTableRecord
100
AcDbDimStyleTableRecord
  2
DIMSTYLE_2
 70
0
  3

  4

 40
1.0
 41
3.5
 42
1.0
 43
0.38
 44
1.5
 45
0.0
 46
0.0
 47
0.0
 48
0.0
140
2.5
141
0.09
142
0.0
143
25.4
144
1.0
145
0.0
146
1.0
147
1.25
 71
0.0
 72
0.0
 73
1
 74
1
 75
0
 76
0
 77
0
 78
8
 79
2
170
0
171
2
172
0
173
0
174
0
175
0
176
0
177
0
178
0
270
2
179
3
271
3
272
3
273
2
274
2
275
0
280
0
281
0
282
0
283
1
284
8
285
0
286
0
287
3
288
0
340
11
278
44
341
219
342
219
343
219
344
219
  0
ENDTAB
  0
ENDSEC
  0
SECTION
  2
BLOCKS
  0
BLOCK
  5
20
100
AcDbEntity
  8
0
100
AcDbBlockBegin
  2
*Model_Space
 70
0
 10
0.0
 20
0.0
 30
0.0
  3
*Model_Space
  1

  0
ENDBLK
  5
21
100
AcDbEntity
  8
0
100
AcDbBlockEnd
  0
BLOCK
  5
1C
100
AcDbEntity
  8
0
100
AcDbBlockBegin
  2
*Paper_Space
 70
0
 10
0.0
 20
0.0
 30
0.0
  3
*Paper_Space
  1

  0
ENDBLK
  5
1D
100
AcDbEntity
  8
0
100
AcDbBlockEnd
  0
BLOCK
  5
227
100
AcDbEntity
  8
0
100
AcDbBlockBegin
  2
_FILLED
 70
64
 10
0.0
 20
0.0
  3
_FILLED
  1

  0
SOLID
  5
228
100
AcDbEntity
  8
0
  6
BYBLOCK
 62
0
100
AcDbTrace
 10
0.0
 20
0.0
 11
-1.0
 21
0.2142857143
 12
-1.0
 22
-0.2142857143
 13
-1.0
 23
-0.2142857143
  0
ENDBLK
  5
229
100
AcDbEntity
  8
0
  6
BYBLOCK
 62
0
100
AcDbBlockEnd
  0
BLOCK
  5
22A
100
AcDbEntity
  8
0
100
AcDbBlockBegin
 62
2
  6
CONTINUOUS
  2
*D0
 70
65
 10
0.0
 20
0.0
  3
*D0
  1

  0
TEXT
  5
22B
100
AcDbEntity
  8
0
100
AcDbText
 62
2
  6
CONTINUOUS
 10
35.6783597189
 20
94.3776709301
  7
STANDARD
 40
2.5
  1
138
 72
5
 11
41.1355581625
 21
94.3776709301
100
AcDbText
  0
TEXT
  5
22C
100
AcDbEntity
  8
0
100
AcDbText
 62
2
  6
CONTINUOUS
 10
41.1355581625
 20
94.3776709301
  7
STANDARD
 40
2.5
  1
mm
 72
5
 11
46.8067643882
 21
94.3776709301
100
AcDbText
  0
TEXT
  5
22D
100
AcDbEntity
  8
0
100
AcDbText
 62
2
  6
CONTINUOUS
 10
36.4565698356
 20
90.6276709301
  7
STANDARD
 40
2.5
  1
5-3/8"
 72
5
 11
46.0285542714
 21
90.6276709301
100
AcDbText
  0
LINE
  5
22E
100
AcDbEntity
  8
0
100
AcDbLine
 62
2
  6
CONTINUOUS
 10
59.3051491151
 20
164.6336709301
 11
39.7425620535
 21
164.6336709301
  0
LINE
  5
22F
100
AcDbEntity
  8
0
100
AcDbLine
 62
2
  6
CONTINUOUS
 10
70.652970194
 20
26.6216709301
 11
39.7425620535
 21
26.6216709301
  0
LINE
  5
230
100
AcDbEntity
  8
0
100
AcDbLine
 62
2
  6
CONTINUOUS
 10
41.2425620535
 20
164.6336709301
 11
41.2425620535
 21
98.1276709301
  0
LINE
  5
231
100
AcDbEntity
  8
0
100
AcDbLine
 62
2
  6
CONTINUOUS
 10
41.2425620535
 20
26.6216709301
 11
41.2425620535
 21
89.3776709301
  0
INSERT
  5
232
100
AcDbEntity
  8
0
100
AcDbBlockReference
 62
2
  6
CONTINUOUS
  2
_FILLED
 10
41.2425620535
 20
164.6336709301
 41
3.5
 42
3.5
 43
3.5
 50
90.0
  0
INSERT
  5
233
100
AcDbEntity
  8
0
100
AcDbBlockReference
 62
2
  6
CONTINUOUS
  2
_FILLED
 10
41.2425620535
 20
26.6216709301
 41
3.5
 42
3.5
 43
3.5
 50
270.0
  0
ENDBLK
  5
234
100
AcDbEntity
  8
0
  6
BYBLOCK
 62
0
100
AcDbBlockEnd
  0
BLOCK
  5
235
100
AcDbEntity
  8
0
100
AcDbBlockBegin
 62
2
  6
CONTINUOUS
  2
*D1
 70
65
 10
0.0
 20
0.0
  3
*D1
  1

  0
TEXT
  5
236
100
AcDbEntity
  8
0
100
AcDbText
 62
2
  6
CONTINUOUS
 10
63.1504798544
 20
181.3598605118
  7
STANDARD
 40
2.5
  1
15
 72
5
 11
66.7886121501
 21
181.3598605118
100
AcDbText
  0
TEXT
  5
237
100
AcDbEntity
  8
0
100
AcDbText
 62
2
  6
CONTINUOUS
 10
66.7886121501
 20
181.3598605118
  7
STANDARD
 40
2.5
  1
mm
 72
5
 11
72.4598183758
 21
181.3598605118
100
AcDbText
  0
TEXT
  5
238
100
AcDbEntity
  8
0
100
AcDbText
 62
2
  6
CONTINUOUS
 10
64.5366666248
 20
177.6098605118
  7
STANDARD
 40
2.5
  1
5/8"
 72
5
 11
71.0736316054
 21
177.6098605118
100
AcDbText
  0
LINE
  5
239
100
AcDbEntity
  8
0
100
AcDbLine
 62
2
  6
CONTINUOUS
 10
60.3051491151
 20
165.6336709301
 11
60.3051491151
 21
184.1098605118
  0
LINE
  5
23A
100
AcDbEntity
  8
0
100
AcDbLine
 62
2
  6
CONTINUOUS
 10
75.3051491151
 20
152.2889525287
 11
75.3051491151
 21
184.1098605118
  0
LINE
  5
23B
100
AcDbEntity
  8
0
100
AcDbLine
 62
2
  6
CONTINUOUS
 10
60.3051491151
 20
182.6098605118
 11
55.3051491151
 21
182.6098605118
  0
LINE
  5
23C
100
AcDbEntity
  8
0
100
AcDbLine
 62
2
  6
CONTINUOUS
 10
75.3051491151
 20
182.6098605118
 11
80.3051491151
 21
182.6098605118
  0
INSERT
  5
23D
100
AcDbEntity
  8
0
100
AcDbBlockReference
 62
2
  6
CONTINUOUS
  2
_FILLED
 10
60.3051491151
 20
182.6098605118
 41
3.5
 42
3.5
 43
3.5
  0
INSERT
  5
23E
100
AcDbEntity
  8
0
100
AcDbBlockReference
 62
2
  6
CONTINUOUS
  2
_FILLED
 10
75.3051491151
 20
182.6098605118
 41
3.5
 42
3.5
 43
3.5
 50
180.0
  0
ENDBLK
  5
23F
100
AcDbEntity
  8
0
  6
BYBLOCK
 62
0
100
AcDbBlockEnd
  0
BLOCK
  5
240
100
AcDbEntity
  8
0
100
AcDbBlockBegin
 62
2
  6
CONTINUOUS
  2
*D2
 70
65
 10
0.0
 20
0.0
  3
*D2
  1

  0
TEXT
  5
241
100
AcDbEntity
  8
0
100
AcDbText
 62
2
  6
CONTINUOUS
 10
57.7373084314
 20
104.9849581623
  7
STANDARD
 40
2.5
  1
30
 72
5
 11
61.3754407271
 21
104.9849581623
100
AcDbText
  0
TEXT
  5
242
100
AcDbEntity
  8
0
100
AcDbText
 62
2
  6
CONTINUOUS
 10
61.3754407271
 20
104.9849581623
  7
STANDARD
 40
2.5
  1
mm
 72
5
 11
67.0466469528
 21
104.9849581623
100
AcDbText
  0
TEXT
  5
243
100
AcDbEntity
  8
0
100
AcDbText
 62
2
  6
CONTINUOUS
 10
57.6059854742
 20
101.2349581623
  7
STANDARD
 40
2.5
  1
1-1/8"
 72
5
 11
67.17796991
 21
101.2349581623
100
AcDbText
  0
LINE
  5
244
100
AcDbEntity
  8
0
100
AcDbLine
 62
2
  6
CONTINUOUS
 10
66.3051491151
 20
91.1169398921
 11
60.8919776921
 21
91.1169398921
  0
LINE
  5
245
100
AcDbEntity
  8
0
100
AcDbLine
 62
2
  6
CONTINUOUS
 10
66.3051491151
 20
121.3529764325
 11
60.8919776921
 21
121.3529764325
  0
LINE
  5
246
100
AcDbEntity
  8
0
100
AcDbLine
 62
2
  6
CONTINUOUS
 10
62.3919776921
 20
91.1169398921
 11
62.3919776921
 21
99.9849581623
  0
LINE
  5
247
100
AcDbEntity
  8
0
100
AcDbLine
 62
2
  6
CONTINUOUS
 10
62.3919776921
 20
121.3529764325
 11
62.3919776921
 21
108.7349581623
  0
INSERT
  5
248
100
AcDbEntity
  8
0
100
AcDbBlockReference
 62
2
  6
CONTINUOUS
  2
_FILLED
 10
62.3919776921
 20
91.1169398921
 41
3.5
 42
3.5
 43
3.5
 50
270.0
  0
INSERT
  5
249
100
AcDbEntity
  8
0
100
AcDbBlockReference
 62
2
  6
CONTINUOUS
  2
_FILLED
 10
62.3919776921
 20
121.3529764325
 41
3.5
 42
3.5
 43
3.5
 50
90.0
  0
ENDBLK
  5
24A
100
AcDbEntity
  8
0
  6
BYBLOCK
 62
0
100
AcDbBlockEnd
  0
BLOCK
  5
24B
100
AcDbEntity
  8
0
100
AcDbBlockBegin
 62
2
  6
CONTINUOUS
  2
*D3
 70
65
 10
0.0
 20
0.0
  3
*D3
  1

  0
TEXT
  5
24C
100
AcDbEntity
  8
0
100
AcDbText
 62
2
  6
CONTINUOUS
 10
44.6999883205
 20
154.028929504
  7
STANDARD
 40
2.5
  1
7
 72
5
 11
46.5190544684
 21
154.028929504
100
AcDbText
  0
TEXT
  5
24D
100
AcDbEntity
  8
0
100
AcDbText
 62
2
  6
CONTINUOUS
 10
46.5190544684
 20
154.028929504
  7
STANDARD
 40
2.5
  1
mm
 72
5
 11
52.1902606941
 21
154.028929504
100
AcDbText
  0
TEXT
  5
24E
100
AcDbEntity
  8
0
100
AcDbText
 62
2
  6
CONTINUOUS
 10
45.6532957135
 20
150.278929504
  7
STANDARD
 40
2.5
  1
1/4"
 72
5
 11
52.1902606941
 21
150.278929504
100
AcDbText
  0
LINE
  5
24F
100
AcDbEntity
  8
0
100
AcDbLine
 62
2
  6
CONTINUOUS
 10
67.3051491151
 20
149.0038983529
 11
67.3051491151
 21
156.778929504
  0
LINE
  5
250
100
AcDbEntity
  8
0
100
AcDbLine
 62
2
  6
CONTINUOUS
 10
60.3051491151
 20
155.278929504
 11
53.4402606941
 21
155.278929504
  0
LINE
  5
251
100
AcDbEntity
  8
0
100
AcDbLine
 62
2
  6
CONTINUOUS
 10
67.3051491151
 20
155.278929504
 11
72.3051491151
 21
155.278929504
  0
INSERT
  5
252
100
AcDbEntity
  8
0
100
AcDbBlockReference
 62
2
  6
CONTINUOUS
  2
_FILLED
 10
60.3051491151
 20
155.278929504
 41
3.5
 42
3.5
 43
3.5
  0
INSERT
  5
253
100
AcDbEntity
  8
0
100
AcDbBlockReference
 62
2
  6
CONTINUOUS
  2
_FILLED
 10
67.3051491151
 20
155.278929504
 41
3.5
 42
3.5
 43
3.5
 50
180.0
  0
ENDBLK
  5
254
100
AcDbEntity
  8
0
  6
BYBLOCK
 62
0
100
AcDbBlockEnd
  0
BLOCK
  5
255
100
AcDbEntity
  8
0
100
AcDbBlockBegin
 62
2
  6
CONTINUOUS
  2
*D4
 70
65
 10
0.0
 20
0.0
  3
*D4
  1

  0
TEXT
  5
256
100
AcDbEntity
  8
0
100
AcDbText
 62
2
  6
CONTINUOUS
 10
57.6922650924
 20
64.7683936408
  7
STANDARD
 40
2.5
  1
34
 72
5
 11
61.3303973882
 21
64.7683936408
100
AcDbText
  0
TEXT
  5
257
100
AcDbEntity
  8
0
100
AcDbText
 62
2
  6
CONTINUOUS
 10
61.3303973882
 20
64.7683936408
  7
STANDARD
 40
2.5
  1
mm
 72
5
 11
67.0016036138
 21
64.7683936408
100
AcDbText
  0
TEXT
  5
258
100
AcDbEntity
  8
0
100
AcDbText
 62
2
  6
CONTINUOUS
 10
57.5609421352
 20
61.0183936408
  7
STANDARD
 40
2.5
  1
1-3/8"
 72
5
 11
67.132926571
 21
61.0183936408
100
AcDbText
  0
LINE
  5
259
100
AcDbEntity
  8
0
100
AcDbLine
 62
2
  6
CONTINUOUS
 10
66.3051491151
 20
50.2062398921
 11
60.8469343531
 21
50.2062398921
  0
LINE
  5
25A
100
AcDbEntity
  8
0
100
AcDbLine
 62
2
  6
CONTINUOUS
 10
66.3051491151
 20
84.2163398921
 11
60.8469343531
 21
84.2163398921
  0
LINE
  5
25B
100
AcDbEntity
  8
0
100
AcDbLine
 62
2
  6
CONTINUOUS
 10
62.3469343531
 20
50.2062398921
 11
62.3469343531
 21
59.7683936408
  0
LINE
  5
25C
100
AcDbEntity
  8
0
100
AcDbLine
 62
2
  6
CONTINUOUS
 10
62.3469343531
 20
84.2163398921
 11
62.3469343531
 21
68.5183936408
  0
INSERT
  5
25D
100
AcDbEntity
  8
0
100
AcDbBlockReference
 62
2
  6
CONTINUOUS
  2
_FILLED
 10
62.3469343531
 20
50.2062398921
 41
3.5
 42
3.5
 43
3.5
 50
270.0
  0
INSERT
  5
25E
100
AcDbEntity
  8
0
100
AcDbBlockReference
 62
2
  6
CONTINUOUS
  2
_FILLED
 10
62.3469343531
 20
84.2163398921
 41
3.5
 42
3.5
 43
3.5
 50
90.0
  0
ENDBLK
  5
25F
100
AcDbEntity
  8
0
  6
BYBLOCK
 62
0
100
AcDbBlockEnd
  0
BLOCK
  5
260
100
AcDbEntity
  8
0
100
AcDbBlockBegin
 62
2
  6
CONTINUOUS
  2
*D5
 70
65
 10
0.0
 20
0.0
  3
*D5
  1

  0
TEXT
  5
261
100
AcDbEntity
  8
0
100
AcDbText
 62
2
  6
CONTINUOUS
 10
43.4276073542
 20
44.8087489452
  7
STANDARD
 40
2.5
  1
7
 72
5
 11
45.2466735021
 21
44.8087489452
100
AcDbText
  0
TEXT
  5
262
100
AcDbEntity
  8
0
100
AcDbText
 62
2
  6
CONTINUOUS
 10
45.2466735021
 20
44.8087489452
  7
STANDARD
 40
2.5
  1
mm
 72
5
 11
50.9178797278
 21
44.8087489452
100
AcDbText
  0
TEXT
  5
263
100
AcDbEntity
  8
0
100
AcDbText
 62
2
  6
CONTINUOUS
 10
44.3809147472
 20
41.0587489452
  7
STANDARD
 40
2.5
  1
1/4"
 72
5
 11
50.9178797278
 21
41.0587489452
100
AcDbText
  0
LINE
  5
264
100
AcDbEntity
  8
0
100
AcDbLine
 62
2
  6
CONTINUOUS
 10
67.3051491151
 20
48.7333674975
 11
67.3051491151
 21
44.5587489452
  0
LINE
  5
265
100
AcDbEntity
  8
0
100
AcDbLine
 62
2
  6
CONTINUOUS
 10
67.3051491151
 20
46.0587489452
 11
72.3051491151
 21
46.0587489452
  0
LINE
  5
266
100
AcDbEntity
  8
0
100
AcDbLine
 62
2
  6
CONTINUOUS
 10
60.3051491151
 20
46.0587489452
 11
52.1678797278
 21
46.0587489452
  0
INSERT
  5
267
100
AcDbEntity
  8
0
100
AcDbBlockReference
 62
2
  6
CONTINUOUS
  2
_FILLED
 10
67.3051491151
 20
46.0587489452
 41
3.5
 42
3.5
 43
3.5
 50
180.0
  0
INSERT
  5
268
100
AcDbEntity
  8
0
100
AcDbBlockReference
 62
2
  6
CONTINUOUS
  2
_FILLED
 10
60.3051491151
 20
46.0587489452
 41
3.5
 42
3.5
 43
3.5
  0
ENDBLK
  5
269
100
AcDbEntity
  8
0
  6
BYBLOCK
 62
0
100
AcDbBlockEnd
  0
BLOCK
  5
26A
100
AcDbEntity
  8
0
100
AcDbBlockBegin
 62
2
  6
CONTINUOUS
  2
*D6
 70
65
 10
0.0
 20
0.0
  3
*D6
  1

  0
TEXT
  5
26B
100
AcDbEntity
  8
0
100
AcDbText
 62
2
  6
CONTINUOUS
 10
47.2179077672
 20
32.6592731059
  7
STANDARD
 40
2.5
  1
11
 72
5
 11
50.856040063
 21
32.6592731059
100
AcDbText
  0
TEXT
  5
26C
100
AcDbEntity
  8
0
100
AcDbText
 62
2
  6
CONTINUOUS
 10
50.856040063
 20
32.6592731059
  7
STANDARD
 40
2.5
  1
mm
 72
5
 11
56.5272462886
 21
32.6592731059
100
AcDbText
  0
TEXT
  5
26D
100
AcDbEntity
  8
0
100
AcDbText
 62
2
  6
CONTINUOUS
 10
48.6040945377
 20
28.9092731059
  7
STANDARD
 40
2.5
  1
3/8"
 72
5
 11
55.1410595182
 21
28.9092731059
100
AcDbText
  0
LINE
  5
26E
100
AcDbEntity
  8
0
100
AcDbLine
 62
2
  6
CONTINUOUS
 10
59.8051491151
 20
37.4051072598
 11
50.3725770279
 21
37.4051072598
  0
LINE
  5
26F
100
AcDbEntity
  8
0
100
AcDbLine
 62
2
  6
CONTINUOUS
 10
70.652970194
 20
26.6216709301
 11
50.3725770279
 21
26.6216709301
  0
LINE
  5
270
100
AcDbEntity
  8
0
100
AcDbLine
 62
2
  6
CONTINUOUS
 10
51.8725770279
 20
37.4051072598
 11
51.8725770279
 21
42.4051072598
  0
LINE
  5
271
100
AcDbEntity
  8
0
100
AcDbLine
 62
2
  6
CONTINUOUS
 10
51.8725770279
 20
26.6216709301
 11
51.8725770279
 21
21.6216709301
  0
INSERT
  5
272
100
AcDbEntity
  8
0
100
AcDbBlockReference
 62
2
  6
CONTINUOUS
  2
_FILLED
 10
51.8725770279
 20
37.4051072598
 41
3.5
 42
3.5
 43
3.5
 50
270.0
  0
INSERT
  5
273
100
AcDbEntity
  8
0
100
AcDbBlockReference
 62
2
  6
CONTINUOUS
  2
_FILLED
 10
51.8725770279
 20
26.6216709301
 41
3.5
 42
3.5
 43
3.5
 50
90.0
  0
ENDBLK
  5
274
100
AcDbEntity
  8
0
  6
BYBLOCK
 62
0
100
AcDbBlockEnd
  0
BLOCK
  5
275
100
AcDbEntity
  8
0
100
AcDbBlockBegin
 62
2
  6
CONTINUOUS
  2
*D7
 70
65
 10
0.0
 20
0.0
  3
*D7
  1

  0
TEXT
  5
276
100
AcDbEntity
  8
0
100
AcDbText
 62
2
  6
CONTINUOUS
 10
61.0899966631
 20
18.567960732
  7
STANDARD
 40
2.5
  1
11
 72
5
 11
64.7281289588
 21
18.567960732
100
AcDbText
  0
TEXT
  5
277
100
AcDbEntity
  8
0
100
AcDbText
 62
2
  6
CONTINUOUS
 10
64.7281289588
 20
18.567960732
  7
STANDARD
 40
2.5
  1
mm
 72
5
 11
70.3993351845
 21
18.567960732
100
AcDbText
  0
TEXT
  5
278
100
AcDbEntity
  8
0
100
AcDbText
 62
2
  6
CONTINUOUS
 10
62.4761834335
 20
14.817960732
  7
STANDARD
 40
2.5
  1
3/8"
 72
5
 11
69.0131484141
 21
14.817960732
100
AcDbText
  0
LINE
  5
279
100
AcDbEntity
  8
0
100
AcDbLine
 62
2
  6
CONTINUOUS
 10
60.3051491151
 20
36.8980072598
 11
60.3051491151
 21
18.317960732
  0
LINE
  5
27A
100
AcDbEntity
  8
0
100
AcDbLine
 62
2
  6
CONTINUOUS
 10
71.1841827325
 20
25.9477792513
 11
71.1841827325
 21
18.317960732
  0
LINE
  5
27B
100
AcDbEntity
  8
0
100
AcDbLine
 62
2
  6
CONTINUOUS
 10
60.3051491151
 20
19.817960732
 11
55.3051491151
 21
19.817960732
  0
LINE
  5
27C
100
AcDbEntity
  8
0
100
AcDbLine
 62
2
  6
CONTINUOUS
 10
71.1841827325
 20
19.817960732
 11
76.1841827325
 21
19.817960732
  0
INSERT
  5
27D
100
AcDbEntity
  8
0
100
AcDbBlockReference
 62
2
  6
CONTINUOUS
  2
_FILLED
 10
60.3051491151
 20
19.817960732
 41
3.5
 42
3.5
 43
3.5
  0
INSERT
  5
27E
100
AcDbEntity
  8
0
100
AcDbBlockReference
 62
2
  6
CONTINUOUS
  2
_FILLED
 10
71.1841827325
 20
19.817960732
 41
3.5
 42
3.5
 43
3.5
 50
180.0
  0
ENDBLK
  5
27F
100
AcDbEntity
  8
0
  6
BYBLOCK
 62
0
100
AcDbBlockEnd
  0
BLOCK
  5
280
100
AcDbEntity
  8
0
100
AcDbBlockBegin
 62
2
  6
CONTINUOUS
  2
*D8
 70
65
 10
0.0
 20
0.0
  3
*D8
  1

  0
TEXT
  5
281
100
AcDbEntity
  8
0
100
AcDbText
 62
2
  6
CONTINUOUS
 10
44.1099504258
 20
171.5785542832
  7
STANDARD
 40
2.5
  1
6
 72
5
 11
45.9290165736
 21
171.5785542832
100
AcDbText
  0
TEXT
  5
282
100
AcDbEntity
  8
0
100
AcDbText
 62
2
  6
CONTINUOUS
 10
45.9290165736
 20
171.5785542832
  7
STANDARD
 40
2.5
  1
mm
 72
5
 11
51.6002227993
 21
171.5785542832
100
AcDbText
  0
TEXT
  5
283
100
AcDbEntity
  8
0
100
AcDbText
 62
2
  6
CONTINUOUS
 10
45.0632578188
 20
167.8285542832
  7
STANDARD
 40
2.5
  1
1/4"
 72
5
 11
51.6002227993
 21
167.8285542832
100
AcDbText
  0
LINE
  5
284
100
AcDbEntity
  8
0
100
AcDbLine
 62
2
  6
CONTINUOUS
 10
66.3051491151
 20
164.1549709301
 11
66.3051491151
 21
174.3285542832
  0
LINE
  5
285
100
AcDbEntity
  8
0
100
AcDbLine
 62
2
  6
CONTINUOUS
 10
60.3051491151
 20
165.6336709301
 11
60.3051491151
 21
174.3285542832
  0
LINE
  5
286
100
AcDbEntity
  8
0
100
AcDbLine
 62
2
  6
CONTINUOUS
 10
66.3051491151
 20
172.8285542832
 11
71.3051491151
 21
172.8285542832
  0
LINE
  5
287
100
AcDbEntity
  8
0
100
AcDbLine
 62
2
  6
CONTINUOUS
 10
60.3051491151
 20
172.8285542832
 11
52.8502227993
 21
172.8285542832
  0
INSERT
  5
288
100
AcDbEntity
  8
0
100
AcDbBlockReference
 62
2
  6
CONTINUOUS
  2
_FILLED
 10
66.3051491151
 20
172.8285542832
 41
3.5
 42
3.5
 43
3.5
 50
180.0
  0
INSERT
  5
289
100
AcDbEntity
  8
0
100
AcDbBlockReference
 62
2
  6
CONTINUOUS
  2
_FILLED
 10
60.3051491151
 20
172.8285542832
 41
3.5
 42
3.5
 43
3.5
  0
ENDBLK
  5
28A
100
AcDbEntity
  8
0
  6
BYBLOCK
 62
0
100
AcDbBlockEnd
  0
BLOCK
  5
28B
100
AcDbEntity
  8
0
100
AcDbBlockBegin
  2
*T1
 70
1
 10
0.0
 20
0.0
  3
*T1
  1

  0
LINE
  5
28C
100
AcDbEntity
  8
0
100
AcDbLine
 62
7
  6
CONTINUOUS
 10
0.0
 20
0.0
 11
148.0
 21
0.0
  0
LINE
  5
28D
100
AcDbEntity
  8
0
100
AcDbLine
 62
7
  6
CONTINUOUS
 10
0.0
 20
0.0
 11
0.0
 21
-43.0
  0
LINE
  5
28E
100
AcDbEntity
  8
0
100
AcDbLine
 62
7
  6
CONTINUOUS
 10
45.0
 20
-20.0
 11
148.0
 21
-20.0
  0
LINE
  5
28F
100
AcDbEntity
  8
0
100
AcDbLine
 62
7
  6
CONTINUOUS
 10
45.0
 20
-28.0
 11
148.0
 21
-28.0
  0
LINE
  5
290
100
AcDbEntity
  8
0
100
AcDbLine
 62
7
  6
CONTINUOUS
 10
0.0
 20
-43.0
 11
148.0
 21
-43.0
  0
LINE
  5
291
100
AcDbEntity
  8
0
100
AcDbLine
 62
7
  6
CONTINUOUS
 10
45.0
 20
0.0
 11
45.0
 21
-43.0
  0
LINE
  5
292
100
AcDbEntity
  8
0
100
AcDbLine
 62
7
  6
CONTINUOUS
 10
143.0
 20
0.0
 11
143.0
 21
-20.0
  0
LINE
  5
293
100
AcDbEntity
  8
0
100
AcDbLine
 62
7
  6
CONTINUOUS
 10
148.0
 20
0.0
 11
148.0
 21
-43.0
  0
TEXT
  5
294
100
AcDbEntity
  8
0
100
AcDbText
 62
7
  6
CONTINUOUS
 10
8.9659749243
 20
-9.175
  7
STANDARD
 40
8.0
  1
O
 72
5
 11
17.370644185
 21
-9.175
100
AcDbText
  0
TEXT
  5
295
100
AcDbEntity
  8
0
100
AcDbText
 62
7
  6
CONTINUOUS
 10
17.370644185
 20
-9.175
  7
STANDARD
 40
5.5
  1
RAC
 72
5
 11
33.9562472979
 21
-9.175
100
AcDbText
  0
TEXT
  5
296
100
AcDbEntity
  8
0
100
AcDbText
 62
7
  6
CONTINUOUS
 10
33.9562472979
 20
-4.425
  7
TEXTSTYLE_2
 40
3.0
  1
®
 72
5
 11
36.0340250757
 21
-4.425
100
AcDbText
  0
TEXT
  5
297
100
AcDbEntity
  8
0
100
AcDbText
 62
7
  6
CONTINUOUS
 10
9.5323389537
 20
-13.825
  7
TEXTSTYLE_2
 40
3.0
  1
D  E  C  O  R
 72
5
 11
34.3878945093
 21
-13.825
100
AcDbText
  0
TEXT
  5
298
100
AcDbEntity
  8
0
100
AcDbText
 62
7
  6
CONTINUOUS
 10
34.3878945093
 20
-13.825
  7
STANDARD
 40
2.5
  1
 
 72
5
 11
35.4676610463
 21
-13.825
100
AcDbText
  0
TEXT
  5
299
100
AcDbEntity
  8
0
100
AcDbText
 62
7
  6
CONTINUOUS
 10
52.8786764706
 20
-4.6
  7
TEXTSTYLE_3
 40
2.7
  1
Part name:
 72
5
 11
71.9375
 21
-4.6
100
AcDbText
  0
TEXT
  5
29A
100
AcDbEntity
  8
0
100
AcDbText
 62
7
  6
CONTINUOUS
 10
49.6908613445
 20
-11.35
  7
TEXTSTYLE_3
 40
2.7
  1
Designed by:
 72
5
 11
71.9375
 21
-11.35
100
AcDbText
  0
TEXT
  5
29B
100
AcDbEntity
  8
0
100
AcDbText
 62
7
  6
CONTINUOUS
 10
49.3732142857
 20
-18.1
  7
TEXTSTYLE_3
 40
2.7
  1
Designed on:
 72
5
 11
71.9375
 21
-18.1
100
AcDbText
  0
TEXT
  5
29C
100
AcDbEntity
  8
0
100
AcDbText
 62
2
  6
CONTINUOUS
 10
74.0625
 20
-4.6
  7
TEXTSTYLE_3
 40
2.7
  1
SX138
 72
5
 11
84.6923319328
 21
-4.6
100
AcDbText
  0
TEXT
  5
29D
100
AcDbEntity
  8
0
100
AcDbText
 62
2
  6
CONTINUOUS
 10
74.0625
 20
-11.35
  7
TEXTSTYLE_3
 40
2.7
  1
ORAC
 72
5
 11
83.9209033613
 21
-11.35
100
AcDbText
  0
TEXT
  5
29E
100
AcDbEntity
  8
0
100
AcDbText
 62
2
  6
CONTINUOUS
 10
74.0625
 20
-18.1
  7
TEXTSTYLE_3
 40
2.7
  1
29-Jul-2005
 72
5
 11
94.1763655462
 21
-18.1
100
AcDbText
  0
TEXT
  5
29F
100
AcDbEntity
  8
0
100
AcDbText
 62
2
  6
CONTINUOUS
 10
94.1763655462
 20
-18.1
  7
TEXTSTYLE_3
 40
2.7
  1
 
 72
5
 11
95.1406512605
 21
-18.1
100
AcDbText
  0
TEXT
  5
2A0
100
AcDbEntity
  8
0
100
AcDbText
 62
2
  6
CONTINUOUS
 10
146.5625
 20
-16.0
  7
TEXTSTYLE_3
 40
1.5
  1
Version: 
 50
90.0
 72
5
 11
146.5625
 21
-7.5294117647
100
AcDbText
  0
TEXT
  5
2A1
100
AcDbEntity
  8
0
100
AcDbText
 62
2
  6
CONTINUOUS
 10
146.5625
 20
-7.5294117647
  7
TEXTSTYLE_3
 40
1.5
  1
2.1
 50
90.0
 72
5
 11
146.5625
 21
-4.5357142857
100
AcDbText
  0
TEXT
  5
2A2
100
AcDbEntity
  8
0
100
AcDbText
 62
2
  6
CONTINUOUS
 10
146.5625
 20
-4.5357142857
  7
TEXTSTYLE_3
 40
1.5
  1
 
 50
90.0
 72
5
 11
146.5625
 21
-4.0
100
AcDbText
  0
TEXT
  5
2A3
100
AcDbEntity
  8
0
100
AcDbText
 62
7
  6
CONTINUOUS
 10
9.6586134454
 20
-22.75
  7
TEXTSTYLE_3
 40
2.5
  1
Biekorfstraat 32
 72
5
 11
35.3413865546
 21
-22.75
100
AcDbText
  0
TEXT
  5
2A4
100
AcDbEntity
  8
0
100
AcDbText
 62
7
  6
CONTINUOUS
 10
2.2584033613
 20
-26.5
  7
TEXTSTYLE_3
 40
2.5
  1
8400 Oostende - Belgium
 72
5
 11
42.7415966387
 21
-26.5
100
AcDbText
  0
TEXT
  5
2A5
100
AcDbEntity
  8
0
100
AcDbText
 62
7
  6
CONTINUOUS
 10
4.2699579832
 20
-30.25
  7
TEXTSTYLE_3
 40
2.5
  1
Tel  +32 (0)59 80 32 52
 72
5
 11
40.7300420168
 21
-30.25
100
AcDbText
  0
TEXT
  5
2A6
100
AcDbEntity
  8
0
100
AcDbText
 62
7
  6
CONTINUOUS
 10
5.7405462185
 20
-34.0
  7
TEXTSTYLE_3
 40
2.5
  1
www.oracdecor.com
 72
5
 11
39.2594537815
 21
-34.0
100
AcDbText
  0
TEXT
  5
2A7
100
AcDbEntity
  8
0
100
AcDbText
 62
7
  6
CONTINUOUS
 10
5.5777310924
 20
-37.75
  7
TEXTSTYLE_3
 40
2.5
  1
info@oracdecor.com
 72
5
 11
39.4222689076
 21
-37.75
100
AcDbText
  0
TEXT
  5
2A8
100
AcDbEntity
  8
0
100
AcDbText
 62
7
  6
CONTINUOUS
 10
46.0625
 20
-23.375
  7
TEXTSTYLE_3
 40
2.5
  1
Unless otherwise specified: all dimensions are in millimeters 
 72
5
 11
143.4259453782
 21
-23.375
100
AcDbText
  0
TEXT
  5
2A9
100
AcDbEntity
  8
0
100
AcDbText
 62
7
  6
CONTINUOUS
 10
46.0625
 20
-27.125
  7
TEXTSTYLE_3
 40
2.5
  1
and inches, scale 1:1, length 2 meters
 72
5
 11
106.1675420168
 21
-27.125
100
AcDbText
  0
TEXT
  5
2AA
100
AcDbEntity
  8
0
100
AcDbText
 62
7
  6
CONTINUOUS
 10
46.0625
 20
-31.81
  7
TEXTSTYLE_3
 40
1.8
  1
All information in this document is Orac's exclusive property.  It may in no case 
 72
5
 11
137.5070378151
 21
-31.81
100
AcDbText
  0
TEXT
  5
2AB
100
AcDbEntity
  8
0
100
AcDbText
 62
7
  6
CONTINUOUS
 10
46.0625
 20
-34.87
  7
TEXTSTYLE_3
 40
1.8
  1
be reproduced, even partly, be communicated to a third party or used for any 
 72
5
 11
136.3272058824
 21
-34.87
100
AcDbText
  0
TEXT
  5
2AC
100
AcDbEntity
  8
0
100
AcDbText
 62
7
  6
CONTINUOUS
 10
46.0625
 20
-37.93
  7
TEXTSTYLE_3
 40
1.8
  1
possible purpose without ORAC's express written permission. Further legal 
 72
5
 11
132.7952731092
 21
-37.93
100
AcDbText
  0
TEXT
  5
2AD
100
AcDbEntity
  8
0
100
AcDbText
 62
7
  6
CONTINUOUS
 10
46.0625
 20
-40.99
  7
TEXTSTYLE_3
 40
1.8
  1
information can be found at https://www.oracdecor.com/en/general-sales-conditions
 72
5
 11
145.349894958
 21
-40.99
100
AcDbText
  0
ENDBLK
  5
2AE
100
AcDbEntity
  8
0
  6
BYBLOCK
 62
0
100
AcDbBlockEnd
  0
ENDSEC
  0
SECTION
  2
ENTITIES
  0
DIMENSION
  5
2AF
100
AcDbEntity
  8
0
100
AcDbDimension
 62
2
  6
CONTINUOUS
  2
*D0
 10
41.2425620535
 20
26.6216709301
 11
41.2425620535
 21
93.7526709301
 70
160
 71
2
 72
2
 41
0.9
 42
138.012
  1
<>mm\P5-3/8"
  3
DIMSTYLE_1
100
AcDbAlignedDimension
 13
60.3051491151
 23
164.6336709301
 14
71.652970194
 24
26.6216709301
 50
270.0
100
AcDbRotatedDimension
  0
DIMENSION
  5
2B0
100
AcDbEntity
  8
0
100
AcDbDimension
 62
2
  6
CONTINUOUS
  2
*D1
 10
75.3051491151
 20
182.6098605118
 11
67.8051491151
 21
180.7348605118
 70
160
 71
2
 72
2
 41
0.9
 42
15.0
  1
<>mm\P5/8"
  3
DIMSTYLE_2
100
AcDbAlignedDimension
 13
60.3051491151
 23
164.6336709301
 14
75.3051491151
 24
151.2889525287
100
AcDbRotatedDimension
  0
DIMENSION
  5
2B1
100
AcDbEntity
  8
0
100
AcDbDimension
 62
2
  6
CONTINUOUS
  2
*D2
 10
62.3919776921
 20
121.3529764325
 11
62.3919776921
 21
104.3599581623
 70
160
 71
2
 72
2
 41
0.9
 42
30.2360365404
  1
<>mm\P1-1/8"
  3
DIMSTYLE_1
100
AcDbAlignedDimension
 13
67.3051491151
 23
91.1169398921
 14
67.3051491151
 24
121.3529764325
 50
90.0
100
AcDbRotatedDimension
  0
DIMENSION
  5
2B2
100
AcDbEntity
  8
0
100
AcDbDimension
 62
2
  6
CONTINUOUS
  2
*D3
 10
67.3051491151
 20
155.278929504
 11
48.4451245073
 21
153.403929504
 70
160
 71
3
 72
2
 41
0.9
 42
7.0
  1
<>mm\P1/4"
  3
DIMSTYLE_2
100
AcDbAlignedDimension
 13
60.3051491151
 23
154.9044983529
 14
67.3051491151
 24
148.0038983529
100
AcDbRotatedDimension
  0
DIMENSION
  5
2B3
100
AcDbEntity
  8
0
100
AcDbDimension
 62
2
  6
CONTINUOUS
  2
*D4
 10
62.3469343531
 20
84.2163398921
 11
62.3469343531
 21
64.1433936408
 70
160
 71
2
 72
2
 41
0.9
 42
34.0101
  1
<>mm\P1-3/8"
  3
DIMSTYLE_1
100
AcDbAlignedDimension
 13
67.3051491151
 23
50.2062398921
 14
67.3051491151
 24
84.2163398921
 50
90.0
100
AcDbRotatedDimension
  0
DIMENSION
  5
2B4
100
AcDbEntity
  8
0
100
AcDbDimension
 62
2
  6
CONTINUOUS
  2
*D5
 10
60.3051491151
 20
46.0587489452
 11
47.172743541
 21
44.1837489452
 70
160
 71
3
 72
2
 41
0.9
 42
7.0
  1
<>mm\P1/4"
  3
DIMSTYLE_2
100
AcDbAlignedDimension
 13
67.3051491151
 23
49.7333674975
 14
60.3051491151
 24
47.7417398921
 50
180.0
100
AcDbRotatedDimension
  0
DIMENSION
  5
2B5
100
AcDbEntity
  8
0
100
AcDbDimension
 62
2
  6
CONTINUOUS
  2
*D6
 10
51.8725770279
 20
26.6216709301
 11
51.8725770279
 21
32.0342731059
 70
160
 71
2
 72
2
 41
0.9
 42
10.7834363297
  1
<>mm\P3/8"
  3
DIMSTYLE_1
100
AcDbAlignedDimension
 13
60.8051491151
 23
37.4051072598
 14
71.652970194
 24
26.6216709301
 50
270.0
100
AcDbRotatedDimension
  0
DIMENSION
  5
2B6
100
AcDbEntity
  8
0
100
AcDbDimension
 62
2
  6
CONTINUOUS
  2
*D7
 10
71.1841827325
 20
19.817960732
 11
65.7446659238
 21
17.942960732
 70
160
 71
2
 72
2
 41
0.9
 42
10.8790336174
  1
<>mm\P3/8"
  3
DIMSTYLE_1
100
AcDbAlignedDimension
 13
60.3051491151
 23
37.8980072598
 14
71.1841827325
 24
26.9477792513
100
AcDbRotatedDimension
  0
DIMENSION
  5
2B7
100
AcDbEntity
  8
0
100
AcDbDimension
 62
2
  6
CONTINUOUS
  2
*D8
 10
60.3051491151
 20
172.8285542832
 11
47.8550866125
 21
170.9535542832
 70
160
 71
3
 72
2
 41
0.9
 42
6.0
  1
<>mm\P1/4"
  3
DIMSTYLE_2
100
AcDbAlignedDimension
 13
66.3051491151
 23
163.1549709301
 14
60.3051491151
 24
164.6336709301
 50
180.0
100
AcDbRotatedDimension
  0
ACAD_TABLE
  5
2B8
100
AcDbEntity
  8
0
 62
2
  6
CONTINUOUS
100
AcDbBlockReference
  2
*T1
 10
144.0
 20
48.0
 30
0.0
100
AcDbTable
342
       33A
343
223
 11
1.0
 21
0.0
 31
0.0
 90
22
 91
4
 92
4
 93
0
 94
0
 95
0
 96
0
141
15.0
141
5.0
141
8.0
141
15.0
142
45.0
142
28.0
142
70.0
142
5.0
171
1
172
0
173
0
174
0
175
1
176
1
 91
41
178
0
145
0.0
301
CELL_VALUE
 90
4
  1
\A1;O\H5.5;RAC\fCG Triumvirate;\H3.0;\S®^ ;\PD  E  C  O  R\fCG Times;\H2.5; 
304
ACVALUE_END
170
5
140
8.0
 64
7
171
1
172
0
173
0
174
0
175
1
176
2
 91
57
178
0
145
0.0
  7
TEXTSTYLE_3
301
CELL_VALUE
 90
4
  1
Part name:\PDesigned by:\PDesigned on:
304
ACVALUE_END
170
6
140
2.7
 64
7
171
1
172
0
173
0
174
0
175
1
176
2
 91
49
178
0
145
0.0
  7
TEXTSTYLE_3
301
CELL_VALUE
 90
4
  1
SX138\PORAC\P29-Jul-2005 
304
ACVALUE_END
170
4
140
2.7
171
1
172
0
173
0
174
0
175
1
176
2
 91
49
178
0
145
0.0
  7
TEXTSTYLE_3
301
CELL_VALUE
 90
4
  1
Version: 2.1 
304
ACVALUE_END
170
6
140
1.5
171
1
172
0
173
0
174
0
175
1
176
3
 91
57
178
0
145
0.0
  7
TEXTSTYLE_3
301
CELL_VALUE
 90
4
  1
Biekorfstraat 32\P8400 Oostende - Belgium\PTel  +32 (0)59 80 32 52\Pwww.oracdecor.com\Pinfo@oracdecor.com
304
ACVALUE_END
170
5
140
2.5
 64
7
171
1
172
0
173
1
174
0
175
1
176
1
 91
1
178
0
145
0.0
170
1
171
1
172
0
173
1
174
0
175
1
176
1
 91
1
178
0
145
0.0
170
1
171
1
172
0
173
1
174
0
175
1
176
1
 91
1
178
0
145
0.0
170
1
171
1
172
0
173
1
174
0
175
1
176
1
 91
1
178
0
145
0.0
170
1
171
1
172
0
173
0
174
0
175
3
176
1
 91
57
178
0
145
0.0
  7
TEXTSTYLE_3
301
CELL_VALUE
 90
4
  1
Unless otherwise specified: all dimensions are in millimeters \Pand inches, scale 1:1, length 2 meters
304
ACVALUE_END
170
4
140
2.5
 64
7
171
1
172
0
173
1
174
0
175
1
176
1
 91
1
178
0
145
0.0
170
1
171
1
172
0
173
1
174
0
175
1
176
1
 91
1
178
0
145
0.0
170
1
171
1
172
0
173
1
174
0
175
1
176
1
 91
1
178
0
145
0.0
170
1
171
1
172
0
173
0
174
0
175
3
176
1
 91
57
178
0
145
0.0
  7
TEXTSTYLE_3
301
CELL_VALUE
 90
4
  2
All information in this document is Orac's exclusive property.  It may in no case \Pbe reproduced, even partly, be communicated to a third party or used for any \Ppossible purpose without ORAC's express written permission. Further legal \Pinformation
  1
 can be found at https://www.oracdecor.com/en/general-sales-conditions
304
ACVALUE_END
170
4
140
1.8
 64
7
171
1
172
0
173
1
174
0
175
1
176
1
 91
1
178
0
145
0.0
170
1
171
1
172
0
173
1
174
0
175
1
176
1
 91
1
178
0
145
0.0
170
1
  0
TEXT
  5
2B9
100
AcDbEntity
  8
0
100
AcDbText
 62
2
  6
CONTINUOUS
 10
195.1330481993
 20
73.066963003
  7
STANDARD
 40
2.5
  1
SCALE  
 72
5
 11
208.9365501448
 21
73.066963003
100
AcDbText
  0
TEXT
  5
2BA
100
AcDbEntity
  8
0
100
AcDbText
 62
2
  6
CONTINUOUS
 10
208.9365501448
 20
73.066963003
  7
STANDARD
 40
2.5
  1
1:2
 72
5
 11
213.790635748
 21
73.066963003
100
AcDbText
  0
LINE
  5
2BB
100
AcDbEntity
  8
0
100
AcDbLine
 62
5
  6
CONTINUOUS
 10
0.0
 20
0.0
 11
0.0
 21
210.0
  0
LINE
  5
2BC
100
AcDbEntity
  8
0
100
AcDbLine
 62
7
  6
CONTINUOUS
 10
5.0
 20
5.0
 11
5.0
 21
195.0
  0
LINE
  5
2BD
100
AcDbEntity
  8
0
100
AcDbLine
 62
5
  6
CONTINUOUS
 10
0.0
 20
0.0
 11
297.0
 21
0.0
  0
LINE
  5
2BE
100
AcDbEntity
  8
0
100
AcDbLine
 62
7
  6
CONTINUOUS
 10
5.0
 20
5.0
 11
292.0
 21
5.0
  0
LINE
  5
2BF
100
AcDbEntity
  8
0
100
AcDbLine
 62
4
  6
CONTINUOUS
 10
148.5
 20
195.0
 11
148.5
 21
205.0
  0
LINE
  5
2C0
100
AcDbEntity
  8
0
100
AcDbLine
 62
7
  6
CONTINUOUS
 10
5.0
 20
195.0
 11
292.0
 21
195.0
  0
LINE
  5
2C1
100
AcDbEntity
  8
0
100
AcDbLine
 62
5
  6
CONTINUOUS
 10
0.0
 20
210.0
 11
297.0
 21
210.0
  0
LINE
  5
2C2
100
AcDbEntity
  8
0
100
AcDbLine
 62
7
  6
CONTINUOUS
 10
292.0
 20
5.0
 11
292.0
 21
195.0
  0
LINE
  5
2C3
100
AcDbEntity
  8
0
100
AcDbLine
 62
5
  6
CONTINUOUS
 10
297.0
 20
0.0
 11
297.0
 21
210.0
  0
LINE
  5
2C4
100
AcDbEntity
  8
0
100
AcDbLine
 62
7
  6
CONTINUOUS
 10
201.7130821743
 20
78.301963003
 11
200.1380118015
 21
78.334562036
  0
LINE
  5
2C5
100
AcDbEntity
  8
DTM_AXIS
100
AcDbLine
 62
7
  6
CONTINUOUS
 10
197.3752058542
 20
83.7835114759
 11
194.8259443102
 21
83.8362732208
  0
LINE
  5
2C6
100
AcDbEntity
  8
DTM_AXIS
100
AcDbLine
 62
7
  6
CONTINUOUS
 10
194.9347434054
 20
89.2488377773
 11
197.1832885721
 21
89.2022999214
  0
LINE
  5
2C7
100
AcDbEntity
  8
DTM_AXIS
100
AcDbLine
 62
7
  6
CONTINUOUS
 10
195.8543100213
 20
147.4298590033
 11
225.6710330111
 21
167.0581688932
  0
LINE
  5
2C8
100
AcDbEntity
  8
DTM_AXIS
100
AcDbLine
 62
7
  6
CONTINUOUS
 10
198.102855188
 20
147.3833211473
 11
227.9195781778
 21
167.0116310373
  0
LINE
  5
2C9
100
AcDbEntity
  8
DTM_AXIS
100
AcDbLine
 62
7
  6
CONTINUOUS
 10
198.8375144573
 20
146.6287591642
 11
228.6542374471
 21
166.2570690541
  0
LINE
  5
2CA
100
AcDbEntity
  8
DTM_AXIS
100
AcDbLine
 62
7
  6
CONTINUOUS
 10
198.8181731248
 20
145.6665617214
 11
228.6348961145
 21
165.2948716114
  0
LINE
  5
2CB
100
AcDbEntity
  8
DTM_AXIS
100
AcDbLine
 62
7
  6
CONTINUOUS
 10
199.2696437601
 20
144.9731133577
 11
229.0863667499
 21
164.6014232476
  0
LINE
  5
2CC
100
AcDbEntity
  8
DTM_AXIS
100
AcDbLine
 62
7
  6
CONTINUOUS
 10
195.7751122109
 20
143.4899065534
 11
195.7903099479
 21
143.499788339
  0
LINE
  5
2CD
100
AcDbEntity
  8
0
100
AcDbLine
 62
7
  6
CONTINUOUS
 10
199.9070458812
 20
78.502397976
 11
198.3007713676
 21
83.1171034625
  0
LINE
  5
2CE
100
AcDbEntity
  8
DTM_AXIS
100
AcDbLine
 62
7
  6
CONTINUOUS
 10
199.0393179262
 20
138.267977178
 11
196.3116183556
 21
136.4723361051
  0
LINE
  5
2CF
100
AcDbEntity
  8
DTM_AXIS
100
AcDbLine
 62
7
  6
CONTINUOUS
 10
196.8156552825
 20
136.6367713409
 11
198.9418238833
 21
138.0364253603
  0
LINE
  5
2D0
100
AcDbEntity
  8
DTM_AXIS
100
AcDbLine
 62
7
  6
CONTINUOUS
 10
194.5810578871
 20
84.0877938819
 11
194.621355338
 21
86.092521531
  0
LINE
  5
2D1
100
AcDbEntity
  8
DTM_AXIS
100
AcDbLine
 62
7
  6
CONTINUOUS
 10
194.6510008113
 20
87.5673319384
 11
194.6799531248
 21
89.0076588621
  0
LINE
  5
2D2
100
AcDbEntity
  8
DTM_AXIS
100
AcDbLine
 62
7
  6
CONTINUOUS
 10
195.7565657133
 20
142.5672507594
 11
195.7751122109
 21
143.4899065534
  0
LINE
  5
2D3
100
AcDbEntity
  8
DTM_AXIS
100
AcDbLine
 62
7
  6
CONTINUOUS
 10
195.8047576842
 20
144.9647169608
 11
195.8543100213
 21
147.4298590033
  0
LINE
  5
2D4
100
AcDbEntity
  8
DTM_AXIS
100
AcDbLine
 62
7
  6
CONTINUOUS
 10
195.3061380619
 20
107.7250718898
 11
195.3556573494
 21
110.1885697715
  0
LINE
  5
2D5
100
AcDbEntity
  8
DTM_AXIS
100
AcDbLine
 62
7
  6
CONTINUOUS
 10
195.7501124163
 20
129.8120189419
 11
195.8679271408
 21
135.6730952755
  0
LINE
  5
2D6
100
AcDbEntity
  8
DTM_AXIS
100
AcDbLine
 62
7
  6
CONTINUOUS
 10
200.2983963705
 20
133.7681621456
 11
230.1151155257
 21
153.396477847
  0
LINE
  5
2D7
100
AcDbEntity
  8
DTM_AXIS
100
AcDbLine
 62
7
  6
CONTINUOUS
 10
200.2930383438
 20
133.7646387541
 11
230.1151193603
 21
153.3964720355
  0
LINE
  5
2D8
100
AcDbEntity
  8
DTM_AXIS
100
AcDbLine
 62
7
  6
CONTINUOUS
 10
198.8375144573
 20
146.6287591642
 11
198.8181731248
 21
145.6665617214
  0
LINE
  5
2D9
100
AcDbEntity
  8
DTM_AXIS
100
AcDbLine
 62
7
  6
CONTINUOUS
 10
198.2024496946
 20
90.1670155825
 11
198.5441327785
 21
107.165150966
  0
LINE
  5
2DA
100
AcDbEntity
  8
DTM_AXIS
100
AcDbLine
 62
7
  6
CONTINUOUS
 10
198.6134597811
 20
110.6140480004
 11
198.9172266683
 21
125.7259189615
  0
LINE
  5
2DB
100
AcDbEntity
  8
DTM_AXIS
100
AcDbLine
 62
7
  6
CONTINUOUS
 10
199.9614026239
 20
130.7593920194
 11
229.7781256136
 21
150.3877019093
  0
LINE
  5
2DC
100
AcDbEntity
  8
DTM_AXIS
100
AcDbLine
 62
7
  6
CONTINUOUS
 10
198.2992463554
 20
107.4166716271
 11
195.551024485
 21
107.4735512288
  0
LINE
  5
2DD
100
AcDbEntity
  8
DTM_AXIS
100
AcDbLine
 62
7
  6
CONTINUOUS
 10
195.61044763
 20
110.4297486868
 11
198.3586695004
 21
110.3728690851
  0
LINE
  5
2DE
100
AcDbEntity
  8
0
100
AcDbLine
 62
7
  6
CONTINUOUS
 10
202.9433564827
 20
127.0717649222
 11
201.9679437852
 21
78.5466904747
  0
LINE
  5
2DF
100
AcDbEntity
  8
DTM_AXIS
100
AcDbLine
 62
7
  6
CONTINUOUS
 10
202.5253099827
 20
128.1260256383
 11
232.3420329725
 21
147.7543355283
  0
LINE
  5
2E0
100
AcDbEntity
  8
DTM_AXIS
100
AcDbLine
 62
7
  6
CONTINUOUS
 10
202.9433564827
 20
127.0717649222
 11
232.7600794724
 21
146.7000748121
  0
LINE
  5
2E1
100
AcDbEntity
  8
DTM_AXIS
100
AcDbLine
 62
7
  6
CONTINUOUS
 10
198.6385290017
 20
126.4287594389
 11
196.028810083
 21
129.1091784645
  0
LINE
  5
2E2
100
AcDbEntity
  8
DTM_AXIS
100
AcDbLine
 62
7
  6
CONTINUOUS
 10
199.9614026239
 20
130.7593920194
 11
202.5253099827
 21
128.1260256383
  0
LINE
  5
2E3
100
AcDbEntity
  8
DTM_AXIS
100
AcDbLine
 62
7
  6
CONTINUOUS
 10
198.6510625633
 20
112.4847205998
 11
195.4665801531
 21
110.3883799789
  0
LINE
  5
2E4
100
AcDbEntity
  8
DTM_AXIS
100
AcDbLine
 62
7
  6
CONTINUOUS
 10
195.61044763
 20
110.4297486868
 11
198.6499760056
 21
112.4306662556
  0
LINE
  5
2E5
100
AcDbEntity
  8
DTM_AXIS
100
AcDbLine
 62
7
  6
CONTINUOUS
 10
198.3586695004
 20
110.3728690851
 11
198.595760766
 21
110.5289459562
  0
LINE
  5
2E6
100
AcDbEntity
  8
DTM_AXIS
100
AcDbLine
 62
7
  6
CONTINUOUS
 10
228.6542374471
 20
166.2570690541
 11
228.6348961145
 21
165.2948716114
  0
LINE
  5
2E7
100
AcDbEntity
  8
0
100
AcDbLine
 62
7
  6
CONTINUOUS
 10
232.7600794724
 20
146.7000748121
 11
231.784666775
 21
98.1750003647
  0
LINE
  5
2E8
100
AcDbEntity
  8
DTM_AXIS
100
AcDbLine
 62
7
  6
CONTINUOUS
 10
198.22865237
 20
91.4705528211
 11
194.7908759285
 21
89.2074690695
  0
LINE
  5
2E9
100
AcDbEntity
  8
DTM_AXIS
100
AcDbLine
 62
7
  6
CONTINUOUS
 10
194.9347434054
 20
89.2488377773
 11
198.2275658123
 21
91.4164984769
  0
LINE
  5
2EA
100
AcDbEntity
  8
DTM_AXIS
100
AcDbLine
 62
7
  6
CONTINUOUS
 10
197.1832885721
 20
89.2022999214
 11
198.1339040349
 21
89.8280888418
  0
LINE
  5
2EB
100
AcDbEntity
  8
DTM_AXIS
100
AcDbLine
 62
7
  6
CONTINUOUS
 10
194.621355338
 20
86.092521531
 11
194.636553075
 21
86.1024033165
  0
LINE
  5
2EC
100
AcDbEntity
  8
DTM_AXIS
100
AcDbLine
 62
7
  6
CONTINUOUS
 10
195.8543100213
 20
147.4298590033
 11
198.102855188
 21
147.3833211473
  0
LINE
  5
2ED
100
AcDbEntity
  8
0
100
AcDbLine
 62
7
  6
CONTINUOUS
 10
231.784666775
 20
98.1750003647
 11
201.9679437852
 21
78.5466904747
  0
LINE
  5
2EE
100
AcDbEntity
  8
0
100
AcDbLine
 62
7
  6
CONTINUOUS
 10
231.6722914149
 20
97.9713557068
 11
201.8555684252
 21
78.3430458169
  0
LINE
  5
2EF
100
AcDbEntity
  8
DTM_AXIS
100
AcDbLine
 62
7
  6
CONTINUOUS
 10
229.7781256136
 20
150.3877019093
 11
232.3420329725
 21
147.7543355283
  0
LINE
  5
2F0
100
AcDbEntity
  8
DTM_AXIS
100
AcDbLine
 62
7
  6
CONTINUOUS
 10
225.6710330111
 20
167.0581688932
 11
227.9195781778
 21
167.0116310373
  0
LINE
  5
2F1
100
AcDbEntity
  8
0
100
AcDbLine
 62
7
  6
CONTINUOUS
 10
74.8051491151
 20
26.6216709301
 11
71.652970194
 21
26.6216709301
  0
LINE
  5
2F2
100
AcDbEntity
  8
DTM_AXIS
100
AcDbLine
 62
7
  6
CONTINUOUS
 10
65.9069710033
 20
37.4051072598
 11
60.8051491151
 21
37.4051072598
  0
LINE
  5
2F3
100
AcDbEntity
  8
DTM_AXIS
100
AcDbLine
 62
7
  6
CONTINUOUS
 10
60.8051491151
 20
48.2346398921
 11
65.3051491151
 21
48.2346398921
  0
LINE
  5
2F4
100
AcDbEntity
  8
0
100
AcDbLine
 62
7
  6
CONTINUOUS
 10
71.1841827325
 20
26.9477792513
 11
67.785326824
 21
36.1106158219
  0
LINE
  5
2F5
100
AcDbEntity
  8
DTM_AXIS
100
AcDbLine
 62
7
  6
CONTINUOUS
 10
66.8051491151
 20
84.7092398921
 11
61.3051491151
 21
84.7092398921
  0
LINE
  5
2F6
100
AcDbEntity
  8
DTM_AXIS
100
AcDbLine
 62
7
  6
CONTINUOUS
 10
60.3051491151
 20
37.8980072598
 11
60.3051491151
 21
41.9090935513
  0
LINE
  5
2F7
100
AcDbEntity
  8
DTM_AXIS
100
AcDbLine
 62
7
  6
CONTINUOUS
 10
60.3051491151
 20
44.8599142328
 11
60.3051491151
 21
47.7417398921
  0
LINE
  5
2F8
100
AcDbEntity
  8
DTM_AXIS
100
AcDbLine
 62
7
  6
CONTINUOUS
 10
60.3051491151
 20
154.9044983529
 11
60.3051491151
 21
156.7505605893
  0
LINE
  5
2F9
100
AcDbEntity
  8
DTM_AXIS
100
AcDbLine
 62
7
  6
CONTINUOUS
 10
60.3051491151
 20
159.7013812708
 11
60.3051491151
 21
164.6336709301
  0
LINE
  5
2FA
100
AcDbEntity
  8
DTM_AXIS
100
AcDbLine
 62
7
  6
CONTINUOUS
 10
60.8051491151
 20
85.2021398921
 11
60.8051491151
 21
90.1311398921
  0
LINE
  5
2FB
100
AcDbEntity
  8
DTM_AXIS
100
AcDbLine
 62
7
  6
CONTINUOUS
 10
60.8051491151
 20
129.3940033516
 11
60.8051491151
 21
141.1209244353
  0
LINE
  5
2FC
100
AcDbEntity
  8
DTM_AXIS
100
AcDbLine
 62
7
  6
CONTINUOUS
 10
61.3051491151
 20
90.6240398921
 11
66.8051491151
 21
90.6240398921
  0
LINE
  5
2FD
100
AcDbEntity
  8
DTM_AXIS
100
AcDbLine
 62
7
  6
CONTINUOUS
 10
66.3051491151
 20
163.1549709301
 11
66.3051491151
 21
161.2297932262
  0
LINE
  5
2FE
100
AcDbEntity
  8
DTM_AXIS
100
AcDbLine
 62
7
  6
CONTINUOUS
 10
67.3051491151
 20
50.2062398921
 11
67.3051491151
 21
84.2163398921
  0
LINE
  5
2FF
100
AcDbEntity
  8
DTM_AXIS
100
AcDbLine
 62
7
  6
CONTINUOUS
 10
67.3051491151
 20
91.1169398921
 11
67.3051491151
 21
121.3529764325
  0
LINE
  5
300
100
AcDbEntity
  8
0
100
AcDbLine
 62
7
  6
CONTINUOUS
 10
75.3051491151
 20
124.211298541
 11
75.3051491151
 21
27.1216709301
  0
LINE
  5
301
100
AcDbEntity
  8
DTM_AXIS
100
AcDbLine
 62
7
  6
CONTINUOUS
 10
66.7193626775
 20
122.7471081623
 11
61.3909355527
 21
127.9998716218
  0
LINE
  5
302
100
AcDbEntity
  8
DTM_AXIS
100
AcDbLine
 62
7
  6
CONTINUOUS
 10
69.1915786747
 20
131.4630514705
 11
74.4264694587
 21
126.3024961357
  0
LINE
  5
303
100
AcDbEntity
  8
DTM_AXIS
100
AcDbLine
 62
7
  6
CONTINUOUS
 10
60.3051491151
 20
164.6336709301
 11
64.8051491151
 21
164.6336709301
  0
ARC
  5
304
100
AcDbEntity
  8
0
100
AcDbCircle
 62
7
  6
CONTINUOUS
 10
200.1432344078
 20
78.5845878864
 40
0.25008039
100
AcDbArc
 50
199.1870966509
 51
268.803364579
  0
ARC
  5
305
100
AcDbEntity
  8
0
100
AcDbCircle
 62
7
  6
CONTINUOUS
 10
231.5349200125
 20
98.1799885656
 40
0.2497965722
100
AcDbArc
 50
303.3611517944
 51
358.8557815047
  0
ARC
  5
306
100
AcDbEntity
  8
0
100
AcDbCircle
 62
7
  6
CONTINUOUS
 10
201.7181970228
 20
78.5516786756
 40
0.2497965722
100
AcDbArc
 50
303.3611517945
 51
358.8557815047
  0
ARC
  5
307
100
AcDbEntity
  8
0
100
AcDbCircle
 62
7
  6
CONTINUOUS
 10
74.8051491151
 20
27.1216709301
 40
0.5
100
AcDbArc
 50
270.0
 51
360.0
  0
ARC
  5
308
100
AcDbEntity
  8
0
100
AcDbCircle
 62
7
  6
CONTINUOUS
 10
71.652970194
 20
27.1216709301
 40
0.5
100
AcDbArc
 50
200.3517951523
 51
270.0
  0
SPLINE
  5
309
100
AcDbEntity
  8
0
100
AcDbSpline
 62
7
  6
CONTINUOUS
 70
0
 71
3
 72
8
 73
4
 74
0
 42
0.0000001
 43
0.0000001
 44
0.0000000001
 40
0.0
 40
0.0
 40
0.0
 40
0.0
 40
1.0
 40
1.0
 40
1.0
 40
1.0
 10
201.7130821743
 20
78.301963003
 30
0.0
 10
201.7625001115
 20
78.3009402061
 30
0.0
 10
201.8142777626
 20
78.3158653833
 30
0.0
 10
201.8555637955
 20
78.3430433545
 30
0.0
  0
ELLIPSE
  5
30A
100
AcDbEntity
  8
DTM_AXIS
100
AcDbEllipse
 62
7
  6
CONTINUOUS
 10
197.3553981392
 20
82.7981123232
 30
0.0
 11
0.998711406
 21
-0.0415086679
 31
0.0
 40
0.9860123262
 41
0.3717076767
 42
1.5919363384
  0
ELLIPSE
  5
30B
100
AcDbEntity
  8
DTM_AXIS
100
AcDbEllipse
 62
7
  6
CONTINUOUS
 10
194.830896239
 20
84.082623009
 30
0.0
 11
0.2496778515
 21
-0.010377167
 31
0.0
 40
0.9860123262
 41
-3.120452642
 42
-1.5496563152
  0
ELLIPSE
  5
30C
100
AcDbEntity
  8
DTM_AXIS
100
AcDbEllipse
 62
7
  6
CONTINUOUS
 10
198.2942944267
 20
107.1703218389
 30
0.0
 11
0.2496778515
 21
-0.010377167
 31
0.0
 40
0.9860123262
 41
0.0211400116
 42
1.5919363384
  0
ELLIPSE
  5
30D
100
AcDbEntity
  8
DTM_AXIS
100
AcDbEllipse
 62
7
  6
CONTINUOUS
 10
195.5559764138
 20
107.719901017
 30
0.0
 11
0.2496778515
 21
-0.010377167
 31
0.0
 40
0.9860123262
 41
-3.120452642
 42
-1.5496563152
  0
ELLIPSE
  5
30E
100
AcDbEntity
  8
DTM_AXIS
100
AcDbEllipse
 62
7
  6
CONTINUOUS
 10
197.9178732609
 20
125.746602453
 30
0.0
 11
0.998711406
 21
-0.0415086679
 31
0.0
 40
0.9860123262
 41
0.0211400116
 42
0.806538175
  0
ELLIPSE
  5
30F
100
AcDbEntity
  8
DTM_AXIS
100
AcDbEllipse
 62
7
  6
CONTINUOUS
 10
196.7494658238
 20
129.7913354504
 30
0.0
 11
0.998711406
 21
-0.0415086679
 31
0.0
 40
0.9860123262
 41
-3.120452642
 42
-2.3350544786
  0
ELLIPSE
  5
310
100
AcDbEntity
  8
DTM_AXIS
100
AcDbEllipse
 62
7
  6
CONTINUOUS
 10
196.7559191207
 20
142.5465672678
 30
0.0
 11
0.998711406
 21
-0.0415086679
 31
0.0
 40
0.9860123262
 41
-3.120452642
 42
-1.5496563152
  0
ELLIPSE
  5
311
100
AcDbEntity
  8
DTM_AXIS
100
AcDbEllipse
 62
7
  6
CONTINUOUS
 10
194.1365013709
 20
86.8402684804
 30
0.0
 11
0.8988402654
 21
-0.0373578011
 31
0.0
 40
0.9860123262
 41
5.3428069591
 42
7.2860906753
  0
ELLIPSE
  5
312
100
AcDbEntity
  8
DTM_AXIS
100
AcDbEllipse
 62
7
  6
CONTINUOUS
 10
195.2902582438
 20
144.2376535029
 30
0.0
 11
0.8988402654
 21
-0.0373578011
 31
0.0
 40
0.9860123262
 41
5.3428069591
 42
7.2860906753
  0
ELLIPSE
  5
313
100
AcDbEntity
  8
DTM_AXIS
100
AcDbEllipse
 62
7
  6
CONTINUOUS
 10
231.2610493613
 20
146.7311000494
 30
0.0
 11
1.4980671091
 21
-0.0622630019
 31
0.0
 40
0.9860123262
 41
0.0211400116
 42
0.806538175
  0
ELLIPSE
  5
314
100
AcDbEntity
  8
DTM_AXIS
100
AcDbEllipse
 62
7
  6
CONTINUOUS
 10
231.2194370952
 20
151.7520158811
 30
0.0
 11
1.9974228121
 21
-0.0830173358
 31
0.0
 40
0.9860123262
 41
2.2002228444
 42
3.9481308286
  0
ELLIPSE
  5
315
100
AcDbEntity
  8
DTM_AXIS
100
AcDbEllipse
 62
7
  6
CONTINUOUS
 10
226.5033151079
 20
158.7259801234
 30
0.0
 11
6.4916241393
 21
-0.2698063415
 31
0.0
 40
0.9860123262
 41
-0.940378028
 42
1.2028855119
  0
ELLIPSE
  5
316
100
AcDbEntity
  8
DTM_AXIS
100
AcDbEllipse
 62
7
  6
CONTINUOUS
 10
229.3844111701
 20
165.2793589927
 30
0.0
 11
0.7490335545
 21
-0.0311315009
 31
0.0
 40
0.9860123262
 41
-3.120452642
 42
-1.9387071417
  0
ELLIPSE
  5
317
100
AcDbEntity
  8
DTM_AXIS
100
AcDbEllipse
 62
7
  6
CONTINUOUS
 10
227.9047223915
 20
166.2725816728
 30
0.0
 11
0.7490335545
 21
-0.0311315009
 31
0.0
 40
0.9860123262
 41
0.0211400116
 42
1.5919363384
  0
ELLIPSE
  5
318
100
AcDbEntity
  8
DTM_AXIS
100
AcDbEllipse
 62
7
  6
CONTINUOUS
 10
201.4027141055
 20
132.1237059912
 30
0.0
 11
1.9974228121
 21
-0.0830173358
 31
0.0
 40
0.9860123262
 41
2.2002228444
 42
3.9481308286
  0
ELLIPSE
  5
319
100
AcDbEntity
  8
DTM_AXIS
100
AcDbEllipse
 62
7
  6
CONTINUOUS
 10
201.4443263715
 20
127.1027901595
 30
0.0
 11
1.4980671091
 21
-0.0622630019
 31
0.0
 40
0.9860123262
 41
0.0211400116
 42
0.806538175
  0
ELLIPSE
  5
31A
100
AcDbEntity
  8
DTM_AXIS
100
AcDbEllipse
 62
7
  6
CONTINUOUS
 10
196.6865921182
 20
139.0976702335
 30
0.0
 11
2.4967785151
 21
-0.1037716698
 31
0.0
 40
0.9860123262
 41
-1.4781668653
 42
1.5919363384
  0
ELLIPSE
  5
31B
100
AcDbEntity
  8
DTM_AXIS
100
AcDbEllipse
 62
7
  6
CONTINUOUS
 10
196.8672805482
 20
135.6524117839
 30
0.0
 11
0.998711406
 21
-0.0415086679
 31
0.0
 40
0.9860123262
 41
1.6634257883
 42
3.1627326652
  0
ELLIPSE
  5
31C
100
AcDbEntity
  8
DTM_AXIS
100
AcDbEllipse
 62
7
  6
CONTINUOUS
 10
195.6054957013
 20
110.1833988986
 30
0.0
 11
0.2496778515
 21
-0.010377167
 31
0.0
 40
0.9860123262
 41
1.5919363384
 42
3.1627326652
  0
ELLIPSE
  5
31D
100
AcDbEntity
  8
DTM_AXIS
100
AcDbEllipse
 62
7
  6
CONTINUOUS
 10
198.3636214292
 20
110.6192188732
 30
0.0
 11
0.2496778515
 21
-0.010377167
 31
0.0
 40
0.9860123262
 41
-1.5496563152
 42
0.0211400116
  0
ELLIPSE
  5
31E
100
AcDbEntity
  8
DTM_AXIS
100
AcDbEllipse
 62
7
  6
CONTINUOUS
 10
197.2030962871
 20
90.187699074
 30
0.0
 11
0.998711406
 21
-0.0415086679
 31
0.0
 40
0.9860123262
 41
-1.5496563152
 42
0.0211400116
  0
ELLIPSE
  5
31F
100
AcDbEntity
  8
DTM_AXIS
100
AcDbEllipse
 62
7
  6
CONTINUOUS
 10
194.9297914767
 20
89.0024879892
 30
0.0
 11
0.2496778515
 21
-0.010377167
 31
0.0
 40
0.9860123262
 41
1.5919363384
 42
3.1627326652
  0
ELLIPSE
  5
320
100
AcDbEntity
  8
DTM_AXIS
100
AcDbEllipse
 62
7
  6
CONTINUOUS
 10
198.0879994018
 20
146.6442717828
 30
0.0
 11
0.7490335545
 21
-0.0311315009
 31
0.0
 40
0.9860123262
 41
0.0211400116
 42
1.5919363384
  0
ELLIPSE
  5
321
100
AcDbEntity
  8
DTM_AXIS
100
AcDbEllipse
 62
7
  6
CONTINUOUS
 10
199.5676881803
 20
145.6510491028
 30
0.0
 11
0.7490335545
 21
-0.0311315009
 31
0.0
 40
0.9860123262
 41
-3.120452642
 42
-1.9387071417
  0
ELLIPSE
  5
322
100
AcDbEntity
  8
DTM_AXIS
100
AcDbEllipse
 62
7
  6
CONTINUOUS
 10
196.6865921182
 20
139.0976702335
 30
0.0
 11
6.4916241393
 21
-0.2698063415
 31
0.0
 40
0.9860123262
 41
-0.940378028
 42
1.2028855119
  0
ELLIPSE
  5
323
100
AcDbEntity
  8
DTM_AXIS
100
AcDbEllipse
 62
7
  6
CONTINUOUS
 10
65.9069710033
 20
35.4335072598
 30
0.0
 11
-2.0
 21
0.0
 31
0.0
 40
0.9858
 41
-2.7910249885
 42
-1.5707963268
  0
ELLIPSE
  5
324
100
AcDbEntity
  8
DTM_AXIS
100
AcDbEllipse
 62
7
  6
CONTINUOUS
 10
60.8051491151
 20
37.8980072598
 30
0.0
 11
0.5
 21
0.0
 31
0.0
 40
0.9858
 41
-3.1415926536
 42
-1.5707963268
  0
ELLIPSE
  5
325
100
AcDbEntity
  8
DTM_AXIS
100
AcDbEllipse
 62
7
  6
CONTINUOUS
 10
59.3051491151
 20
43.3845038921
 30
0.0
 11
-1.8
 21
0.0
 31
0.0
 40
0.9858
 41
2.159827297
 42
4.1233580102
  0
ELLIPSE
  5
326
100
AcDbEntity
  8
DTM_AXIS
100
AcDbEllipse
 62
7
  6
CONTINUOUS
 10
60.8051491151
 20
47.7417398921
 30
0.0
 11
0.5
 21
0.0
 31
0.0
 40
0.9858
 41
1.5707963268
 42
3.1415926536
  0
ELLIPSE
  5
327
100
AcDbEntity
  8
DTM_AXIS
100
AcDbEllipse
 62
7
  6
CONTINUOUS
 10
65.3051491151
 20
50.2062398921
 30
0.0
 11
-2.0
 21
0.0
 31
0.0
 40
0.9858
 41
1.5707963268
 42
3.1415926536
  0
ELLIPSE
  5
328
100
AcDbEntity
  8
DTM_AXIS
100
AcDbEllipse
 62
7
  6
CONTINUOUS
 10
66.8051491151
 20
84.2163398921
 30
0.0
 11
-0.5
 21
0.0
 31
0.0
 40
0.9858
 41
3.1415926536
 42
4.7123889804
  0
ELLIPSE
  5
329
100
AcDbEntity
  8
DTM_AXIS
100
AcDbEllipse
 62
7
  6
CONTINUOUS
 10
61.3051491151
 20
85.2021398921
 30
0.0
 11
0.5
 21
-0.0
 31
0.0
 40
0.9858
 41
-3.1415926536
 42
-1.5707963268
  0
ELLIPSE
  5
32A
100
AcDbEntity
  8
DTM_AXIS
100
AcDbEllipse
 62
7
  6
CONTINUOUS
 10
61.3051491151
 20
90.1311398921
 30
0.0
 11
0.5
 21
0.0
 31
0.0
 40
0.9858
 41
1.5707963268
 42
3.1415926536
  0
ELLIPSE
  5
32B
100
AcDbEntity
  8
DTM_AXIS
100
AcDbEllipse
 62
7
  6
CONTINUOUS
 10
66.8051491151
 20
91.1169398921
 30
0.0
 11
-0.5
 21
0.0
 31
0.0
 40
0.9858
 41
1.5707963268
 42
3.1415926536
  0
ELLIPSE
  5
32C
100
AcDbEntity
  8
DTM_AXIS
100
AcDbEllipse
 62
7
  6
CONTINUOUS
 10
65.3051491151
 20
121.3529764325
 30
0.0
 11
-2.0
 21
0.0
 31
0.0
 40
0.9858
 41
3.1415926536
 42
3.926990817
  0
ELLIPSE
  5
32D
100
AcDbEntity
  8
DTM_AXIS
100
AcDbEllipse
 62
7
  6
CONTINUOUS
 10
62.8051491151
 20
129.3940033516
 30
0.0
 11
2.0
 21
-0.0
 31
0.0
 40
0.9858
 41
-3.1415926536
 42
-2.3561944902
  0
ELLIPSE
  5
32E
100
AcDbEntity
  8
DTM_AXIS
100
AcDbEllipse
 62
7
  6
CONTINUOUS
 10
62.8051491151
 20
141.1209244353
 30
0.0
 11
2.0
 21
-0.0
 31
0.0
 40
0.9858
 41
1.6422857767
 42
3.1415926536
  0
ELLIPSE
  5
32F
100
AcDbEntity
  8
DTM_AXIS
100
AcDbEllipse
 62
7
  6
CONTINUOUS
 10
62.3051491151
 20
148.0038983529
 30
0.0
 11
-5.0
 21
0.0
 31
0.0
 40
0.9858
 41
1.6422857767
 42
4.7123889804
  0
ELLIPSE
  5
330
100
AcDbEntity
  8
DTM_AXIS
100
AcDbEllipse
 62
7
  6
CONTINUOUS
 10
62.3051491151
 20
154.9044983529
 30
0.0
 11
2.0
 21
0.0
 31
0.0
 40
0.9858
 41
3.1415926536
 42
4.7123889804
  0
ELLIPSE
  5
331
100
AcDbEntity
  8
DTM_AXIS
100
AcDbEllipse
 62
7
  6
CONTINUOUS
 10
59.3051491151
 20
158.2259709301
 30
0.0
 11
-1.8
 21
0.0
 31
0.0
 40
0.9858
 41
2.159827297
 42
4.1233580102
  0
ELLIPSE
  5
332
100
AcDbEntity
  8
DTM_AXIS
100
AcDbEllipse
 62
7
  6
CONTINUOUS
 10
64.8051491151
 20
163.1549709301
 30
0.0
 11
1.5
 21
0.0
 31
0.0
 40
0.9858
 41
0.0
 42
1.5707963268
  0
ELLIPSE
  5
333
100
AcDbEntity
  8
DTM_AXIS
100
AcDbEllipse
 62
7
  6
CONTINUOUS
 10
67.8051491151
 20
161.2297932262
 30
0.0
 11
-1.5
 21
0.0
 31
0.0
 40
0.9858
 41
0.0
 42
1.1817455003
  0
ELLIPSE
  5
334
100
AcDbEntity
  8
DTM_AXIS
100
AcDbEllipse
 62
7
  6
CONTINUOUS
 10
62.3051491151
 20
148.0038983529
 30
0.0
 11
13.0
 21
0.0
 31
0.0
 40
0.9858
 41
-0.9625098207
 42
1.1817455003
  0
ELLIPSE
  5
335
100
AcDbEntity
  8
DTM_AXIS
100
AcDbEllipse
 62
7
  6
CONTINUOUS
 10
72.0200057995
 20
134.2513149301
 30
0.0
 11
-4.0
 21
0.0
 31
0.0
 40
0.9858
 41
-0.9625098207
 42
0.7853981634
  0
ELLIPSE
  5
336
100
AcDbEntity
  8
DTM_AXIS
100
AcDbEllipse
 62
7
  6
CONTINUOUS
 10
72.3051491151
 20
124.211298541
 30
0.0
 11
3.0
 21
-0.0
 31
0.0
 40
0.9858
 41
-0.0
 42
0.7853981634
  0
ENDSEC
  0
SECTION
  2
OBJECTS
  0
DICTIONARY
  5
C
100
AcDbDictionary
280
0
281
1
  3
ACAD_GROUP
350
D
  3
ACAD_MLINESTYLE
350
17
  3
ACAD_LAYOUT
350
1A
  3
ACAD_PLOTSETTINGS
350
19
  3
ACAD_PLOTSTYLENAME
350
E
  3
ACAD_TABLESTYLE
350
       337
  0
DICTIONARY
  5
D
102
{ACAD_REACTORS
330
C
102
}
100
AcDbDictionary
280
0
281
1
  0
ACDBDICTIONARYWDFLT
  5
E
102
{ACAD_REACTORS
330
C
102
}
100
AcDbDictionary
281
1
  3
Normal
350
F
100
AcDbDictionaryWithDefault
340
F
  0
DICTIONARY
  5
17
102
{ACAD_REACTORS
330
C
102
}
100
AcDbDictionary
280
0
281
1
  3
Standard
350
18
  0
DICTIONARY
  5
337
330
C
100
AcDbDictionary
281
1
  3
Standard
350
       33A
  3
Standard1
350
       33B
  0
DICTIONARY
  5
19
102
{ACAD_REACTORS
330
C
102
}
100
AcDbDictionary
281
1
  0
DICTIONARY
  5
1A
102
{ACAD_REACTORS
330
C
102
}
100
AcDbDictionary
281
1
  3
Model
350
338
  3
Layout1
350
339
  0
ACDBPLACEHOLDER
  5
F
102
{ACAD_REACTORS
330
E
102
}
  0
MLINESTYLE
  5
18
102
{ACAD_REACTORS
330
17
102
}
100
AcDbMlineStyle
  2
STANDARD
 70
0
  3

 62
256
 51
90.0
 52
90.0
 71
2
 49
0.5
 62
256
  6
BYLAYER
 49
-0.5
 62
256
  6
BYLAYER
  0
LAYOUT
  5
338
102
{ACAD_REACTORS
330
1A
102
}
100
AcDbPlotSettings
  1

  2
none_device
  4
ISO_A4_(297.00_x_210.00_MM)
  6

 40
0.0
 41
0.0
 42
0.0
 43
0.0
 44
297.0
 45
210.0
 46
0.0
 47
0.0
 48
0.0
 49
0.0
140
0.0
141
0.0
142
1.0
143
1.0
 70
1024
 72
1
 73
0
 74
0
  7

 75
0
147
1.0
148
0.0
149
0.0
100
AcDbLayout
  1
Model
 70
0
 71
0
 10
0.0
 20
0.0
 11
297.0
 21
210.0
 12
0.0
 22
0.0
 32
0.0
 14
0.0
 24
0.0
 34
0.0
 15
0.0
 25
0.0
 35
0.0
146
0.0
 13
0.0
 23
0.0
 33
0.0
 16
1.0
 26
0.0
 36
0.0
 17
0.0
 27
1.0
 37
0.0
 76
0
330
217
345
0
346
0
  0
LAYOUT
  5
339
102
{ACAD_REACTORS
330
1A
102
}
100
AcDbPlotSettings
  1

  2
none_device
  4
ISO_A4_(297.00_x_210.00_MM)
  6

 40
0.0
 41
0.0
 42
0.0
 43
0.0
 44
297.0
 45
210.0
 46
0.0
 47
0.0
 48
0.0
 49
0.0
140
0.0
141
0.0
142
1.0
143
1.0
 70
0
 72
1
 73
0
 74
0
  7

 75
0
147
1.0
148
0.0
149
0.0
100
AcDbLayout
  1
Layout1
 70
0
 71
1
 10
0.0
 20
0.0
 11
297.0
 21
210.0
 12
0.0
 22
0.0
 32
0.0
 14
0.0
 24
0.0
 34
0.0
 15
0.0
 25
0.0
 35
0.0
146
0.0
 13
0.0
 23
0.0
 33
0.0
 16
1.0
 26
0.0
 36
0.0
 17
0.0
 27
1.0
 37
0.0
 76
0
330
218
345
0
346
0
  0
TABLESTYLE
  5
33A
102
{ACAD_REACTORS
330
337
330
2B8
102
}
330
337
100
AcDbTableStyle
  3
Standard
 70
0
 71
0
 40
0.06
 41
0.06
280
1
281
1
  7
Standard
140
0.18
170
1
 62
0
 63
7
283
0
  7
Standard
140
0.18
170
1
 62
0
 63
7
283
0
  7
Standard
140
0.18
170
1
 62
0
 63
7
283
0
  0
TABLESTYLE
  5
33B
102
{ACAD_REACTORS
330
337
102
}
330
337
100
AcDbTableStyle
  3
Standard1
 70
1
 71
0
 40
0.06
 41
0.06
280
1
281
1
  7
Standard
140
0.18
170
1
 62
0
 63
7
283
0
  7
Standard
140
0.18
170
1
 62
0
 63
7
283
0
  7
Standard
140
0.18
170
1
 62
0
 63
7
283
0
  0
ENDSEC
  0
EOF
