999
DXF file: O:\ORAC_PRODUCTEN\ORAC_EXTRUSIE\SX\198\px198-prod-mm-inches.dxf
999
Pro/ENGINEER 2021404 by Parametric Technology Corporation
  0
SECTION
  2
HEADER
  9
$ACADVER
  1
AC1032
  9
$DWGCODEPAGE
  3
ANSI_1252
  9
$EXTMAX
 10
297.0
 20
210.0
 30
0.0
  9
$EXTMIN
 10
0.0
 20
0.0
 30
0.0
  9
$LIMMIN
 10
0.0
 20
0.0
  9
$LIMMAX
 10
297.0
 20
210.0
  9
$VIEWCTR
 10
148.5
 20
105.0
  9
$VIEWSIZE
 40
210.0
  9
$CLAYER
  8
0
  9
$LTSCALE
 40
16.335
  9
$CELTYPE
  6
BYLAYER
  9
$DIMSCALE
 40
1.0
  9
$DIMASZ
 40
3.5
  9
$DIMEXO
 40
1.0
  9
$DIMDLI
 40
11.286
  9
$DIMEXE
 40
1.5
  9
$DIMCEN
 40
2.673
  9
$DIMLFAC
 40
1.0
  9
$DIMBLK
  1
_FILLED
  9
$DIMALT
 70
0
  9
$DIMALTF
 40
0.0393700787
  9
$DIMTXT
 40
2.5
  9
$DIMTOL
 70
1
  9
$DIMLIM
 70
0
  9
$DIMTFAC
 40
1.0
  9
$DIMTP
 40
0.001
  9
$DIMTM
 40
0.001
  9
$DIMGAP
 40
0.625
  9
$DIMDSEP
 70
44
  9
$AUNITS
 70
0
  9
$PDMODE
 70
3
  9
$PDSIZE
 40
8.0
  9
$HANDSEED
  5
2E5
  9
$TILEMODE
 70
0
  9
$MEASUREMENT
 70
1
  9
$INSUNITS
 70
4
  0
ENDSEC
  0
SECTION
  2
CLASSES
  0
CLASS
  1
ACDBDICTIONARYWDFLT
  2
AcDbDictionaryWithDefault
  3
AutoCAD 2000
 90
0
 91
1
280
0
281
0
  0
CLASS
  1
ACDBPLACEHOLDER
  2
AcDbPlaceHolder
  3
AutoCAD 2000
 90
0
 91
1
280
0
281
0
  0
CLASS
  1
LAYOUT
  2
AcDbLayout
  3
AutoCAD 2000
 90
0
 91
0
280
0
281
0
  0
CLASS
  1
TABLESTYLE
  2
AcDbTableStyle
  3
ObjectDBX Classes
 90
2047
 91
1
280
0
281
0
  0
CLASS
  1
ACAD_TABLE
  2
AcDbTable
  3
ObjectDBX Classes
 90
1025
 91
1
280
0
281
1
  0
ENDSEC
  0
SECTION
  2
TABLES
  0
TABLE
  2
VPORT
  5
8
100
AcDbSymbolTable
 70
2
  0
VPORT
  5
1F4
100
AcDbSymbolTableRecord
100
AcDbViewportTableRecord
  2
*ACTIVE
 70
0
 10
0.0
 20
0.0
 11
1.0
 21
1.0
 12
148.5
 22
105.0
 13
0.0
 23
0.0
 14
1.0
 24
1.0
 15
0.0
 25
0.0
 16
0.0
 26
0.0
 36
1.0
 17
0.0
 27
0.0
 37
0.0
 40
210.0
 41
1.4142857143
 42
50.0
 43
0.0
 44
0.0
 50
0.0
 51
0.0
 71
0
 72
100
 73
1
 74
1
 75
0
 76
0
 77
0
 78
0
  0
ENDTAB
  0
TABLE
  2
LTYPE
  5
5
100
AcDbSymbolTable
 70
6
  0
LTYPE
  5
14
100
AcDbSymbolTableRecord
100
AcDbLinetypeTableRecord
  2
BYBLOCK
 70
0
  3

 72
65
 73
0
 40
0.0
  0
LTYPE
  5
15
100
AcDbSymbolTableRecord
100
AcDbLinetypeTableRecord
  2
BYLAYER
 70
0
  3

 72
65
 73
0
 40
0.0
  0
LTYPE
  5
16
100
AcDbSymbolTableRecord
100
AcDbLinetypeTableRecord
  2
CONTINUOUS
 70
64
  3
Solid line
 72
65
 73
0
 40
0.0
  0
LTYPE
  5
1F5
100
AcDbSymbolTableRecord
100
AcDbLinetypeTableRecord
  2
CENTER
 70
64
  3
____ _ ____ _ ____ _ ____ _ ____ _ ____ _ ____
 72
65
 73
4
 40
0.6
 49
0.375
 74
0
 49
-0.075
 74
0
 49
0.075
 74
0
 49
-0.075
 74
0
  0
LTYPE
  5
1F6
100
AcDbSymbolTableRecord
100
AcDbLinetypeTableRecord
  2
HIDDEN
 70
64
  3
- - - - - - - - - - - - - - - - - - - -
 72
65
 73
2
 40
0.2
 49
0.1
 74
0
 49
-0.1
 74
0
  0
LTYPE
  5
1F7
100
AcDbSymbolTableRecord
100
AcDbLinetypeTableRecord
  2
PHANTOM
 70
64
  3
_____ _ _ _____ _ _ _____ _ _ _____
 72
65
 73
6
 40
0.8
 49
0.45
 74
0
 49
-0.05
 74
0
 49
0.1
 74
0
 49
-0.05
 74
0
 49
0.1
 74
0
 49
-0.05
 74
0
  0
LTYPE
  5
1F8
100
AcDbSymbolTableRecord
100
AcDbLinetypeTableRecord
  2
DOT
 70
64
  3
. . . . . . . . . . . . . . . . . . . .
 72
65
 73
2
 40
0.2
 49
0.1
 74
0
 49
-0.1
 74
0
  0
LTYPE
  5
1F9
100
AcDbSymbolTableRecord
100
AcDbLinetypeTableRecord
  2
DASHED
 70
64
  3
- - - - - - - - - - - - - - - - - - - -
 72
65
 73
2
 40
0.2
 49
0.1
 74
0
 49
-0.1
 74
0
  0
ENDTAB
  0
TABLE
  2
LAYER
  5
2
100
AcDbSymbolTable
 70
36
  0
LAYER
  5
10
100
AcDbSymbolTableRecord
100
AcDbLayerTableRecord
  2
0
 70
0
 62
7
  6
CONTINUOUS
370
-3
390
F
  0
LAYER
  5
1FA
100
AcDbSymbolTableRecord
100
AcDbLayerTableRecord
  2
DEFAULT_1
 70
0
 62
7
  6
CENTER
370
-3
390
F
  0
LAYER
  5
1FB
100
AcDbSymbolTableRecord
100
AcDbLayerTableRecord
  2
DEFAULT_2
 70
0
 62
8
  6
HIDDEN
370
-3
390
F
  0
LAYER
  5
1FC
100
AcDbSymbolTableRecord
100
AcDbLayerTableRecord
  2
DEFAULT_3
 70
0
 62
7
  6
PHANTOM
370
-3
390
F
  0
LAYER
  5
1FD
100
AcDbSymbolTableRecord
100
AcDbLayerTableRecord
  2
DTM_ALL
 70
0
 62
7
  6
CONTINUOUS
370
-3
390
F
  0
LAYER
  5
1FE
100
AcDbSymbolTableRecord
100
AcDbLayerTableRecord
  2
DTM_AXIS
 70
0
 62
7
  6
CONTINUOUS
370
-3
390
F
  0
LAYER
  5
1FF
100
AcDbSymbolTableRecord
100
AcDbLayerTableRecord
  2
DTM_CSYS
 70
0
 62
7
  6
CONTINUOUS
370
-3
390
F
  0
LAYER
  5
200
100
AcDbSymbolTableRecord
100
AcDbLayerTableRecord
  2
DTM_CURVE
 70
0
 62
7
  6
CONTINUOUS
370
-3
390
F
  0
LAYER
  5
201
100
AcDbSymbolTableRecord
100
AcDbLayerTableRecord
  2
DTM_MASTER
 70
0
 62
7
  6
CONTINUOUS
370
-3
390
F
  0
LAYER
  5
202
100
AcDbSymbolTableRecord
100
AcDbLayerTableRecord
  2
DTM_POINT
 70
0
 62
7
  6
CONTINUOUS
370
-3
390
F
  0
LAYER
  5
203
100
AcDbSymbolTableRecord
100
AcDbLayerTableRecord
  2
DTM_QUILT
 70
0
 62
7
  6
CONTINUOUS
370
-3
390
F
  0
LAYER
  5
204
100
AcDbSymbolTableRecord
100
AcDbLayerTableRecord
  2
GTOL
 70
0
 62
7
  6
CONTINUOUS
370
-3
390
F
  0
LAYER
  5
205
100
AcDbSymbolTableRecord
100
AcDbLayerTableRecord
  2
NOTES
 70
0
 62
7
  6
CONTINUOUS
370
-3
390
F
  0
ENDTAB
  0
TABLE
  2
STYLE
  5
3
100
AcDbSymbolTable
 70
1
  0
STYLE
  5
11
100
AcDbSymbolTableRecord
100
AcDbTextStyleTableRecord
  2
STANDARD
 70
0
 40
0.0
 41
1.0
 50
0.0
 71
0
 42
0.2
  3
cgtime.ttf
  4

1001
ACAD
1000
CG Times
1071
34
  0
STYLE
  5
206
100
AcDbSymbolTableRecord
100
AcDbTextStyleTableRecord
  2
TEXTSTYLE_1
 70
0
 40
0.0
 41
0.8
 50
0.0
 71
0
 42
0.2
  3
gdt
  4

  0
STYLE
  5
207
100
AcDbSymbolTableRecord
100
AcDbTextStyleTableRecord
  2
TEXTSTYLE_2
 70
0
 40
0.0
 41
1.0
 50
0.0
 71
0
 42
0.2
  3
trium.ttf
  4

1001
ACAD
1000
CG Triumvirate
1071
34
  0
ENDTAB
  0
TABLE
  2
VIEW
  5
6
100
AcDbSymbolTable
 70
0
  0
ENDTAB
  0
TABLE
  2
UCS
  5
7
100
AcDbSymbolTable
 70
0
  0
ENDTAB
  0
TABLE
  2
APPID
  5
9
100
AcDbSymbolTable
 70
1
  0
APPID
  5
208
100
AcDbSymbolTableRecord
100
AcDbRegAppTableRecord
  2
ACAD
 70
0
  0
ENDTAB
  0
TABLE
  2
BLOCK_RECORD
  5
1
100
AcDbSymbolTable
 70
0
  0
BLOCK_RECORD
  5
209
100
AcDbSymbolTableRecord
100
AcDbBlockTableRecord
  2
*Model_Space
  0
BLOCK_RECORD
  5
20A
100
AcDbSymbolTableRecord
100
AcDbBlockTableRecord
  2
*Paper_Space
  0
BLOCK_RECORD
  5
20B
100
AcDbSymbolTableRecord
100
AcDbBlockTableRecord
  2
_FILLED
  0
BLOCK_RECORD
  5
20C
100
AcDbSymbolTableRecord
100
AcDbBlockTableRecord
  2
*D0
  0
BLOCK_RECORD
  5
20D
100
AcDbSymbolTableRecord
100
AcDbBlockTableRecord
  2
*D1
  0
BLOCK_RECORD
  5
20E
100
AcDbSymbolTableRecord
100
AcDbBlockTableRecord
  2
*D2
  0
BLOCK_RECORD
  5
20F
100
AcDbSymbolTableRecord
100
AcDbBlockTableRecord
  2
*D3
  0
BLOCK_RECORD
  5
210
100
AcDbSymbolTableRecord
100
AcDbBlockTableRecord
  2
*D4
  0
BLOCK_RECORD
  5
211
100
AcDbSymbolTableRecord
100
AcDbBlockTableRecord
  2
*D5
  0
BLOCK_RECORD
  5
212
100
AcDbSymbolTableRecord
100
AcDbBlockTableRecord
  2
*T1
  0
ENDTAB
  0
TABLE
  2
DIMSTYLE
  5
A
100
AcDbSymbolTable
 70
1
100
AcDbDimStyleTable
 71
0
  0
DIMSTYLE
105
213
100
AcDbSymbolTableRecord
100
AcDbDimStyleTableRecord
  2
STANDARD
 70
0
  3

  4

 40
1.0
 41
3.5
 42
1.0
 43
0.38
 44
1.5
 45
0.0
 46
0.0
 47
0.001
 48
0.001
140
2.5
141
0.09
142
0.0
143
25.4
144
1.0
145
0.0
146
1.0
147
0.625
 71
1
 72
0
 73
1
 74
1
 75
0
 76
0
 77
0
 78
8
 79
2
170
0
171
2
172
0
173
0
174
0
175
0
176
0
177
0
178
0
270
2
179
3
271
3
272
3
273
2
274
2
275
0
280
0
281
0
282
0
283
1
284
8
285
0
286
0
287
3
288
0
340
11
278
44
341
20B
342
20B
343
20B
344
20B
  0
DIMSTYLE
105
214
100
AcDbSymbolTableRecord
100
AcDbDimStyleTableRecord
  2
DIMSTYLE_1
 70
0
  3

  4

 40
1.0
 41
3.5
 42
1.0
 43
0.38
 44
1.5
 45
0.0
 46
0.0
 47
0.0
 48
0.0
140
2.5
141
0.09
142
0.0
143
25.4
144
1.0
145
0.0
146
1.0
147
1.25
 71
0
 72
0
 73
1
 74
1
 75
0
 76
0
 77
0
 78
8
 79
2
170
0
171
2
172
0
173
0
174
0
175
0
176
0
177
0
178
0
270
2
179
3
271
3
272
3
273
2
274
2
275
0
280
0
281
0
282
0
283
1
284
8
285
0
286
0
287
3
288
0
340
11
278
44
341
20B
342
20B
343
20B
344
20B
  0
DIMSTYLE
105
215
100
AcDbSymbolTableRecord
100
AcDbDimStyleTableRecord
  2
DIMSTYLE_2
 70
0
  3

  4

 40
1.0
 41
3.5
 42
1.0
 43
0.38
 44
1.5
 45
0.0
 46
0.0
 47
0.0
 48
0.0
140
2.5
141
0.09
142
0.0
143
25.4
144
1.0
145
0.0
146
1.0
147
1.25
 71
0
 72
0
 73
1
 74
1
 75
0
 76
0
 77
0
 78
8
 79
2
170
0
171
2
172
0
173
0
174
0
175
0
176
0
177
0
178
0
270
2
179
3
271
1
272
1
273
2
274
2
275
0
280
0
281
0
282
0
283
1
284
8
285
0
286
0
287
3
288
0
340
11
278
44
341
20B
342
20B
343
20B
344
20B
  0
ENDTAB
  0
ENDSEC
  0
SECTION
  2
BLOCKS
  0
BLOCK
  5
20
100
AcDbEntity
  8
0
100
AcDbBlockBegin
  2
*Model_Space
 70
0
 10
0.0
 20
0.0
 30
0.0
  3
*Model_Space
  1

  0
ENDBLK
  5
21
100
AcDbEntity
  8
0
100
AcDbBlockEnd
  0
BLOCK
  5
1C
100
AcDbEntity
  8
0
100
AcDbBlockBegin
  2
*Paper_Space
 70
0
 10
0.0
 20
0.0
 30
0.0
  3
*Paper_Space
  1

  0
ENDBLK
  5
1D
100
AcDbEntity
  8
0
100
AcDbBlockEnd
  0
BLOCK
  5
216
100
AcDbEntity
  8
0
100
AcDbBlockBegin
  2
_FILLED
 70
64
 10
0.0
 20
0.0
  3
_FILLED
  1

  0
SOLID
  5
217
100
AcDbEntity
  8
0
  6
BYBLOCK
 62
0
100
AcDbTrace
 10
0.0
 20
0.0
 11
-1.0
 21
0.2142857143
 12
-1.0
 22
-0.2142857143
 13
-1.0
 23
-0.2142857143
  0
ENDBLK
  5
218
100
AcDbEntity
  8
0
  6
BYBLOCK
 62
0
100
AcDbBlockEnd
  0
BLOCK
  5
219
100
AcDbEntity
  8
0
100
AcDbBlockBegin
 62
2
  6
CONTINUOUS
  2
*D0
 70
65
 10
0.0
 20
0.0
  3
*D0
  1

  0
TEXT
  5
21A
100
AcDbEntity
  8
0
100
AcDbText
 62
2
  6
CONTINUOUS
 10
77.5081663414
 20
168.2351609672
  7
STANDARD
 40
2.5
  1
20
 72
5
 11
81.1462986371
 21
168.2351609672
100
AcDbText
  0
TEXT
  5
21B
100
AcDbEntity
  8
0
100
AcDbText
 62
2
  6
CONTINUOUS
 10
81.1462986371
 20
168.2351609672
  7
STANDARD
 40
2.5
  1
mm
 72
5
 11
86.8175048628
 21
168.2351609672
100
AcDbText
  0
TEXT
  5
21C
100
AcDbEntity
  8
0
100
AcDbText
 62
2
  6
CONTINUOUS
 10
78.8943531118
 20
164.4851609672
  7
STANDARD
 40
2.5
  1
3/4"
 72
5
 11
85.4313180923
 21
164.4851609672
100
AcDbText
  0
LINE
  5
21D
100
AcDbEntity
  8
0
100
AcDbLine
 62
2
  6
CONTINUOUS
 10
72.1628356021
 20
162.4515786534
 11
72.1628356021
 21
170.9851609672
  0
LINE
  5
21E
100
AcDbEntity
  8
0
100
AcDbLine
 62
2
  6
CONTINUOUS
 10
92.1628356021
 20
162.4515786534
 11
92.1628356021
 21
170.9851609672
  0
LINE
  5
21F
100
AcDbEntity
  8
0
100
AcDbLine
 62
2
  6
CONTINUOUS
 10
72.1628356021
 20
169.4851609672
 11
76.2581663414
 21
169.4851609672
  0
LINE
  5
220
100
AcDbEntity
  8
0
100
AcDbLine
 62
2
  6
CONTINUOUS
 10
92.1628356021
 20
169.4851609672
 11
88.0675048628
 21
169.4851609672
  0
INSERT
  5
221
100
AcDbEntity
  8
0
100
AcDbBlockReference
 62
2
  6
CONTINUOUS
  2
_FILLED
 10
72.1628356021
 20
169.4851609672
 41
3.5
 42
3.5
 43
3.5
 50
180.0
  0
INSERT
  5
222
100
AcDbEntity
  8
0
100
AcDbBlockReference
 62
2
  6
CONTINUOUS
  2
_FILLED
 10
92.1628356021
 20
169.4851609672
 41
3.5
 42
3.5
 43
3.5
  0
ENDBLK
  5
223
100
AcDbEntity
  8
0
  6
BYBLOCK
 62
0
100
AcDbBlockEnd
  0
BLOCK
  5
224
100
AcDbEntity
  8
0
100
AcDbBlockBegin
 62
2
  6
CONTINUOUS
  2
*D1
 70
65
 10
0.0
 20
0.0
  3
*D1
  1

  0
TEXT
  5
225
100
AcDbEntity
  8
0
100
AcDbText
 62
2
  6
CONTINUOUS
 10
101.3716061295
 20
145.2015786534
  7
STANDARD
 40
2.5
  1
30
 72
5
 11
105.0097384252
 21
145.2015786534
100
AcDbText
  0
TEXT
  5
226
100
AcDbEntity
  8
0
100
AcDbText
 62
2
  6
CONTINUOUS
 10
105.0097384252
 20
145.2015786534
  7
STANDARD
 40
2.5
  1
mm
 72
5
 11
110.6809446509
 21
145.2015786534
100
AcDbText
  0
TEXT
  5
227
100
AcDbEntity
  8
0
100
AcDbText
 62
2
  6
CONTINUOUS
 10
101.2402831723
 20
141.4515786534
  7
STANDARD
 40
2.5
  1
1-1/8"
 72
5
 11
110.8122676081
 21
141.4515786534
100
AcDbText
  0
LINE
  5
228
100
AcDbEntity
  8
0
100
AcDbLine
 62
2
  6
CONTINUOUS
 10
93.1628356021
 20
161.4515786534
 11
107.5262753902
 21
161.4515786534
  0
LINE
  5
229
100
AcDbEntity
  8
0
100
AcDbLine
 62
2
  6
CONTINUOUS
 10
92.6628356021
 20
131.4515786534
 11
107.5262753902
 21
131.4515786534
  0
LINE
  5
22A
100
AcDbEntity
  8
0
100
AcDbLine
 62
2
  6
CONTINUOUS
 10
106.0262753902
 20
161.4515786534
 11
106.0262753902
 21
148.9515786534
  0
LINE
  5
22B
100
AcDbEntity
  8
0
100
AcDbLine
 62
2
  6
CONTINUOUS
 10
106.0262753902
 20
131.4515786534
 11
106.0262753902
 21
140.2015786534
  0
INSERT
  5
22C
100
AcDbEntity
  8
0
100
AcDbBlockReference
 62
2
  6
CONTINUOUS
  2
_FILLED
 10
106.0262753902
 20
161.4515786534
 41
3.5
 42
3.5
 43
3.5
 50
90.0
  0
INSERT
  5
22D
100
AcDbEntity
  8
0
100
AcDbBlockReference
 62
2
  6
CONTINUOUS
  2
_FILLED
 10
106.0262753902
 20
131.4515786534
 41
3.5
 42
3.5
 43
3.5
 50
270.0
  0
ENDBLK
  5
22E
100
AcDbEntity
  8
0
  6
BYBLOCK
 62
0
100
AcDbBlockEnd
  0
BLOCK
  5
22F
100
AcDbEntity
  8
0
100
AcDbBlockBegin
 62
2
  6
CONTINUOUS
  2
*D2
 70
65
 10
0.0
 20
0.0
  3
*D2
  1

  0
TEXT
  5
230
100
AcDbEntity
  8
0
100
AcDbText
 62
2
  6
CONTINUOUS
 10
84.4176994153
 20
145.4054623443
  7
STANDARD
 40
2.5
  1
8
 72
5
 11
86.2367655632
 21
145.4054623443
100
AcDbText
  0
TEXT
  5
231
100
AcDbEntity
  8
0
100
AcDbText
 62
2
  6
CONTINUOUS
 10
86.2367655632
 20
145.4054623443
  7
STANDARD
 40
2.5
  1
mm
 72
5
 11
91.9079717888
 21
145.4054623443
100
AcDbText
  0
TEXT
  5
232
100
AcDbEntity
  8
0
100
AcDbText
 62
2
  6
CONTINUOUS
 10
84.8943531118
 20
141.6554623443
  7
STANDARD
 40
2.5
  1
1/4"
 72
5
 11
91.4313180923
 21
141.6554623443
100
AcDbText
  0
LINE
  5
233
100
AcDbEntity
  8
0
100
AcDbLine
 62
2
  6
CONTINUOUS
 10
84.1628356021
 20
146.6554623443
 11
79.1628356021
 21
146.6554623443
  0
LINE
  5
234
100
AcDbEntity
  8
0
100
AcDbLine
 62
2
  6
CONTINUOUS
 10
92.1628356021
 20
146.6554623443
 11
97.1628356021
 21
146.6554623443
  0
INSERT
  5
235
100
AcDbEntity
  8
0
100
AcDbBlockReference
 62
2
  6
CONTINUOUS
  2
_FILLED
 10
84.1628356021
 20
146.6554623443
 41
3.5
 42
3.5
 43
3.5
  0
INSERT
  5
236
100
AcDbEntity
  8
0
100
AcDbBlockReference
 62
2
  6
CONTINUOUS
  2
_FILLED
 10
92.1628356021
 20
146.6554623443
 41
3.5
 42
3.5
 43
3.5
 50
180.0
  0
ENDBLK
  5
237
100
AcDbEntity
  8
0
  6
BYBLOCK
 62
0
100
AcDbBlockEnd
  0
BLOCK
  5
238
100
AcDbEntity
  8
0
100
AcDbBlockBegin
 62
2
  6
CONTINUOUS
  2
*D3
 70
65
 10
0.0
 20
0.0
  3
*D3
  1

  0
TEXT
  5
239
100
AcDbEntity
  8
0
100
AcDbText
 62
2
  6
CONTINUOUS
 10
112.8996153623
 20
118.7015786534
  7
STANDARD
 40
2.5
  1
83
 72
5
 11
116.537747658
 21
118.7015786534
100
AcDbText
  0
TEXT
  5
23A
100
AcDbEntity
  8
0
100
AcDbText
 62
2
  6
CONTINUOUS
 10
116.537747658
 20
118.7015786534
  7
STANDARD
 40
2.5
  1
mm
 72
5
 11
122.2089538837
 21
118.7015786534
100
AcDbText
  0
TEXT
  5
23B
100
AcDbEntity
  8
0
100
AcDbText
 62
2
  6
CONTINUOUS
 10
112.7682924051
 20
114.9515786534
  7
STANDARD
 40
2.5
  1
3-1/4"
 72
5
 11
122.3402768408
 21
114.9515786534
100
AcDbText
  0
LINE
  5
23C
100
AcDbEntity
  8
0
100
AcDbLine
 62
2
  6
CONTINUOUS
 10
83.1628356021
 20
78.4515786534
 11
119.054284623
 21
78.4515786534
  0
LINE
  5
23D
100
AcDbEntity
  8
0
100
AcDbLine
 62
2
  6
CONTINUOUS
 10
93.1628356021
 20
161.4515786534
 11
119.054284623
 21
161.4515786534
  0
LINE
  5
23E
100
AcDbEntity
  8
0
100
AcDbLine
 62
2
  6
CONTINUOUS
 10
117.554284623
 20
78.4515786534
 11
117.554284623
 21
113.7015786534
  0
LINE
  5
23F
100
AcDbEntity
  8
0
100
AcDbLine
 62
2
  6
CONTINUOUS
 10
117.554284623
 20
161.4515786534
 11
117.554284623
 21
122.4515786534
  0
INSERT
  5
240
100
AcDbEntity
  8
0
100
AcDbBlockReference
 62
2
  6
CONTINUOUS
  2
_FILLED
 10
117.554284623
 20
78.4515786534
 41
3.5
 42
3.5
 43
3.5
 50
270.0
  0
INSERT
  5
241
100
AcDbEntity
  8
0
100
AcDbBlockReference
 62
2
  6
CONTINUOUS
  2
_FILLED
 10
117.554284623
 20
161.4515786534
 41
3.5
 42
3.5
 43
3.5
 50
90.0
  0
ENDBLK
  5
242
100
AcDbEntity
  8
0
  6
BYBLOCK
 62
0
100
AcDbBlockEnd
  0
BLOCK
  5
243
100
AcDbEntity
  8
0
100
AcDbBlockBegin
 62
2
  6
CONTINUOUS
  2
*D4
 70
65
 10
0.0
 20
0.0
  3
*D4
  1

  0
TEXT
  5
244
100
AcDbEntity
  8
0
100
AcDbText
 62
2
  6
CONTINUOUS
 10
82.5081663414
 20
122.9697902131
  7
STANDARD
 40
2.5
  1
10
 72
5
 11
86.1462986371
 21
122.9697902131
100
AcDbText
  0
TEXT
  5
245
100
AcDbEntity
  8
0
100
AcDbText
 62
2
  6
CONTINUOUS
 10
86.1462986371
 20
122.9697902131
  7
STANDARD
 40
2.5
  1
mm
 72
5
 11
91.8175048628
 21
122.9697902131
100
AcDbText
  0
TEXT
  5
246
100
AcDbEntity
  8
0
100
AcDbText
 62
2
  6
CONTINUOUS
 10
83.8943531118
 20
119.2197902131
  7
STANDARD
 40
2.5
  1
3/8"
 72
5
 11
90.4313180923
 21
119.2197902131
100
AcDbText
  0
LINE
  5
247
100
AcDbEntity
  8
0
100
AcDbLine
 62
2
  6
CONTINUOUS
 10
92.1628356021
 20
130.9515786534
 11
92.1628356021
 21
122.7197902131
  0
LINE
  5
248
100
AcDbEntity
  8
0
100
AcDbLine
 62
2
  6
CONTINUOUS
 10
82.1628356021
 20
124.2197902131
 11
77.1628356021
 21
124.2197902131
  0
LINE
  5
249
100
AcDbEntity
  8
0
100
AcDbLine
 62
2
  6
CONTINUOUS
 10
92.1628356021
 20
124.2197902131
 11
97.1628356021
 21
124.2197902131
  0
INSERT
  5
24A
100
AcDbEntity
  8
0
100
AcDbBlockReference
 62
2
  6
CONTINUOUS
  2
_FILLED
 10
82.1628356021
 20
124.2197902131
 41
3.5
 42
3.5
 43
3.5
  0
INSERT
  5
24B
100
AcDbEntity
  8
0
100
AcDbBlockReference
 62
2
  6
CONTINUOUS
  2
_FILLED
 10
92.1628356021
 20
124.2197902131
 41
3.5
 42
3.5
 43
3.5
 50
180.0
  0
ENDBLK
  5
24C
100
AcDbEntity
  8
0
  6
BYBLOCK
 62
0
100
AcDbBlockEnd
  0
BLOCK
  5
24D
100
AcDbEntity
  8
0
100
AcDbBlockBegin
 62
2
  6
CONTINUOUS
  2
*D5
 70
65
 10
0.0
 20
0.0
  3
*D5
  1

  0
TEXT
  5
24E
100
AcDbEntity
  8
0
100
AcDbText
 62
2
  6
CONTINUOUS
 10
140.7740330137
 20
107.3754006105
  7
STANDARD
 40
2.5
  1
84,2
 72
5
 11
147.4471847647
 21
107.3754006105
100
AcDbText
  0
TEXT
  5
24F
100
AcDbEntity
  8
0
100
AcDbText
 62
2
  6
CONTINUOUS
 10
147.4471847647
 20
107.3754006105
  7
STANDARD
 40
2.5
  1
mm
 72
5
 11
153.1183909903
 21
107.3754006105
100
AcDbText
  0
TEXT
  5
250
100
AcDbEntity
  8
0
100
AcDbText
 62
2
  6
CONTINUOUS
 10
141.2506867102
 20
103.6254006105
  7
STANDARD
 40
2.5
  1
3-5/16"
 72
5
 11
152.6417372939
 21
103.6254006105
100
AcDbText
  0
LINE
  5
251
100
AcDbEntity
  8
0
100
AcDbLine
 62
2
  6
CONTINUOUS
 10
93.1465333687
 20
161.2717490011
 11
155.9949819567
 21
149.7824328273
  0
LINE
  5
252
100
AcDbEntity
  8
0
100
AcDbLine
 62
2
  6
CONTINUOUS
 10
78.0000867593
 20
78.4181956105
 11
140.8485353473
 21
66.9288794367
  0
LINE
  5
253
100
AcDbEntity
  8
0
100
AcDbLine
 62
2
  6
CONTINUOUS
 10
154.5194353067
 20
150.0521773058
 11
147.4032366554
 21
111.1254006105
  0
LINE
  5
254
100
AcDbEntity
  8
0
100
AcDbLine
 62
2
  6
CONTINUOUS
 10
139.3729886973
 20
67.1986239153
 11
145.8036503685
 21
102.3754006105
  0
INSERT
  5
255
100
AcDbEntity
  8
0
100
AcDbBlockReference
 62
2
  6
CONTINUOUS
  2
_FILLED
 10
154.5194353067
 20
150.0521773058
 41
3.5
 42
3.5
 43
3.5
 50
79.6401623028
  0
INSERT
  5
256
100
AcDbEntity
  8
0
100
AcDbBlockReference
 62
2
  6
CONTINUOUS
  2
_FILLED
 10
139.3729886973
 20
67.1986239153
 41
3.5
 42
3.5
 43
3.5
 50
259.6401623028
  0
ENDBLK
  5
257
100
AcDbEntity
  8
0
  6
BYBLOCK
 62
0
100
AcDbBlockEnd
  0
BLOCK
  5
258
100
AcDbEntity
  8
0
100
AcDbBlockBegin
  2
*T1
 70
1
 10
0.0
 20
0.0
  3
*T1
  1

  0
LINE
  5
259
100
AcDbEntity
  8
0
100
AcDbLine
 62
7
  6
CONTINUOUS
 10
0.0
 20
0.0
 11
148.0
 21
0.0
  0
LINE
  5
25A
100
AcDbEntity
  8
0
100
AcDbLine
 62
7
  6
CONTINUOUS
 10
0.0
 20
0.0
 11
0.0
 21
-43.0
  0
LINE
  5
25B
100
AcDbEntity
  8
0
100
AcDbLine
 62
7
  6
CONTINUOUS
 10
45.0
 20
-20.0
 11
148.0
 21
-20.0
  0
LINE
  5
25C
100
AcDbEntity
  8
0
100
AcDbLine
 62
7
  6
CONTINUOUS
 10
45.0
 20
-28.0
 11
148.0
 21
-28.0
  0
LINE
  5
25D
100
AcDbEntity
  8
0
100
AcDbLine
 62
7
  6
CONTINUOUS
 10
0.0
 20
-43.0
 11
148.0
 21
-43.0
  0
LINE
  5
25E
100
AcDbEntity
  8
0
100
AcDbLine
 62
7
  6
CONTINUOUS
 10
45.0
 20
0.0
 11
45.0
 21
-43.0
  0
LINE
  5
25F
100
AcDbEntity
  8
0
100
AcDbLine
 62
7
  6
CONTINUOUS
 10
143.0
 20
0.0
 11
143.0
 21
-20.0
  0
LINE
  5
260
100
AcDbEntity
  8
0
100
AcDbLine
 62
7
  6
CONTINUOUS
 10
148.0
 20
0.0
 11
148.0
 21
-43.0
  0
TEXT
  5
261
100
AcDbEntity
  8
0
100
AcDbText
 62
7
  6
CONTINUOUS
 10
8.9659749243
 20
-9.175
  7
STANDARD
 40
8.0
  1
O
 72
5
 11
17.370644185
 21
-9.175
100
AcDbText
  0
TEXT
  5
262
100
AcDbEntity
  8
0
100
AcDbText
 62
7
  6
CONTINUOUS
 10
17.370644185
 20
-9.175
  7
STANDARD
 40
5.5
  1
RAC
 72
5
 11
33.9562472979
 21
-9.175
100
AcDbText
  0
TEXT
  5
263
100
AcDbEntity
  8
0
100
AcDbText
 62
7
  6
CONTINUOUS
 10
33.9562472979
 20
-4.425
  7
TEXTSTYLE_2
 40
3.0
  1
®
 72
5
 11
36.0340250757
 21
-4.425
100
AcDbText
  0
TEXT
  5
264
100
AcDbEntity
  8
0
100
AcDbText
 62
7
  6
CONTINUOUS
 10
9.5323389537
 20
-13.825
  7
TEXTSTYLE_2
 40
3.0
  1
D  E  C  O  R
 72
5
 11
34.3878945093
 21
-13.825
100
AcDbText
  0
TEXT
  5
265
100
AcDbEntity
  8
0
100
AcDbText
 62
7
  6
CONTINUOUS
 10
34.3878945093
 20
-13.825
  7
STANDARD
 40
2.5
  1
 
 72
5
 11
35.4676610463
 21
-13.825
100
AcDbText
  0
TEXT
  5
266
100
AcDbEntity
  8
0
100
AcDbText
 62
7
  6
CONTINUOUS
 10
54.424270428
 20
-4.6
  7
STANDARD
 40
2.7
  1
Part name:
 72
5
 11
71.9375
 21
-4.6
100
AcDbText
  0
TEXT
  5
267
100
AcDbEntity
  8
0
100
AcDbText
 62
7
  6
CONTINUOUS
 10
50.6211575875
 20
-11.35
  7
STANDARD
 40
2.7
  1
Designed by:
 72
5
 11
71.9375
 21
-11.35
100
AcDbText
  0
TEXT
  5
268
100
AcDbEntity
  8
0
100
AcDbText
 62
7
  6
CONTINUOUS
 10
50.6211575875
 20
-18.1
  7
STANDARD
 40
2.7
  1
Designed on:
 72
5
 11
71.9375
 21
-18.1
100
AcDbText
  0
TEXT
  5
269
100
AcDbEntity
  8
0
100
AcDbText
 62
2
  6
CONTINUOUS
 10
74.0625
 20
-4.6
  7
STANDARD
 40
2.7
  1
PX198
 72
5
 11
85.0410992218
 21
-4.6
100
AcDbText
  0
TEXT
  5
26A
100
AcDbEntity
  8
0
100
AcDbText
 62
2
  6
CONTINUOUS
 10
74.0625
 20
-11.35
  7
STANDARD
 40
2.7
  1
ORAC
 72
5
 11
85.0410992218
 21
-11.35
100
AcDbText
  0
TEXT
  5
26B
100
AcDbEntity
  8
0
100
AcDbText
 62
2
  6
CONTINUOUS
 10
74.0625
 20
-18.1
  7
STANDARD
 40
2.7
  1
08-Nov-2021
 72
5
 11
95.315807393
 21
-18.1
100
AcDbText
  0
TEXT
  5
26C
100
AcDbEntity
  8
0
100
AcDbText
 62
2
  6
CONTINUOUS
 10
95.315807393
 20
-18.1
  7
STANDARD
 40
2.7
  1
 
 72
5
 11
96.4819552529
 21
-18.1
100
AcDbText
  0
TEXT
  5
26D
100
AcDbEntity
  8
0
100
AcDbText
 62
2
  6
CONTINUOUS
 10
146.5625
 20
-15.9620622568
  7
STANDARD
 40
1.5
  1
Version: 
 50
90.0
 72
5
 11
146.5625
 21
-7.5982490272
100
AcDbText
  0
TEXT
  5
26E
100
AcDbEntity
  8
0
100
AcDbText
 62
2
  6
CONTINUOUS
 10
146.5625
 20
-7.5982490272
  7
STANDARD
 40
1.5
  1
1.0
 50
90.0
 72
5
 11
146.5625
 21
-4.6857976654
100
AcDbText
  0
TEXT
  5
26F
100
AcDbEntity
  8
0
100
AcDbText
 62
2
  6
CONTINUOUS
 10
146.5625
 20
-4.6857976654
  7
STANDARD
 40
1.5
  1
 
 50
90.0
 72
5
 11
146.5625
 21
-4.0379377432
100
AcDbText
  0
TEXT
  5
270
100
AcDbEntity
  8
0
100
AcDbText
 62
7
  6
CONTINUOUS
 10
10.5836575875
 20
-22.75
  7
STANDARD
 40
2.5
  1
Biekorfstraat 32
 72
5
 11
34.4163424125
 21
-22.75
100
AcDbText
  0
TEXT
  5
271
100
AcDbEntity
  8
0
100
AcDbText
 62
7
  6
CONTINUOUS
 10
3.560311284
 20
-26.5
  7
STANDARD
 40
2.5
  1
8400 Oostende - Belgium
 72
5
 11
41.439688716
 21
-26.5
100
AcDbText
  0
TEXT
  5
272
100
AcDbEntity
  8
0
100
AcDbText
 62
7
  6
CONTINUOUS
 10
3.9688715953
 20
-30.25
  7
STANDARD
 40
2.5
  1
Tel  +32 (0)59 80 32 52
 72
5
 11
41.0311284047
 21
-30.25
100
AcDbText
  0
TEXT
  5
273
100
AcDbEntity
  8
0
100
AcDbText
 62
7
  6
CONTINUOUS
 10
6.9017509728
 20
-34.0
  7
STANDARD
 40
2.5
  1
www.oracdecor.com
 72
5
 11
38.0982490272
 21
-34.0
100
AcDbText
  0
TEXT
  5
274
100
AcDbEntity
  8
0
100
AcDbText
 62
7
  6
CONTINUOUS
 10
6.9017509728
 20
-37.75
  7
STANDARD
 40
2.5
  1
info@oracdecor.com
 72
5
 11
38.0982490272
 21
-37.75
100
AcDbText
  0
TEXT
  5
275
100
AcDbEntity
  8
0
100
AcDbText
 62
7
  6
CONTINUOUS
 10
46.0625
 20
-23.375
  7
STANDARD
 40
2.5
  1
Unless otherwise specified: all dimensions are in millimeters 
 72
5
 11
137.5605544747
 21
-23.375
100
AcDbText
  0
TEXT
  5
276
100
AcDbEntity
  8
0
100
AcDbText
 62
7
  6
CONTINUOUS
 10
46.0625
 20
-27.125
  7
STANDARD
 40
2.5
  1
and inches, scale 1:1, length 2 meters
 72
5
 11
102.3660019455
 21
-27.125
100
AcDbText
  0
TEXT
  5
277
100
AcDbEntity
  8
0
100
AcDbText
 62
7
  6
CONTINUOUS
 10
46.0625
 20
-31.81
  7
STANDARD
 40
1.8
  1
All information in this document is Orac's exclusive property.  It may in no case 
 72
5
 11
133.5901264591
 21
-31.81
100
AcDbText
  0
TEXT
  5
278
100
AcDbEntity
  8
0
100
AcDbText
 62
7
  6
CONTINUOUS
 10
46.0625
 20
-34.87
  7
STANDARD
 40
1.8
  1
be reproduced, even partly, be communicated to a third party or used for any 
 72
5
 11
129.8990758755
 21
-34.87
100
AcDbText
  0
TEXT
  5
279
100
AcDbEntity
  8
0
100
AcDbText
 62
7
  6
CONTINUOUS
 10
46.0625
 20
-37.93
  7
STANDARD
 40
1.8
  1
possible purpose without ORAC's express written permission. Further legal 
 72
5
 11
128.2321498054
 21
-37.93
100
AcDbText
  0
TEXT
  5
27A
100
AcDbEntity
  8
0
100
AcDbText
 62
7
  6
CONTINUOUS
 10
46.0625
 20
-40.99
  7
STANDARD
 40
1.8
  1
information can be found at https://www.oracdecor.com/en/general-sales-conditions
 72
5
 11
136.4547178988
 21
-40.99
100
AcDbText
  0
ENDBLK
  5
27B
100
AcDbEntity
  8
0
  6
BYBLOCK
 62
0
100
AcDbBlockEnd
  0
ENDSEC
  0
SECTION
  2
ENTITIES
  0
VIEWPORT
  5
27C
100
AcDbEntity
 67
1
  8
0
100
AcDbViewport
 10
148.5
 20
105.0
 30
0.0
 40
297.0
 41
210.0
 68
1
 69
1
 12
148.5
 22
105.0
 13
0.0
 23
0.0
 14
10.0
 24
10.0
 15
10.0
 25
10.0
 16
0.0
 26
0.0
 36
1.0
 17
0.0
 27
0.0
 37
0.0
 42
50.0
 43
0.0
 44
0.0
 45
210.0
 50
0.0
 51
0.0
 72
100
 90
32864
  1

281
0
 71
1
 74
0
110
0.0
120
0.0
130
0.0
111
1.0
121
0.0
131
0.0
112
0.0
122
1.0
132
0.0
 79
0
146
0.0
  0
DIMENSION
  5
27D
100
AcDbEntity
 67
1
  8
0
100
AcDbDimension
 62
2
  6
CONTINUOUS
  2
*D0
 10
92.1628356021
 20
169.4851609672
 11
82.1628356021
 21
167.6101609672
 70
160
 71
2
 72
2
 41
0.9
 42
20.0
  1
<>mm\P3/4"
  3
DIMSTYLE_1
100
AcDbAlignedDimension
 13
72.1628356021
 23
161.4515786534
 14
92.1628356021
 24
161.4515786534
100
AcDbRotatedDimension
  0
DIMENSION
  5
27E
100
AcDbEntity
 67
1
  8
0
100
AcDbDimension
 62
2
  6
CONTINUOUS
  2
*D1
 10
106.0262753902
 20
131.4515786534
 11
106.0262753902
 21
144.5765786534
 70
160
 71
2
 72
2
 41
0.9
 42
30.0
  1
<>mm\P1-1/8"
  3
DIMSTYLE_1
100
AcDbAlignedDimension
 13
92.1628356021
 23
161.4515786534
 14
91.6628356021
 24
131.4515786534
 50
270.0
100
AcDbRotatedDimension
  0
DIMENSION
  5
27F
100
AcDbEntity
 67
1
  8
0
100
AcDbDimension
 62
2
  6
CONTINUOUS
  2
*D2
 10
92.1628356021
 20
146.6554623443
 11
88.1628356021
 21
144.7804623443
 70
160
 71
2
 72
2
 41
0.9
 42
8.0
  1
<>mm\P1/4"
  3
DIMSTYLE_1
100
AcDbAlignedDimension
 13
84.1628356021
 23
152.4515786534
 14
92.1628356021
 24
161.4515786534
100
AcDbRotatedDimension
  0
DIMENSION
  5
280
100
AcDbEntity
 67
1
  8
0
100
AcDbDimension
 62
2
  6
CONTINUOUS
  2
*D3
 10
117.554284623
 20
161.4515786534
 11
117.554284623
 21
118.0765786534
 70
160
 71
2
 72
2
 41
0.9
 42
83.0
  1
<>mm\P3-1/4"
  3
DIMSTYLE_1
100
AcDbAlignedDimension
 13
82.1628356021
 23
78.4515786534
 14
92.1628356021
 24
161.4515786534
 50
90.0
100
AcDbRotatedDimension
  0
DIMENSION
  5
281
100
AcDbEntity
 67
1
  8
0
100
AcDbDimension
 62
2
  6
CONTINUOUS
  2
*D4
 10
92.1628356021
 20
124.2197902131
 11
87.1628356021
 21
122.3447902131
 70
160
 71
2
 72
2
 41
0.9
 42
10.0
  1
<>mm\P3/8"
  3
DIMSTYLE_1
100
AcDbAlignedDimension
 13
82.1628356021
 23
130.9515786534
 14
92.1628356021
 24
131.9515786534
100
AcDbRotatedDimension
  0
DIMENSION
  5
282
100
AcDbEntity
 67
1
  8
0
100
AcDbDimension
 62
2
  6
CONTINUOUS
  2
*D5
 10
139.3729886973
 20
67.1986239153
 11
146.946212002
 21
106.7504006105
 70
160
 71
2
 72
2
 41
0.9
 42
84.2266356584
  1
<>mm\P3-5/16"
  3
DIMSTYLE_2
100
AcDbAlignedDimension
 13
92.1628356021
 23
161.4515786534
 14
77.0163889927
 24
78.5980252628
 50
259.6401623028
100
AcDbRotatedDimension
  0
ACAD_TABLE
  5
283
100
AcDbEntity
 67
1
  8
0
 62
2
  6
CONTINUOUS
100
AcDbBlockReference
  2
*T1
 10
144.0
 20
48.0
 30
0.0
100
AcDbTable
342
       2E3
343
212
 11
1.0
 21
0.0
 31
0.0
 90
22
 91
4
 92
4
 93
0
 94
0
 95
0
 96
0
141
15.0
141
5.0
141
8.0
141
15.0
142
45.0
142
28.0
142
70.0
142
5.0
171
1
172
0
173
0
174
0
175
1
176
1
 91
41
178
0
145
0.0
301
CELL_VALUE
 90
4
  1
\A1;O\H5.5;RAC\fCG Triumvirate;\H3.0;\S®^ ;\PD  E  C  O  R\fCG Times;\H2.5; 
304
ACVALUE_END
170
5
140
8.0
 64
7
171
1
172
0
173
0
174
0
175
1
176
2
 91
41
178
0
145
0.0
301
CELL_VALUE
 90
4
  1
Part name:\PDesigned by:\PDesigned on:
304
ACVALUE_END
170
6
140
2.7
 64
7
171
1
172
0
173
0
174
0
175
1
176
2
 91
33
178
0
145
0.0
301
CELL_VALUE
 90
4
  1
PX198\PORAC\P08-Nov-2021 
304
ACVALUE_END
170
4
140
2.7
171
1
172
0
173
0
174
0
175
1
176
2
 91
33
178
0
145
1.5707963268
301
CELL_VALUE
 90
4
  1
Version: 1.0 
304
ACVALUE_END
170
6
140
1.5
171
1
172
0
173
0
174
0
175
1
176
3
 91
41
178
0
145
0.0
301
CELL_VALUE
 90
4
  1
Biekorfstraat 32\P8400 Oostende - Belgium\PTel  +32 (0)59 80 32 52\Pwww.oracdecor.com\Pinfo@oracdecor.com
304
ACVALUE_END
170
5
140
2.5
 64
7
171
1
172
0
173
1
174
0
175
1
176
1
 91
1
178
0
145
0.0
170
1
171
1
172
0
173
1
174
0
175
1
176
1
 91
1
178
0
145
0.0
170
1
171
1
172
0
173
1
174
0
175
1
176
1
 91
1
178
0
145
0.0
170
1
171
1
172
0
173
1
174
0
175
1
176
1
 91
1
178
0
145
0.0
170
1
171
1
172
0
173
0
174
0
175
3
176
1
 91
41
178
0
145
0.0
301
CELL_VALUE
 90
4
  1
Unless otherwise specified: all dimensions are in millimeters \Pand inches, scale 1:1, length 2 meters
304
ACVALUE_END
170
4
140
2.5
 64
7
171
1
172
0
173
1
174
0
175
1
176
1
 91
1
178
0
145
0.0
170
1
171
1
172
0
173
1
174
0
175
1
176
1
 91
1
178
0
145
0.0
170
1
171
1
172
0
173
1
174
0
175
1
176
1
 91
1
178
0
145
0.0
170
1
171
1
172
0
173
0
174
0
175
3
176
1
 91
41
178
0
145
0.0
301
CELL_VALUE
 90
4
  2
All information in this document is Orac's exclusive property.  It may in no case \Pbe reproduced, even partly, be communicated to a third party or used for any \Ppossible purpose without ORAC's express written permission. Further legal \Pinformation
  1
 can be found at https://www.oracdecor.com/en/general-sales-conditions
304
ACVALUE_END
170
4
140
1.8
 64
7
171
1
172
0
173
1
174
0
175
1
176
1
 91
1
178
0
145
0.0
170
1
171
1
172
0
173
1
174
0
175
1
176
1
 91
1
178
0
145
0.0
170
1
  0
LINE
  5
284
100
AcDbEntity
 67
1
  8
0
100
AcDbLine
 62
5
  6
CONTINUOUS
 10
0.0
 20
0.0
 11
0.0
 21
210.0
  0
LINE
  5
285
100
AcDbEntity
 67
1
  8
0
100
AcDbLine
 62
7
  6
CONTINUOUS
 10
5.0
 20
5.0
 11
5.0
 21
195.0
  0
LINE
  5
286
100
AcDbEntity
 67
1
  8
0
100
AcDbLine
 62
5
  6
CONTINUOUS
 10
0.0
 20
0.0
 11
297.0
 21
0.0
  0
LINE
  5
287
100
AcDbEntity
 67
1
  8
0
100
AcDbLine
 62
7
  6
CONTINUOUS
 10
5.0
 20
5.0
 11
292.0
 21
5.0
  0
LINE
  5
288
100
AcDbEntity
 67
1
  8
0
100
AcDbLine
 62
4
  6
CONTINUOUS
 10
148.5
 20
195.0
 11
148.5
 21
205.0
  0
LINE
  5
289
100
AcDbEntity
 67
1
  8
0
100
AcDbLine
 62
7
  6
CONTINUOUS
 10
5.0
 20
195.0
 11
292.0
 21
195.0
  0
LINE
  5
28A
100
AcDbEntity
 67
1
  8
0
100
AcDbLine
 62
5
  6
CONTINUOUS
 10
0.0
 20
210.0
 11
297.0
 21
210.0
  0
LINE
  5
28B
100
AcDbEntity
 67
1
  8
0
100
AcDbLine
 62
7
  6
CONTINUOUS
 10
292.0
 20
5.0
 11
292.0
 21
195.0
  0
LINE
  5
28C
100
AcDbEntity
 67
1
  8
0
100
AcDbLine
 62
5
  6
CONTINUOUS
 10
297.0
 20
0.0
 11
297.0
 21
210.0
  0
LINE
  5
28D
100
AcDbEntity
 67
1
  8
DTM_AXIS
100
AcDbLine
 62
7
  6
CONTINUOUS
 10
239.8572395156
 20
61.3983814393
 11
244.6494027536
 21
61.3998412898
  0
LINE
  5
28E
100
AcDbEntity
 67
1
  8
DTM_AXIS
100
AcDbLine
 62
7
  6
CONTINUOUS
 10
199.8176253432
 20
174.2132532502
 11
200.0975031304
 21
174.913032978
  0
LINE
  5
28F
100
AcDbEntity
 67
1
  8
DTM_AXIS
100
AcDbLine
 62
7
  6
CONTINUOUS
 10
199.7461129275
 20
101.2955306032
 11
239.5037399729
 21
61.5446980566
  0
LINE
  5
290
100
AcDbEntity
 67
1
  8
DTM_AXIS
100
AcDbLine
 62
7
  6
CONTINUOUS
 10
204.9524266411
 20
96.2978781418
 11
239.8572395156
 21
61.3983814393
  0
LINE
  5
291
100
AcDbEntity
 67
1
  8
DTM_AXIS
100
AcDbLine
 62
7
  6
CONTINUOUS
 10
199.7461129275
 20
179.2836508254
 11
199.7461129275
 21
176.726622736
  0
LINE
  5
292
100
AcDbEntity
 67
1
  8
DTM_AXIS
100
AcDbLine
 62
7
  6
CONTINUOUS
 10
199.7461129275
 20
173.8418973535
 11
199.7461129275
 21
172.2847169593
  0
LINE
  5
293
100
AcDbEntity
 67
1
  8
DTM_AXIS
100
AcDbLine
 62
7
  6
CONTINUOUS
 10
199.7461129275
 20
112.2938552499
 11
199.7461129275
 21
110.7366748557
  0
LINE
  5
294
100
AcDbEntity
 67
1
  8
DTM_AXIS
100
AcDbLine
 62
7
  6
CONTINUOUS
 10
199.7461129275
 20
107.8519494731
 11
199.7461129275
 21
101.2955306032
  0
LINE
  5
295
100
AcDbEntity
 67
1
  8
DTM_AXIS
100
AcDbLine
 62
7
  6
CONTINUOUS
 10
201.7458083178
 20
156.2877630098
 11
201.7458083178
 21
114.2941598132
  0
LINE
  5
296
100
AcDbEntity
 67
1
  8
DTM_AXIS
100
AcDbLine
 62
7
  6
CONTINUOUS
 10
244.6494027536
 20
61.3998412898
 11
209.744589879
 21
96.2993379923
  0
LINE
  5
297
100
AcDbEntity
 67
1
  8
DTM_AXIS
100
AcDbLine
 62
7
  6
CONTINUOUS
 10
200.0975031304
 20
109.6657533212
 11
199.8176253432
 21
110.365362529
  0
LINE
  5
298
100
AcDbEntity
 67
1
  8
DTM_AXIS
100
AcDbLine
 62
7
  6
CONTINUOUS
 10
204.9524266411
 20
96.2978781418
 11
209.744589879
 21
96.2993379923
  0
LINE
  5
299
100
AcDbEntity
 67
1
  8
DTM_AXIS
100
AcDbLine
 62
7
  6
CONTINUOUS
 10
209.744589879
 20
96.2993379923
 11
209.744589879
 21
148.791341988
  0
LINE
  5
29A
100
AcDbEntity
 67
1
  8
DTM_AXIS
100
AcDbLine
 62
7
  6
CONTINUOUS
 10
199.8176253432
 20
108.2233053699
 11
200.0975031304
 21
108.9230850977
  0
LINE
  5
29B
100
AcDbEntity
 67
1
  8
DTM_AXIS
100
AcDbLine
 62
7
  6
CONTINUOUS
 10
211.7442852694
 20
170.2886766068
 11
211.7442852694
 21
158.290504265
  0
LINE
  5
29C
100
AcDbEntity
 67
1
  8
DTM_AXIS
100
AcDbLine
 62
7
  6
CONTINUOUS
 10
219.7430668306
 20
149.7942355481
 11
219.7430668306
 21
179.2897425552
  0
LINE
  5
29D
100
AcDbEntity
 67
1
  8
DTM_AXIS
100
AcDbLine
 62
7
  6
CONTINUOUS
 10
245.1493266012
 20
114.3919214263
 11
254.1479558576
 21
114.3946627047
  0
LINE
  5
29E
100
AcDbEntity
 67
1
  8
DTM_AXIS
100
AcDbLine
 62
7
  6
CONTINUOUS
 10
200.0975031304
 20
175.6557012015
 11
199.8176253432
 21
176.3553104093
  0
LINE
  5
29F
100
AcDbEntity
 67
1
  8
DTM_AXIS
100
AcDbLine
 62
7
  6
CONTINUOUS
 10
244.6494027536
 20
113.8918452855
 11
209.744589879
 21
148.791341988
  0
LINE
  5
2A0
100
AcDbEntity
 67
1
  8
DTM_AXIS
100
AcDbLine
 62
7
  6
CONTINUOUS
 10
245.1493266012
 20
114.3919214263
 11
210.2445137266
 21
149.2914181288
  0
LINE
  5
2A1
100
AcDbEntity
 67
1
  8
DTM_AXIS
100
AcDbLine
 62
7
  6
CONTINUOUS
 10
244.6494027536
 20
61.3998412898
 11
244.6494027536
 21
113.8918452855
  0
LINE
  5
2A2
100
AcDbEntity
 67
1
  8
DTM_AXIS
100
AcDbLine
 62
7
  6
CONTINUOUS
 10
219.243142983
 20
149.2941594072
 11
254.1479558576
 21
114.3946627047
  0
LINE
  5
2A3
100
AcDbEntity
 67
1
  8
DTM_AXIS
100
AcDbLine
 62
7
  6
CONTINUOUS
 10
219.7430668306
 20
149.7942355481
 11
254.6478797052
 21
114.8947388456
  0
LINE
  5
2A4
100
AcDbEntity
 67
1
  8
DTM_AXIS
100
AcDbLine
 62
7
  6
CONTINUOUS
 10
200.0389076955
 20
171.5778609146
 11
211.7442852694
 21
159.8742661265
  0
LINE
  5
2A5
100
AcDbEntity
 67
1
  8
DTM_AXIS
100
AcDbLine
 62
7
  6
CONTINUOUS
 10
200.7459606226
 20
171.2851738506
 11
211.7442852694
 21
160.288524302
  0
LINE
  5
2A6
100
AcDbEntity
 67
1
  8
DTM_AXIS
100
AcDbLine
 62
7
  6
CONTINUOUS
 10
211.7442091169
 20
170.2886004428
 11
210.7444375742
 21
171.2882197155
  0
LINE
  5
2A7
100
AcDbEntity
 67
1
  8
DTM_AXIS
100
AcDbLine
 62
7
  6
CONTINUOUS
 10
254.6478797052
 20
114.8947388456
 11
254.6478797052
 21
144.3902458527
  0
LINE
  5
2A8
100
AcDbEntity
 67
1
  8
DTM_AXIS
100
AcDbLine
 62
7
  6
CONTINUOUS
 10
210.2445137266
 20
149.2914181288
 11
219.243142983
 21
149.2941594072
  0
LINE
  5
2A9
100
AcDbEntity
 67
1
  8
DTM_AXIS
100
AcDbLine
 62
7
  6
CONTINUOUS
 10
210.7444375742
 20
157.2903519833
 11
202.7456560129
 21
157.2879152914
  0
LINE
  5
2AA
100
AcDbEntity
 67
1
  8
DTM_AXIS
100
AcDbLine
 62
7
  6
CONTINUOUS
 10
254.6478797052
 20
144.3902458527
 11
219.7430668306
 21
179.2897425552
  0
LINE
  5
2AB
100
AcDbEntity
 67
1
  8
DTM_AXIS
100
AcDbLine
 62
7
  6
CONTINUOUS
 10
200.7459606226
 20
171.2851738506
 11
210.7444375742
 21
171.2882197155
  0
LINE
  5
2AC
100
AcDbEntity
 67
1
  8
DTM_AXIS
100
AcDbLine
 62
7
  6
CONTINUOUS
 10
219.7430668306
 20
179.2897425552
 11
199.7461129275
 21
179.2836508254
  0
LINE
  5
2AD
100
AcDbEntity
 67
1
  8
DTM_AXIS
100
AcDbLine
 62
7
  6
CONTINUOUS
 10
77.3699423833
 20
78.4515786534
 11
82.1628356021
 21
78.4515786534
  0
LINE
  5
2AE
100
AcDbEntity
 67
1
  8
DTM_AXIS
100
AcDbLine
 62
7
  6
CONTINUOUS
 10
72.1628356021
 20
83.4515786534
 11
77.0163889927
 21
78.5980252628
  0
LINE
  5
2AF
100
AcDbEntity
 67
1
  8
DTM_AXIS
100
AcDbLine
 62
7
  6
CONTINUOUS
 10
72.2343589112
 20
156.3803869262
 11
72.5142793315
 21
157.0801879771
  0
LINE
  5
2B0
100
AcDbEntity
 67
1
  8
DTM_AXIS
100
AcDbLine
 62
7
  6
CONTINUOUS
 10
72.5142793315
 20
91.8229693298
 11
72.2343589112
 21
92.5227703806
  0
LINE
  5
2B1
100
AcDbEntity
 67
1
  8
DTM_AXIS
100
AcDbLine
 62
7
  6
CONTINUOUS
 10
72.1628356021
 20
161.4515786534
 11
72.1628356021
 21
158.894161057
  0
LINE
  5
2B2
100
AcDbEntity
 67
1
  8
DTM_AXIS
100
AcDbLine
 62
7
  6
CONTINUOUS
 10
72.1628356021
 20
156.0089962498
 11
72.1628356021
 21
154.4515786534
  0
LINE
  5
2B3
100
AcDbEntity
 67
1
  8
DTM_AXIS
100
AcDbLine
 62
7
  6
CONTINUOUS
 10
72.1628356021
 20
94.4515786534
 11
72.1628356021
 21
92.894161057
  0
LINE
  5
2B4
100
AcDbEntity
 67
1
  8
DTM_AXIS
100
AcDbLine
 62
7
  6
CONTINUOUS
 10
72.1628356021
 20
90.0089962498
 11
72.1628356021
 21
83.4515786534
  0
LINE
  5
2B5
100
AcDbEntity
 67
1
  8
DTM_AXIS
100
AcDbLine
 62
7
  6
CONTINUOUS
 10
74.1628356021
 20
138.4515786534
 11
74.1628356021
 21
96.4515786534
  0
LINE
  5
2B6
100
AcDbEntity
 67
1
  8
DTM_AXIS
100
AcDbLine
 62
7
  6
CONTINUOUS
 10
82.1628356021
 20
78.4515786534
 11
82.1628356021
 21
130.9515786534
  0
LINE
  5
2B7
100
AcDbEntity
 67
1
  8
DTM_AXIS
100
AcDbLine
 62
7
  6
CONTINUOUS
 10
84.1628356021
 20
152.4515786534
 11
84.1628356021
 21
140.4515786534
  0
LINE
  5
2B8
100
AcDbEntity
 67
1
  8
DTM_AXIS
100
AcDbLine
 62
7
  6
CONTINUOUS
 10
72.2343589112
 20
90.3803869262
 11
72.5142793315
 21
91.0801879771
  0
LINE
  5
2B9
100
AcDbEntity
 67
1
  8
DTM_AXIS
100
AcDbLine
 62
7
  6
CONTINUOUS
 10
72.5142793315
 20
157.8229693298
 11
72.2343589112
 21
158.5227703806
  0
LINE
  5
2BA
100
AcDbEntity
 67
1
  8
DTM_AXIS
100
AcDbLine
 62
7
  6
CONTINUOUS
 10
92.1628356021
 20
131.9515786534
 11
92.1628356021
 21
161.4515786534
  0
LINE
  5
2BB
100
AcDbEntity
 67
1
  8
DTM_AXIS
100
AcDbLine
 62
7
  6
CONTINUOUS
 10
82.6628356021
 20
131.4515786534
 11
91.6628356021
 21
131.4515786534
  0
LINE
  5
2BC
100
AcDbEntity
 67
1
  8
DTM_AXIS
100
AcDbLine
 62
7
  6
CONTINUOUS
 10
83.1628356021
 20
139.4515786534
 11
75.1628356021
 21
139.4515786534
  0
LINE
  5
2BD
100
AcDbEntity
 67
1
  8
DTM_AXIS
100
AcDbLine
 62
7
  6
CONTINUOUS
 10
73.1628356021
 20
153.4515786534
 11
83.1628356021
 21
153.4515786534
  0
LINE
  5
2BE
100
AcDbEntity
 67
1
  8
DTM_AXIS
100
AcDbLine
 62
7
  6
CONTINUOUS
 10
92.1628356021
 20
161.4515786534
 11
72.1628356021
 21
161.4515786534
  0
ARC
  5
2BF
100
AcDbEntity
 67
1
  8
DTM_AXIS
100
AcDbCircle
 62
7
  6
CONTINUOUS
 10
200.7463283799
 20
112.2937921448
 40
1.0002154544
100
AcDbArc
 50
90.0210663989
 51
179.9963851215
  0
ARC
  5
2C0
100
AcDbEntity
 67
1
  8
DTM_AXIS
100
AcDbCircle
 62
7
  6
CONTINUOUS
 10
202.7460237702
 20
156.2876999046
 40
1.0002154544
100
AcDbArc
 50
90.0210663989
 51
179.9963851215
  0
ARC
  5
2C1
100
AcDbEntity
 67
1
  8
DTM_AXIS
100
AcDbCircle
 62
7
  6
CONTINUOUS
 10
210.744069817
 20
158.2905673701
 40
1.0002154544
100
AcDbArc
 50
270.0210663989
 51
359.9963851215
  0
ARC
  5
2C2
100
AcDbEntity
 67
1
  8
DTM_AXIS
100
AcDbCircle
 62
7
  6
CONTINUOUS
 10
200.7455928654
 20
114.2942229183
 40
1.0002154544
100
AcDbArc
 50
270.0210663989
 51
359.9963851215
  0
ARC
  5
2C3
100
AcDbEntity
 67
1
  8
DTM_AXIS
100
AcDbCircle
 62
7
  6
CONTINUOUS
 10
199.1691309272
 20
109.2944192094
 40
0.9998819781
100
AcDbArc
 50
338.1993763119
 51
21.8006236881
  0
ARC
  5
2C4
100
AcDbEntity
 67
1
  8
DTM_AXIS
100
AcDbCircle
 62
7
  6
CONTINUOUS
 10
199.1691309272
 20
175.2843670898
 40
0.9998819781
100
AcDbArc
 50
338.1993763119
 51
21.8006236882
  0
ARC
  5
2C5
100
AcDbEntity
 67
1
  8
DTM_AXIS
100
AcDbCircle
 62
7
  6
CONTINUOUS
 10
200.7456818416
 20
172.2846906828
 40
0.9995689145
100
AcDbArc
 50
179.9984938221
 51
270.0189616495
  0
ARC
  5
2C6
100
AcDbEntity
 67
1
  8
DTM_AXIS
100
AcDbCircle
 62
7
  6
CONTINUOUS
 10
210.7447163552
 20
170.2887028833
 40
0.9995689145
100
AcDbArc
 50
359.9984938221
 51
90.0189616495
  0
ARC
  5
2C7
100
AcDbEntity
 67
1
  8
DTM_AXIS
100
AcDbCircle
 62
7
  6
CONTINUOUS
 10
254.1477697664
 20
114.8947726101
 40
0.5001109754
100
AcDbArc
 50
270.0213197976
 51
359.9961317229
  0
ARC
  5
2C8
100
AcDbEntity
 67
1
  8
DTM_AXIS
100
AcDbCircle
 62
7
  6
CONTINUOUS
 10
245.1495128693
 20
113.8918113441
 40
0.5001109754
100
AcDbArc
 50
90.0213400574
 51
179.9961114631
  0
ARC
  5
2C9
100
AcDbEntity
 67
1
  8
DTM_AXIS
100
AcDbCircle
 62
7
  6
CONTINUOUS
 10
219.2429568918
 20
149.7942693126
 40
0.5001109754
100
AcDbArc
 50
270.0213197976
 51
359.9961317229
  0
ARC
  5
2CA
100
AcDbEntity
 67
1
  8
DTM_AXIS
100
AcDbCircle
 62
7
  6
CONTINUOUS
 10
210.2446999948
 20
148.7913080466
 40
0.5001109754
100
AcDbArc
 50
90.0213400574
 51
179.9961114631
  0
ARC
  5
2CB
100
AcDbEntity
 67
1
  8
DTM_AXIS
100
AcDbCircle
 62
7
  6
CONTINUOUS
 10
239.8570758796
 20
61.8981701555
 40
0.499788743
100
AcDbArc
 50
225.0110401164
 51
270.0187592393
  0
ARC
  5
2CC
100
AcDbEntity
 67
1
  8
DTM_AXIS
100
AcDbCircle
 62
7
  6
CONTINUOUS
 10
204.952263005
 20
96.797666858
 40
0.499788743
100
AcDbArc
 50
225.0110401164
 51
270.0187592393
  0
ARC
  5
2CD
100
AcDbEntity
 67
1
  8
DTM_AXIS
100
AcDbCircle
 62
7
  6
CONTINUOUS
 10
73.1628356021
 20
90.0089962498
 40
1.0
100
AcDbArc
 50
158.1985905136
 51
180.0
  0
ARC
  5
2CE
100
AcDbEntity
 67
1
  8
DTM_AXIS
100
AcDbCircle
 62
7
  6
CONTINUOUS
 10
73.1628356021
 20
92.894161057
 40
1.0
100
AcDbArc
 50
180.0
 51
201.8014094864
  0
ARC
  5
2CF
100
AcDbEntity
 67
1
  8
DTM_AXIS
100
AcDbCircle
 62
7
  6
CONTINUOUS
 10
73.1628356021
 20
94.4515786534
 40
1.0
100
AcDbArc
 50
90.0
 51
180.0
  0
ARC
  5
2D0
100
AcDbEntity
 67
1
  8
DTM_AXIS
100
AcDbCircle
 62
7
  6
CONTINUOUS
 10
75.1628356021
 20
138.4515786534
 40
1.0
100
AcDbArc
 50
90.0
 51
180.0
  0
ARC
  5
2D1
100
AcDbEntity
 67
1
  8
DTM_AXIS
100
AcDbCircle
 62
7
  6
CONTINUOUS
 10
73.1628356021
 20
154.4515786534
 40
1.0
100
AcDbArc
 50
180.0
 51
270.0
  0
ARC
  5
2D2
100
AcDbEntity
 67
1
  8
DTM_AXIS
100
AcDbCircle
 62
7
  6
CONTINUOUS
 10
73.1628356021
 20
156.0089962498
 40
1.0
100
AcDbArc
 50
158.1985905136
 51
180.0
  0
ARC
  5
2D3
100
AcDbEntity
 67
1
  8
DTM_AXIS
100
AcDbCircle
 62
7
  6
CONTINUOUS
 10
73.1628356021
 20
158.894161057
 40
1.0
100
AcDbArc
 50
180.0
 51
201.8014094864
  0
ARC
  5
2D4
100
AcDbEntity
 67
1
  8
DTM_AXIS
100
AcDbCircle
 62
7
  6
CONTINUOUS
 10
83.1628356021
 20
152.4515786534
 40
1.0
100
AcDbArc
 50
0.0
 51
90.0
  0
ARC
  5
2D5
100
AcDbEntity
 67
1
  8
DTM_AXIS
100
AcDbCircle
 62
7
  6
CONTINUOUS
 10
83.1628356021
 20
140.4515786534
 40
1.0
100
AcDbArc
 50
270.0
 51
360.0
  0
ARC
  5
2D6
100
AcDbEntity
 67
1
  8
DTM_AXIS
100
AcDbCircle
 62
7
  6
CONTINUOUS
 10
73.1628356021
 20
96.4515786534
 40
1.0
100
AcDbArc
 50
270.0
 51
360.0
  0
ARC
  5
2D7
100
AcDbEntity
 67
1
  8
DTM_AXIS
100
AcDbCircle
 62
7
  6
CONTINUOUS
 10
71.5858026406
 20
91.4515786534
 40
1.0
100
AcDbArc
 50
338.1985905136
 51
21.8014094864
  0
ARC
  5
2D8
100
AcDbEntity
 67
1
  8
DTM_AXIS
100
AcDbCircle
 62
7
  6
CONTINUOUS
 10
71.5858026406
 20
157.4515786534
 40
1.0
100
AcDbArc
 50
338.1985905136
 51
21.8014094864
  0
ARC
  5
2D9
100
AcDbEntity
 67
1
  8
DTM_AXIS
100
AcDbCircle
 62
7
  6
CONTINUOUS
 10
91.6628356021
 20
131.9515786534
 40
0.5
100
AcDbArc
 50
270.0
 51
360.0
  0
ARC
  5
2DA
100
AcDbEntity
 67
1
  8
DTM_AXIS
100
AcDbCircle
 62
7
  6
CONTINUOUS
 10
77.3699423833
 20
78.9515786534
 40
0.5
100
AcDbArc
 50
225.0
 51
270.0
  0
ARC
  5
2DB
100
AcDbEntity
 67
1
  8
DTM_AXIS
100
AcDbCircle
 62
7
  6
CONTINUOUS
 10
82.6628356021
 20
130.9515786534
 40
0.5
100
AcDbArc
 50
90.0
 51
180.0
  0
SPLINE
  5
2DC
100
AcDbEntity
 67
1
  8
DTM_AXIS
100
AcDbSpline
 62
7
  6
CONTINUOUS
 70
0
 71
3
 72
8
 73
4
 74
0
 42
0.0000001
 43
0.0000001
 44
0.0000000001
 40
0.0
 40
0.0
 40
0.0
 40
0.0
 40
1.0
 40
1.0
 40
1.0
 40
1.0
 10
199.8176253432
 20
108.2233053699
 30
0.0
 10
199.7708128969
 20
108.1062599934
 30
0.0
 10
199.7461129275
 20
107.9780090832
 30
0.0
 10
199.7461129275
 20
107.8519494731
 30
0.0
  0
SPLINE
  5
2DD
100
AcDbEntity
 67
1
  8
DTM_AXIS
100
AcDbSpline
 62
7
  6
CONTINUOUS
 70
0
 71
3
 72
8
 73
4
 74
0
 42
0.0000001
 43
0.0000001
 44
0.0000000001
 40
0.0
 40
0.0
 40
0.0
 40
0.0
 40
1.0
 40
1.0
 40
1.0
 40
1.0
 10
199.7461129275
 20
110.7366748557
 30
0.0
 10
199.7461129275
 20
110.6106295069
 30
0.0
 10
199.770808358
 20
110.4823907301
 30
0.0
 10
199.8176253432
 20
110.365362529
 30
0.0
  0
SPLINE
  5
2DE
100
AcDbEntity
 67
1
  8
DTM_AXIS
100
AcDbSpline
 62
7
  6
CONTINUOUS
 70
0
 71
3
 72
8
 73
4
 74
0
 42
0.0000001
 43
0.0000001
 44
0.0000000001
 40
0.0
 40
0.0
 40
0.0
 40
0.0
 40
1.0
 40
1.0
 40
1.0
 40
1.0
 10
199.8176253432
 20
174.2132532502
 30
0.0
 10
199.7708128969
 20
174.0962078737
 30
0.0
 10
199.7461129275
 20
173.9679569636
 30
0.0
 10
199.7461129275
 20
173.8418973535
 30
0.0
  0
SPLINE
  5
2DF
100
AcDbEntity
 67
1
  8
DTM_AXIS
100
AcDbSpline
 62
7
  6
CONTINUOUS
 70
0
 71
3
 72
8
 73
4
 74
0
 42
0.0000001
 43
0.0000001
 44
0.0000000001
 40
0.0
 40
0.0
 40
0.0
 40
0.0
 40
1.0
 40
1.0
 40
1.0
 40
1.0
 10
199.7461129275
 20
176.726622736
 30
0.0
 10
199.7461129275
 20
176.6005773872
 30
0.0
 10
199.770808358
 20
176.4723386104
 30
0.0
 10
199.8176253432
 20
176.3553104093
 30
0.0
  0
ENDSEC
  0
SECTION
  2
OBJECTS
  0
DICTIONARY
  5
C
100
AcDbDictionary
280
0
281
1
  3
ACAD_GROUP
350
D
  3
ACAD_MLINESTYLE
350
17
  3
ACAD_LAYOUT
350
1A
  3
ACAD_PLOTSETTINGS
350
19
  3
ACAD_PLOTSTYLENAME
350
E
  3
ACAD_TABLESTYLE
350
       2E0
  0
DICTIONARY
  5
D
102
{ACAD_REACTORS
330
C
102
}
100
AcDbDictionary
280
0
281
1
  0
ACDBDICTIONARYWDFLT
  5
E
102
{ACAD_REACTORS
330
C
102
}
100
AcDbDictionary
281
1
  3
Normal
350
F
100
AcDbDictionaryWithDefault
340
F
  0
DICTIONARY
  5
17
102
{ACAD_REACTORS
330
C
102
}
100
AcDbDictionary
280
0
281
1
  3
Standard
350
18
  0
DICTIONARY
  5
2E0
330
C
100
AcDbDictionary
281
1
  3
Standard
350
       2E3
  3
Standard1
350
       2E4
  0
DICTIONARY
  5
19
102
{ACAD_REACTORS
330
C
102
}
100
AcDbDictionary
281
1
  0
DICTIONARY
  5
1A
102
{ACAD_REACTORS
330
C
102
}
100
AcDbDictionary
281
1
  3
Model
350
2E1
  3
PX198-PROD-MM-INCHES_1
350
2E2
  0
ACDBPLACEHOLDER
  5
F
102
{ACAD_REACTORS
330
E
102
}
  0
MLINESTYLE
  5
18
102
{ACAD_REACTORS
330
17
102
}
100
AcDbMlineStyle
  2
STANDARD
 70
0
  3

 62
256
 51
90.0
 52
90.0
 71
2
 49
0.5
 62
256
  6
BYLAYER
 49
-0.5
 62
256
  6
BYLAYER
  0
LAYOUT
  5
2E1
102
{ACAD_REACTORS
330
1A
102
}
100
AcDbPlotSettings
  1

  2
none_device
  4

  6

 40
0.0
 41
0.0
 42
0.0
 43
0.0
 44
297.0
 45
210.0
 46
0.0
 47
0.0
 48
0.0
 49
0.0
140
0.0
141
0.0
142
1.0
143
1.0
 70
1024
 72
1
 73
0
 74
0
  7

 75
0
147
1.0
148
0.0
149
0.0
100
AcDbLayout
  1
Model
 70
0
 71
0
 10
0.0
 20
0.0
 11
297.0
 21
210.0
 12
0.0
 22
0.0
 32
0.0
 14
0.0
 24
0.0
 34
0.0
 15
0.0
 25
0.0
 35
0.0
146
0.0
 13
0.0
 23
0.0
 33
0.0
 16
1.0
 26
0.0
 36
0.0
 17
0.0
 27
1.0
 37
0.0
 76
0
330
209
345
0
346
0
  0
LAYOUT
  5
2E2
102
{ACAD_REACTORS
330
1A
102
}
100
AcDbPlotSettings
  1

  2
none_device
  4
ISO_A4_(297.00_x_210.00_MM)
  6

 40
0.0
 41
0.0
 42
0.0
 43
0.0
 44
297.0
 45
210.0
 46
0.0
 47
0.0
 48
0.0
 49
0.0
140
0.0
141
0.0
142
1.0
143
1.0
 70
0
 72
1
 73
0
 74
0
  7

 75
0
147
1.0
148
0.0
149
0.0
100
AcDbLayout
  1
PX198-PROD-MM-INCHES_1
 70
0
 71
1
 10
0.0
 20
0.0
 11
297.0
 21
210.0
 12
0.0
 22
0.0
 32
0.0
 14
0.0
 24
0.0
 34
0.0
 15
0.0
 25
0.0
 35
0.0
146
0.0
 13
0.0
 23
0.0
 33
0.0
 16
1.0
 26
0.0
 36
0.0
 17
0.0
 27
1.0
 37
0.0
 76
0
330
20A
331
27C
345
0
346
0
  0
TABLESTYLE
  5
2E3
102
{ACAD_REACTORS
330
2E0
330
283
102
}
330
2E0
100
AcDbTableStyle
  3
Standard
 70
0
 71
0
 40
0.06
 41
0.06
280
1
281
1
  7
Standard
140
0.18
170
1
 62
0
 63
7
283
0
  7
Standard
140
0.18
170
1
 62
0
 63
7
283
0
  7
Standard
140
0.18
170
1
 62
0
 63
7
283
0
  0
TABLESTYLE
  5
2E4
102
{ACAD_REACTORS
330
2E0
102
}
330
2E0
100
AcDbTableStyle
  3
Standard1
 70
1
 71
0
 40
0.06
 41
0.06
280
1
281
1
  7
Standard
140
0.18
170
1
 62
0
 63
7
283
0
  7
Standard
140
0.18
170
1
 62
0
 63
7
283
0
  7
Standard
140
0.18
170
1
 62
0
 63
7
283
0
  0
ENDSEC
  0
EOF
