999
DXF file: O:\ORAC_PRODUCTEN\ORAC_LIJN6\P-TYPE\P9010\p9010-prod-mm.dxf
999
Pro/ENGINEER 2018500 by Parametric Technology Corporation
  0
SECTION
  2
HEADER
  9
$ACADVER
  1
AC1024
  9
$DWGCODEPAGE
  3
ANSI_1250
  9
$EXTMAX
 10
297.0
 20
210.0
 30
0.0
  9
$EXTMIN
 10
0.0
 20
0.0
 30
0.0
  9
$LIMMIN
 10
0.0
 20
0.0
  9
$LIMMAX
 10
297.0
 20
210.0
  9
$VIEWCTR
 10
148.5
 20
105.0
  9
$VIEWSIZE
 40
210.0
  9
$CLAYER
  8
0
  9
$LTSCALE
 40
16.335
  9
$CELTYPE
  6
BYLAYER
  9
$DIMSCALE
 40
1.0
  9
$DIMASZ
 40
3.5
  9
$DIMEXO
 40
1.0
  9
$DIMDLI
 40
11.286
  9
$DIMEXE
 40
1.5
  9
$DIMCEN
 40
2.673
  9
$DIMLFAC
 40
1.0
  9
$DIMBLK
  1
_FILLED
  9
$DIMALT
 70
0
  9
$DIMALTF
 40
0.0393700787
  9
$DIMTXT
 40
2.5
  9
$DIMTOL
 70
1
  9
$DIMLIM
 70
0
  9
$DIMTFAC
 40
1.0
  9
$DIMTP
 40
0.001
  9
$DIMTM
 40
0.001
  9
$DIMGAP
 40
0.625
  9
$DIMDSEP
 70
44
  9
$AUNITS
 70
0
  9
$PDMODE
 70
3
  9
$PDSIZE
 40
8.0
  9
$HANDSEED
  5
2D8
  9
$TILEMODE
 70
1
  9
$MEASUREMENT
 70
1
  9
$INSUNITS
 70
4
  0
ENDSEC
  0
SECTION
  2
CLASSES
  0
CLASS
  1
ACDBDICTIONARYWDFLT
  2
AcDbDictionaryWithDefault
  3
AutoCAD 2000
 90
0
 91
1
280
0
281
0
  0
CLASS
  1
ACDBPLACEHOLDER
  2
AcDbPlaceHolder
  3
AutoCAD 2000
 90
0
 91
1
280
0
281
0
  0
CLASS
  1
LAYOUT
  2
AcDbLayout
  3
AutoCAD 2000
 90
0
 91
0
280
0
281
0
  0
CLASS
  1
TABLESTYLE
  2
AcDbTableStyle
  3
ObjectDBX Classes
 90
2047
 91
1
280
0
281
0
  0
CLASS
  1
ACAD_TABLE
  2
AcDbTable
  3
ObjectDBX Classes
 90
1025
 91
1
280
0
281
1
  0
ENDSEC
  0
SECTION
  2
TABLES
  0
TABLE
  2
VPORT
  5
8
100
AcDbSymbolTable
 70
2
  0
VPORT
  5
1F4
100
AcDbSymbolTableRecord
100
AcDbViewportTableRecord
  2
*ACTIVE
 70
0
 10
0.0
 20
0.0
 11
1.0
 21
1.0
 12
148.5
 22
105.0
 13
0.0
 23
0.0
 14
1.0
 24
1.0
 15
0.0
 25
0.0
 16
0.0
 26
0.0
 36
1.0
 17
0.0
 27
0.0
 37
0.0
 40
210.0
 41
1.4142857143
 42
50.0
 43
0.0
 44
0.0
 50
0.0
 51
0.0
 71
0
 72
100
 73
1
 74
1
 75
0
 76
0
 77
0
 78
0
  0
ENDTAB
  0
TABLE
  2
LTYPE
  5
5
100
AcDbSymbolTable
 70
6
  0
LTYPE
  5
14
100
AcDbSymbolTableRecord
100
AcDbLinetypeTableRecord
  2
BYBLOCK
 70
0
  3

 72
65
 73
0
 40
0.0
  0
LTYPE
  5
15
100
AcDbSymbolTableRecord
100
AcDbLinetypeTableRecord
  2
BYLAYER
 70
0
  3

 72
65
 73
0
 40
0.0
  0
LTYPE
  5
16
100
AcDbSymbolTableRecord
100
AcDbLinetypeTableRecord
  2
CONTINUOUS
 70
64
  3
Solid line
 72
65
 73
0
 40
0.0
  0
LTYPE
  5
1F5
100
AcDbSymbolTableRecord
100
AcDbLinetypeTableRecord
  2
CENTER
 70
64
  3
____ _ ____ _ ____ _ ____ _ ____ _ ____ _ ____
 72
65
 73
4
 40
0.6
 49
0.375
 74
0
 49
-0.075
 74
0
 49
0.075
 74
0
 49
-0.075
 74
0
  0
LTYPE
  5
1F6
100
AcDbSymbolTableRecord
100
AcDbLinetypeTableRecord
  2
HIDDEN
 70
64
  3
- - - - - - - - - - - - - - - - - - - -
 72
65
 73
2
 40
0.2
 49
0.1
 74
0
 49
-0.1
 74
0
  0
LTYPE
  5
1F7
100
AcDbSymbolTableRecord
100
AcDbLinetypeTableRecord
  2
PHANTOM
 70
64
  3
_____ _ _ _____ _ _ _____ _ _ _____
 72
65
 73
6
 40
0.8
 49
0.45
 74
0
 49
-0.05
 74
0
 49
0.1
 74
0
 49
-0.05
 74
0
 49
0.1
 74
0
 49
-0.05
 74
0
  0
LTYPE
  5
1F8
100
AcDbSymbolTableRecord
100
AcDbLinetypeTableRecord
  2
DOT
 70
64
  3
. . . . . . . . . . . . . . . . . . . .
 72
65
 73
2
 40
0.2
 49
0.1
 74
0
 49
-0.1
 74
0
  0
LTYPE
  5
1F9
100
AcDbSymbolTableRecord
100
AcDbLinetypeTableRecord
  2
DASHED
 70
64
  3
- - - - - - - - - - - - - - - - - - - -
 72
65
 73
2
 40
0.2
 49
0.1
 74
0
 49
-0.1
 74
0
  0
ENDTAB
  0
TABLE
  2
LAYER
  5
2
100
AcDbSymbolTable
 70
36
  0
LAYER
  5
10
100
AcDbSymbolTableRecord
100
AcDbLayerTableRecord
  2
0
 70
0
 62
7
  6
CONTINUOUS
370
-3
390
F
  0
LAYER
  5
1FA
100
AcDbSymbolTableRecord
100
AcDbLayerTableRecord
  2
DEFAULT_1
 70
0
 62
7
  6
CENTER
370
-3
390
F
  0
LAYER
  5
1FB
100
AcDbSymbolTableRecord
100
AcDbLayerTableRecord
  2
DEFAULT_2
 70
0
 62
8
  6
HIDDEN
370
-3
390
F
  0
LAYER
  5
1FC
100
AcDbSymbolTableRecord
100
AcDbLayerTableRecord
  2
DEFAULT_3
 70
0
 62
7
  6
PHANTOM
370
-3
390
F
  0
LAYER
  5
1FD
100
AcDbSymbolTableRecord
100
AcDbLayerTableRecord
  2
DTM_ALL
 70
0
 62
7
  6
CONTINUOUS
370
-3
390
F
  0
LAYER
  5
1FE
100
AcDbSymbolTableRecord
100
AcDbLayerTableRecord
  2
DTM_AXIS
 70
0
 62
7
  6
CONTINUOUS
370
-3
390
F
  0
LAYER
  5
1FF
100
AcDbSymbolTableRecord
100
AcDbLayerTableRecord
  2
DTM_CSYS
 70
0
 62
7
  6
CONTINUOUS
370
-3
390
F
  0
LAYER
  5
200
100
AcDbSymbolTableRecord
100
AcDbLayerTableRecord
  2
DTM_CURVE
 70
0
 62
7
  6
CONTINUOUS
370
-3
390
F
  0
LAYER
  5
201
100
AcDbSymbolTableRecord
100
AcDbLayerTableRecord
  2
DTM_MASTER
 70
0
 62
7
  6
CONTINUOUS
370
-3
390
F
  0
LAYER
  5
202
100
AcDbSymbolTableRecord
100
AcDbLayerTableRecord
  2
DTM_POINT
 70
0
 62
7
  6
CONTINUOUS
370
-3
390
F
  0
LAYER
  5
203
100
AcDbSymbolTableRecord
100
AcDbLayerTableRecord
  2
DTM_QUILT
 70
0
 62
7
  6
CONTINUOUS
370
-3
390
F
  0
LAYER
  5
204
100
AcDbSymbolTableRecord
100
AcDbLayerTableRecord
  2
GTOL
 70
0
 62
7
  6
CONTINUOUS
370
-3
390
F
  0
LAYER
  5
205
100
AcDbSymbolTableRecord
100
AcDbLayerTableRecord
  2
NOTES
 70
0
 62
7
  6
CONTINUOUS
370
-3
390
F
  0
ENDTAB
  0
TABLE
  2
STYLE
  5
3
100
AcDbSymbolTable
 70
1
  0
STYLE
  5
11
100
AcDbSymbolTableRecord
100
AcDbTextStyleTableRecord
  2
STANDARD
 70
0
 40
0.0
 41
1.0
 50
0.0
 71
0
 42
0.2
  3
cgtime.ttf
  4

  0
STYLE
  5
206
100
AcDbSymbolTableRecord
100
AcDbTextStyleTableRecord
  2
TEXTSTYLE_1
 70
0
 40
0.0
 41
0.8
 50
0.0
 71
0
 42
0.2
  3
gdt
  4

  0
STYLE
  5
207
100
AcDbSymbolTableRecord
100
AcDbTextStyleTableRecord
  2
TEXTSTYLE_2
 70
0
 40
0.0
 41
1.0
 50
0.0
 71
0
 42
0.2
  3
trium.ttf
  4

  0
STYLE
  5
208
100
AcDbSymbolTableRecord
100
AcDbTextStyleTableRecord
  2
TEXTSTYLE_3
 70
0
 40
0.0
 41
1.0
 50
0.0
 71
0
 42
0.2
  3
calibri.ttf
  4

  0
ENDTAB
  0
TABLE
  2
VIEW
  5
6
100
AcDbSymbolTable
 70
0
  0
ENDTAB
  0
TABLE
  2
UCS
  5
7
100
AcDbSymbolTable
 70
0
  0
ENDTAB
  0
TABLE
  2
APPID
  5
9
100
AcDbSymbolTable
 70
1
  0
APPID
  5
209
100
AcDbSymbolTableRecord
100
AcDbRegAppTableRecord
  2
ACAD
 70
0
  0
ENDTAB
  0
TABLE
  2
BLOCK_RECORD
  5
1
100
AcDbSymbolTable
 70
0
  0
BLOCK_RECORD
  5
20A
100
AcDbSymbolTableRecord
100
AcDbBlockTableRecord
  2
*Model_Space
  0
BLOCK_RECORD
  5
20B
100
AcDbSymbolTableRecord
100
AcDbBlockTableRecord
  2
*Paper_Space
  0
BLOCK_RECORD
  5
20C
100
AcDbSymbolTableRecord
100
AcDbBlockTableRecord
  2
_FILLED
  0
BLOCK_RECORD
  5
20D
100
AcDbSymbolTableRecord
100
AcDbBlockTableRecord
  2
*D0
  0
BLOCK_RECORD
  5
20E
100
AcDbSymbolTableRecord
100
AcDbBlockTableRecord
  2
*D1
  0
BLOCK_RECORD
  5
20F
100
AcDbSymbolTableRecord
100
AcDbBlockTableRecord
  2
*D2
  0
BLOCK_RECORD
  5
210
100
AcDbSymbolTableRecord
100
AcDbBlockTableRecord
  2
*D3
  0
BLOCK_RECORD
  5
211
100
AcDbSymbolTableRecord
100
AcDbBlockTableRecord
  2
*D4
  0
BLOCK_RECORD
  5
212
100
AcDbSymbolTableRecord
100
AcDbBlockTableRecord
  2
*D5
  0
BLOCK_RECORD
  5
213
100
AcDbSymbolTableRecord
100
AcDbBlockTableRecord
  2
*T1
  0
ENDTAB
  0
TABLE
  2
DIMSTYLE
  5
A
100
AcDbSymbolTable
 70
1
100
AcDbDimStyleTable
 71
0
  0
DIMSTYLE
105
214
100
AcDbSymbolTableRecord
100
AcDbDimStyleTableRecord
  2
STANDARD
 70
0
  3

  4

 40
1.0
 41
3.5
 42
1.0
 43
0.38
 44
1.5
 45
0.0
 46
0.0
 47
0.001
 48
0.001
140
2.5
141
0.09
142
0.0
143
25.4
144
1.0
145
0.0
146
1.0
147
0.625
 71
1.0
 72
0.0
 73
1
 74
1
 75
0
 76
0
 77
0
 78
8
 79
2
170
0
171
2
172
0
173
0
174
0
175
0
176
0
177
0
178
0
270
2
179
3
271
3
272
3
273
2
274
2
275
0
280
0
281
0
282
0
283
1
284
8
285
0
286
0
287
3
288
0
340
11
278
44
341
20C
342
20C
343
20C
344
20C
  0
DIMSTYLE
105
215
100
AcDbSymbolTableRecord
100
AcDbDimStyleTableRecord
  2
DIMSTYLE_1
 70
0
  3

  4

 40
1.0
 41
3.5
 42
1.0
 43
0.38
 44
1.5
 45
0.0
 46
0.0
 47
0.0
 48
0.0
140
2.5
141
0.09
142
0.0
143
25.4
144
1.0
145
0.0
146
1.0
147
1.25
 71
0.0
 72
0.0
 73
1
 74
1
 75
0
 76
0
 77
0
 78
8
 79
2
170
0
171
2
172
0
173
0
174
0
175
0
176
0
177
0
178
0
270
2
179
3
271
0
272
0
273
2
274
2
275
0
280
0
281
0
282
0
283
1
284
8
285
0
286
0
287
3
288
0
340
11
278
44
341
20C
342
20C
343
20C
344
20C
  0
DIMSTYLE
105
216
100
AcDbSymbolTableRecord
100
AcDbDimStyleTableRecord
  2
DIMSTYLE_2
 70
0
  3

  4

 40
1.0
 41
3.5
 42
1.0
 43
0.38
 44
1.5
 45
0.0
 46
0.0
 47
0.0
 48
0.0
140
2.5
141
0.09
142
0.0
143
25.4
144
1.0
145
0.0
146
1.0
147
1.25
 71
0.0
 72
0.0
 73
1
 74
1
 75
0
 76
0
 77
0
 78
8
 79
2
170
0
171
2
172
0
173
0
174
0
175
0
176
0
177
0
178
0
270
2
179
3
271
3
272
3
273
2
274
2
275
0
280
0
281
0
282
0
283
1
284
8
285
0
286
0
287
3
288
0
340
11
278
44
341
20C
342
20C
343
20C
344
20C
  0
ENDTAB
  0
ENDSEC
  0
SECTION
  2
BLOCKS
  0
BLOCK
  5
20
100
AcDbEntity
  8
0
100
AcDbBlockBegin
  2
*Model_Space
 70
0
 10
0.0
 20
0.0
 30
0.0
  3
*Model_Space
  1

  0
ENDBLK
  5
21
100
AcDbEntity
  8
0
100
AcDbBlockEnd
  0
BLOCK
  5
1C
100
AcDbEntity
  8
0
100
AcDbBlockBegin
  2
*Paper_Space
 70
0
 10
0.0
 20
0.0
 30
0.0
  3
*Paper_Space
  1

  0
ENDBLK
  5
1D
100
AcDbEntity
  8
0
100
AcDbBlockEnd
  0
BLOCK
  5
217
100
AcDbEntity
  8
0
100
AcDbBlockBegin
  2
_FILLED
 70
64
 10
0.0
 20
0.0
  3
_FILLED
  1

  0
SOLID
  5
218
100
AcDbEntity
  8
0
  6
BYBLOCK
 62
0
100
AcDbTrace
 10
0.0
 20
0.0
 11
-1.0
 21
0.2142857143
 12
-1.0
 22
-0.2142857143
 13
-1.0
 23
-0.2142857143
  0
ENDBLK
  5
219
100
AcDbEntity
  8
0
  6
BYBLOCK
 62
0
100
AcDbBlockEnd
  0
BLOCK
  5
21A
100
AcDbEntity
  8
0
100
AcDbBlockBegin
 62
2
  6
CONTINUOUS
  2
*D0
 70
65
 10
0.0
 20
0.0
  3
*D0
  1

  0
TEXT
  5
21B
100
AcDbEntity
  8
0
100
AcDbText
 62
2
  6
CONTINUOUS
 10
23.9107444219
 20
111.9777124843
  7
STANDARD
 40
2.5
  1
91
 72
5
 11
27.5488767176
 21
111.9777124843
100
AcDbText
  0
TEXT
  5
21C
100
AcDbEntity
  8
0
100
AcDbText
 62
2
  6
CONTINUOUS
 10
27.5488767176
 20
111.9777124843
  7
STANDARD
 40
2.5
  1
mm
 72
5
 11
33.2200829433
 21
111.9777124843
100
AcDbText
  0
TEXT
  5
21D
100
AcDbEntity
  8
0
100
AcDbText
 62
2
  6
CONTINUOUS
 10
23.7794214647
 20
108.2277124843
  7
STANDARD
 40
2.5
  1
3-5/8"
 72
5
 11
33.3514059005
 21
108.2277124843
100
AcDbText
  0
LINE
  5
21E
100
AcDbEntity
  8
0
100
AcDbLine
 62
2
  6
CONTINUOUS
 10
52.6350976031
 20
158.8527124843
 11
27.0654136826
 21
158.8527124843
  0
LINE
  5
21F
100
AcDbEntity
  8
0
100
AcDbLine
 62
2
  6
CONTINUOUS
 10
52.6350976031
 20
67.6027124843
 11
27.0654136826
 21
67.6027124843
  0
LINE
  5
220
100
AcDbEntity
  8
0
100
AcDbLine
 62
2
  6
CONTINUOUS
 10
28.5654136826
 20
158.8527124843
 11
28.5654136826
 21
115.7277124843
  0
LINE
  5
221
100
AcDbEntity
  8
0
100
AcDbLine
 62
2
  6
CONTINUOUS
 10
28.5654136826
 20
67.6027124843
 11
28.5654136826
 21
106.9777124843
  0
INSERT
  5
222
100
AcDbEntity
  8
0
100
AcDbBlockReference
 62
2
  6
CONTINUOUS
  2
_FILLED
 10
28.5654136826
 20
158.8527124843
 41
3.5
 42
3.5
 43
3.5
 50
90.0
  0
INSERT
  5
223
100
AcDbEntity
  8
0
100
AcDbBlockReference
 62
2
  6
CONTINUOUS
  2
_FILLED
 10
28.5654136826
 20
67.6027124843
 41
3.5
 42
3.5
 43
3.5
 50
270.0
  0
ENDBLK
  5
224
100
AcDbEntity
  8
0
  6
BYBLOCK
 62
0
100
AcDbBlockEnd
  0
BLOCK
  5
225
100
AcDbEntity
  8
0
100
AcDbBlockBegin
 62
2
  6
CONTINUOUS
  2
*D1
 70
65
 10
0.0
 20
0.0
  3
*D1
  1

  0
TEXT
  5
226
100
AcDbEntity
  8
0
100
AcDbText
 62
2
  6
CONTINUOUS
 10
64.0635454695
 20
175.8246194172
  7
STANDARD
 40
2.5
  1
30
 72
5
 11
67.7016777652
 21
175.8246194172
100
AcDbText
  0
TEXT
  5
227
100
AcDbEntity
  8
0
100
AcDbText
 62
2
  6
CONTINUOUS
 10
67.7016777652
 20
175.8246194172
  7
STANDARD
 40
2.5
  1
mm
 72
5
 11
73.3728839909
 21
175.8246194172
100
AcDbText
  0
TEXT
  5
228
100
AcDbEntity
  8
0
100
AcDbText
 62
2
  6
CONTINUOUS
 10
63.9322225123
 20
172.0746194172
  7
STANDARD
 40
2.5
  1
1-1/8"
 72
5
 11
73.5042069481
 21
172.0746194172
100
AcDbText
  0
LINE
  5
229
100
AcDbEntity
  8
0
100
AcDbLine
 62
2
  6
CONTINUOUS
 10
53.6350976031
 20
159.8527124843
 11
53.6350976031
 21
178.5746194172
  0
LINE
  5
22A
100
AcDbEntity
  8
0
100
AcDbLine
 62
2
  6
CONTINUOUS
 10
83.8013318573
 20
141.8735820201
 11
83.8013318573
 21
178.5746194172
  0
LINE
  5
22B
100
AcDbEntity
  8
0
100
AcDbLine
 62
2
  6
CONTINUOUS
 10
53.6350976031
 20
177.0746194172
 11
62.8135454695
 21
177.0746194172
  0
LINE
  5
22C
100
AcDbEntity
  8
0
100
AcDbLine
 62
2
  6
CONTINUOUS
 10
83.8013318573
 20
177.0746194172
 11
74.6228839909
 21
177.0746194172
  0
INSERT
  5
22D
100
AcDbEntity
  8
0
100
AcDbBlockReference
 62
2
  6
CONTINUOUS
  2
_FILLED
 10
53.6350976031
 20
177.0746194172
 41
3.5
 42
3.5
 43
3.5
 50
180.0
  0
INSERT
  5
22E
100
AcDbEntity
  8
0
100
AcDbBlockReference
 62
2
  6
CONTINUOUS
  2
_FILLED
 10
83.8013318573
 20
177.0746194172
 41
3.5
 42
3.5
 43
3.5
  0
ENDBLK
  5
22F
100
AcDbEntity
  8
0
  6
BYBLOCK
 62
0
100
AcDbBlockEnd
  0
BLOCK
  5
230
100
AcDbEntity
  8
0
100
AcDbBlockBegin
 62
2
  6
CONTINUOUS
  2
*D2
 70
65
 10
0.0
 20
0.0
  3
*D2
  1

  0
TEXT
  5
231
100
AcDbEntity
  8
0
100
AcDbText
 62
2
  6
CONTINUOUS
 10
36.3249380601
 20
111.9777124843
  7
STANDARD
 40
2.5
  1
51
 72
5
 11
39.9630703559
 21
111.9777124843
100
AcDbText
  0
TEXT
  5
232
100
AcDbEntity
  8
0
100
AcDbText
 62
2
  6
CONTINUOUS
 10
39.9630703559
 20
111.9777124843
  7
STANDARD
 40
2.5
  1
mm
 72
5
 11
45.6342765815
 21
111.9777124843
100
AcDbText
  0
TEXT
  5
233
100
AcDbEntity
  8
0
100
AcDbText
 62
2
  6
CONTINUOUS
 10
39.2286345582
 20
108.2277124843
  7
STANDARD
 40
2.5
  1
2"
 72
5
 11
42.7305800835
 21
108.2277124843
100
AcDbText
  0
LINE
  5
234
100
AcDbEntity
  8
0
100
AcDbLine
 62
2
  6
CONTINUOUS
 10
52.6350976031
 20
138.8527124843
 11
39.4796073208
 21
138.8527124843
  0
LINE
  5
235
100
AcDbEntity
  8
0
100
AcDbLine
 62
2
  6
CONTINUOUS
 10
52.6350976031
 20
87.6027124843
 11
39.4796073208
 21
87.6027124843
  0
LINE
  5
236
100
AcDbEntity
  8
0
100
AcDbLine
 62
2
  6
CONTINUOUS
 10
40.9796073208
 20
138.8527124843
 11
40.9796073208
 21
115.7277124843
  0
LINE
  5
237
100
AcDbEntity
  8
0
100
AcDbLine
 62
2
  6
CONTINUOUS
 10
40.9796073208
 20
87.6027124843
 11
40.9796073208
 21
106.9777124843
  0
INSERT
  5
238
100
AcDbEntity
  8
0
100
AcDbBlockReference
 62
2
  6
CONTINUOUS
  2
_FILLED
 10
40.9796073208
 20
138.8527124843
 41
3.5
 42
3.5
 43
3.5
 50
90.0
  0
INSERT
  5
239
100
AcDbEntity
  8
0
100
AcDbBlockReference
 62
2
  6
CONTINUOUS
  2
_FILLED
 10
40.9796073208
 20
87.6027124843
 41
3.5
 42
3.5
 43
3.5
 50
270.0
  0
ENDBLK
  5
23A
100
AcDbEntity
  8
0
  6
BYBLOCK
 62
0
100
AcDbBlockEnd
  0
BLOCK
  5
23B
100
AcDbEntity
  8
0
100
AcDbBlockBegin
 62
2
  6
CONTINUOUS
  2
*D3
 70
65
 10
0.0
 20
0.0
  3
*D3
  1

  0
TEXT
  5
23C
100
AcDbEntity
  8
0
100
AcDbText
 62
2
  6
CONTINUOUS
 10
54.5262488183
 20
118.0952264426
  7
STANDARD
 40
2.5
  1
9
 72
5
 11
56.3453149661
 21
118.0952264426
100
AcDbText
  0
TEXT
  5
23D
100
AcDbEntity
  8
0
100
AcDbText
 62
2
  6
CONTINUOUS
 10
56.3453149661
 20
118.0952264426
  7
STANDARD
 40
2.5
  1
mm
 72
5
 11
62.0165211918
 21
118.0952264426
100
AcDbText
  0
TEXT
  5
23E
100
AcDbEntity
  8
0
100
AcDbText
 62
2
  6
CONTINUOUS
 10
55.0029025148
 20
114.3452264426
  7
STANDARD
 40
2.5
  1
3/8"
 72
5
 11
61.5398674953
 21
114.3452264426
100
AcDbText
  0
LINE
  5
23F
100
AcDbEntity
  8
0
100
AcDbLine
 62
2
  6
CONTINUOUS
 10
53.6350976031
 20
137.8527124843
 11
53.6350976031
 21
117.8452264426
  0
LINE
  5
240
100
AcDbEntity
  8
0
100
AcDbLine
 62
2
  6
CONTINUOUS
 10
62.6350976031
 20
119.3452264426
 11
67.6350976031
 21
119.3452264426
  0
LINE
  5
241
100
AcDbEntity
  8
0
100
AcDbLine
 62
2
  6
CONTINUOUS
 10
53.6350976031
 20
119.3452264426
 11
48.6350976031
 21
119.3452264426
  0
INSERT
  5
242
100
AcDbEntity
  8
0
100
AcDbBlockReference
 62
2
  6
CONTINUOUS
  2
_FILLED
 10
62.6350976031
 20
119.3452264426
 41
3.5
 42
3.5
 43
3.5
 50
180.0
  0
INSERT
  5
243
100
AcDbEntity
  8
0
100
AcDbBlockReference
 62
2
  6
CONTINUOUS
  2
_FILLED
 10
53.6350976031
 20
119.3452264426
 41
3.5
 42
3.5
 43
3.5
  0
ENDBLK
  5
244
100
AcDbEntity
  8
0
  6
BYBLOCK
 62
0
100
AcDbBlockEnd
  0
BLOCK
  5
245
100
AcDbEntity
  8
0
100
AcDbBlockBegin
 62
2
  6
CONTINUOUS
  2
*D4
 70
65
 10
0.0
 20
0.0
  3
*D4
  1

  0
TEXT
  5
246
100
AcDbEntity
  8
0
100
AcDbText
 62
2
  6
CONTINUOUS
 10
53.9804283424
 20
166.8100324321
  7
STANDARD
 40
2.5
  1
10
 72
5
 11
57.6185606381
 21
166.8100324321
100
AcDbText
  0
TEXT
  5
247
100
AcDbEntity
  8
0
100
AcDbText
 62
2
  6
CONTINUOUS
 10
57.6185606381
 20
166.8100324321
  7
STANDARD
 40
2.5
  1
mm
 72
5
 11
63.2897668638
 21
166.8100324321
100
AcDbText
  0
TEXT
  5
248
100
AcDbEntity
  8
0
100
AcDbText
 62
2
  6
CONTINUOUS
 10
55.3666151128
 20
163.0600324321
  7
STANDARD
 40
2.5
  1
3/8"
 72
5
 11
61.9035800934
 21
163.0600324321
100
AcDbText
  0
LINE
  5
249
100
AcDbEntity
  8
0
100
AcDbLine
 62
2
  6
CONTINUOUS
 10
53.6350976031
 20
159.8527124843
 11
53.6350976031
 21
169.5600324321
  0
LINE
  5
24A
100
AcDbEntity
  8
0
100
AcDbLine
 62
2
  6
CONTINUOUS
 10
63.6350976031
 20
159.5908532686
 11
63.6350976031
 21
169.5600324321
  0
LINE
  5
24B
100
AcDbEntity
  8
0
100
AcDbLine
 62
2
  6
CONTINUOUS
 10
53.6350976031
 20
168.0600324321
 11
48.6350976031
 21
168.0600324321
  0
LINE
  5
24C
100
AcDbEntity
  8
0
100
AcDbLine
 62
2
  6
CONTINUOUS
 10
63.6350976031
 20
168.0600324321
 11
68.6350976031
 21
168.0600324321
  0
INSERT
  5
24D
100
AcDbEntity
  8
0
100
AcDbBlockReference
 62
2
  6
CONTINUOUS
  2
_FILLED
 10
53.6350976031
 20
168.0600324321
 41
3.5
 42
3.5
 43
3.5
  0
INSERT
  5
24E
100
AcDbEntity
  8
0
100
AcDbBlockReference
 62
2
  6
CONTINUOUS
  2
_FILLED
 10
63.6350976031
 20
168.0600324321
 41
3.5
 42
3.5
 43
3.5
 50
180.0
  0
ENDBLK
  5
24F
100
AcDbEntity
  8
0
  6
BYBLOCK
 62
0
100
AcDbBlockEnd
  0
BLOCK
  5
250
100
AcDbEntity
  8
0
100
AcDbBlockBegin
 62
2
  6
CONTINUOUS
  2
*D5
 70
65
 10
0.0
 20
0.0
  3
*D5
  1

  0
TEXT
  5
251
100
AcDbEntity
  8
0
100
AcDbText
 62
2
  6
CONTINUOUS
 10
55.9804283424
 20
58.2439898876
  7
STANDARD
 40
2.5
  1
14
 72
5
 11
59.6185606381
 21
58.2439898876
100
AcDbText
  0
TEXT
  5
252
100
AcDbEntity
  8
0
100
AcDbText
 62
2
  6
CONTINUOUS
 10
59.6185606381
 20
58.2439898876
  7
STANDARD
 40
2.5
  1
mm
 72
5
 11
65.2897668638
 21
58.2439898876
100
AcDbText
  0
TEXT
  5
253
100
AcDbEntity
  8
0
100
AcDbText
 62
2
  6
CONTINUOUS
 10
57.3666151128
 20
54.4939898876
  7
STANDARD
 40
2.5
  1
1/2"
 72
5
 11
63.9035800934
 21
54.4939898876
100
AcDbText
  0
LINE
  5
254
100
AcDbEntity
  8
0
100
AcDbLine
 62
2
  6
CONTINUOUS
 10
67.6350976031
 20
66.9693153863
 11
67.6350976031
 21
57.9939898876
  0
LINE
  5
255
100
AcDbEntity
  8
0
100
AcDbLine
 62
2
  6
CONTINUOUS
 10
53.6350976031
 20
66.6027124843
 11
53.6350976031
 21
57.9939898876
  0
LINE
  5
256
100
AcDbEntity
  8
0
100
AcDbLine
 62
2
  6
CONTINUOUS
 10
67.6350976031
 20
59.4939898876
 11
72.6350976031
 21
59.4939898876
  0
LINE
  5
257
100
AcDbEntity
  8
0
100
AcDbLine
 62
2
  6
CONTINUOUS
 10
53.6350976031
 20
59.4939898876
 11
48.6350976031
 21
59.4939898876
  0
INSERT
  5
258
100
AcDbEntity
  8
0
100
AcDbBlockReference
 62
2
  6
CONTINUOUS
  2
_FILLED
 10
67.6350976031
 20
59.4939898876
 41
3.5
 42
3.5
 43
3.5
 50
180.0
  0
INSERT
  5
259
100
AcDbEntity
  8
0
100
AcDbBlockReference
 62
2
  6
CONTINUOUS
  2
_FILLED
 10
53.6350976031
 20
59.4939898876
 41
3.5
 42
3.5
 43
3.5
  0
ENDBLK
  5
25A
100
AcDbEntity
  8
0
  6
BYBLOCK
 62
0
100
AcDbBlockEnd
  0
BLOCK
  5
25B
100
AcDbEntity
  8
0
100
AcDbBlockBegin
  2
*T1
 70
1
 10
0.0
 20
0.0
  3
*T1
  1

  0
LINE
  5
25C
100
AcDbEntity
  8
0
100
AcDbLine
 62
7
  6
CONTINUOUS
 10
0.0
 20
0.0
 11
148.0
 21
0.0
  0
LINE
  5
25D
100
AcDbEntity
  8
0
100
AcDbLine
 62
7
  6
CONTINUOUS
 10
0.0
 20
0.0
 11
0.0
 21
-43.0
  0
LINE
  5
25E
100
AcDbEntity
  8
0
100
AcDbLine
 62
7
  6
CONTINUOUS
 10
45.0
 20
-20.0
 11
148.0
 21
-20.0
  0
LINE
  5
25F
100
AcDbEntity
  8
0
100
AcDbLine
 62
7
  6
CONTINUOUS
 10
45.0
 20
-28.0
 11
148.0
 21
-28.0
  0
LINE
  5
260
100
AcDbEntity
  8
0
100
AcDbLine
 62
7
  6
CONTINUOUS
 10
0.0
 20
-43.0
 11
148.0
 21
-43.0
  0
LINE
  5
261
100
AcDbEntity
  8
0
100
AcDbLine
 62
7
  6
CONTINUOUS
 10
45.0
 20
0.0
 11
45.0
 21
-43.0
  0
LINE
  5
262
100
AcDbEntity
  8
0
100
AcDbLine
 62
7
  6
CONTINUOUS
 10
143.0
 20
0.0
 11
143.0
 21
-20.0
  0
LINE
  5
263
100
AcDbEntity
  8
0
100
AcDbLine
 62
7
  6
CONTINUOUS
 10
148.0
 20
0.0
 11
148.0
 21
-43.0
  0
TEXT
  5
264
100
AcDbEntity
  8
0
100
AcDbText
 62
7
  6
CONTINUOUS
 10
8.9659749243
 20
-9.175
  7
STANDARD
 40
8.0
  1
O
 72
5
 11
17.370644185
 21
-9.175
100
AcDbText
  0
TEXT
  5
265
100
AcDbEntity
  8
0
100
AcDbText
 62
7
  6
CONTINUOUS
 10
17.370644185
 20
-9.175
  7
STANDARD
 40
5.5
  1
RAC
 72
5
 11
33.9562472979
 21
-9.175
100
AcDbText
  0
TEXT
  5
266
100
AcDbEntity
  8
0
100
AcDbText
 62
7
  6
CONTINUOUS
 10
33.9562472979
 20
-4.425
  7
TEXTSTYLE_2
 40
3.0
  1
®
 72
5
 11
36.0340250757
 21
-4.425
100
AcDbText
  0
TEXT
  5
267
100
AcDbEntity
  8
0
100
AcDbText
 62
7
  6
CONTINUOUS
 10
9.5323389537
 20
-13.825
  7
TEXTSTYLE_2
 40
3.0
  1
D  E  C  O  R
 72
5
 11
34.3878945093
 21
-13.825
100
AcDbText
  0
TEXT
  5
268
100
AcDbEntity
  8
0
100
AcDbText
 62
7
  6
CONTINUOUS
 10
34.3878945093
 20
-13.825
  7
STANDARD
 40
2.5
  1
 
 72
5
 11
35.4676610463
 21
-13.825
100
AcDbText
  0
TEXT
  5
269
100
AcDbEntity
  8
0
100
AcDbText
 62
7
  6
CONTINUOUS
 10
52.8786764706
 20
-4.6
  7
TEXTSTYLE_3
 40
2.7
  1
Part name:
 72
5
 11
71.9375
 21
-4.6
100
AcDbText
  0
TEXT
  5
26A
100
AcDbEntity
  8
0
100
AcDbText
 62
7
  6
CONTINUOUS
 10
49.6908613445
 20
-11.35
  7
TEXTSTYLE_3
 40
2.7
  1
Designed by:
 72
5
 11
71.9375
 21
-11.35
100
AcDbText
  0
TEXT
  5
26B
100
AcDbEntity
  8
0
100
AcDbText
 62
7
  6
CONTINUOUS
 10
49.3732142857
 20
-18.1
  7
TEXTSTYLE_3
 40
2.7
  1
Designed on:
 72
5
 11
71.9375
 21
-18.1
100
AcDbText
  0
TEXT
  5
26C
100
AcDbEntity
  8
0
100
AcDbText
 62
2
  6
CONTINUOUS
 10
74.0625
 20
-4.6
  7
TEXTSTYLE_3
 40
2.7
  1
P9010
 72
5
 11
84.8851890756
 21
-4.6
100
AcDbText
  0
TEXT
  5
26D
100
AcDbEntity
  8
0
100
AcDbText
 62
2
  6
CONTINUOUS
 10
74.0625
 20
-11.35
  7
TEXTSTYLE_3
 40
2.7
  1
ORAC
 72
5
 11
83.9209033613
 21
-11.35
100
AcDbText
  0
TEXT
  5
26E
100
AcDbEntity
  8
0
100
AcDbText
 62
2
  6
CONTINUOUS
 10
74.0625
 20
-18.1
  7
TEXTSTYLE_3
 40
2.7
  1
29-Jul-1982
 72
5
 11
94.1763655462
 21
-18.1
100
AcDbText
  0
TEXT
  5
26F
100
AcDbEntity
  8
0
100
AcDbText
 62
2
  6
CONTINUOUS
 10
94.1763655462
 20
-18.1
  7
TEXTSTYLE_3
 40
2.7
  1
 
 72
5
 11
95.1406512605
 21
-18.1
100
AcDbText
  0
TEXT
  5
270
100
AcDbEntity
  8
0
100
AcDbText
 62
2
  6
CONTINUOUS
 10
146.5625
 20
-16.0
  7
TEXTSTYLE_3
 40
1.5
  1
Version: 
 50
90.0
 72
5
 11
146.5625
 21
-7.5294117647
100
AcDbText
  0
TEXT
  5
271
100
AcDbEntity
  8
0
100
AcDbText
 62
2
  6
CONTINUOUS
 10
146.5625
 20
-7.5294117647
  7
TEXTSTYLE_3
 40
1.5
  1
1.0
 50
90.0
 72
5
 11
146.5625
 21
-4.5357142857
100
AcDbText
  0
TEXT
  5
272
100
AcDbEntity
  8
0
100
AcDbText
 62
2
  6
CONTINUOUS
 10
146.5625
 20
-4.5357142857
  7
TEXTSTYLE_3
 40
1.5
  1
 
 50
90.0
 72
5
 11
146.5625
 21
-4.0
100
AcDbText
  0
TEXT
  5
273
100
AcDbEntity
  8
0
100
AcDbText
 62
7
  6
CONTINUOUS
 10
9.6586134454
 20
-22.75
  7
TEXTSTYLE_3
 40
2.5
  1
Biekorfstraat 32
 72
5
 11
35.3413865546
 21
-22.75
100
AcDbText
  0
TEXT
  5
274
100
AcDbEntity
  8
0
100
AcDbText
 62
7
  6
CONTINUOUS
 10
2.2584033613
 20
-26.5
  7
TEXTSTYLE_3
 40
2.5
  1
8400 Oostende - Belgium
 72
5
 11
42.7415966387
 21
-26.5
100
AcDbText
  0
TEXT
  5
275
100
AcDbEntity
  8
0
100
AcDbText
 62
7
  6
CONTINUOUS
 10
4.2699579832
 20
-30.25
  7
TEXTSTYLE_3
 40
2.5
  1
Tel  +32 (0)59 80 32 52
 72
5
 11
40.7300420168
 21
-30.25
100
AcDbText
  0
TEXT
  5
276
100
AcDbEntity
  8
0
100
AcDbText
 62
7
  6
CONTINUOUS
 10
5.7405462185
 20
-34.0
  7
TEXTSTYLE_3
 40
2.5
  1
www.oracdecor.com
 72
5
 11
39.2594537815
 21
-34.0
100
AcDbText
  0
TEXT
  5
277
100
AcDbEntity
  8
0
100
AcDbText
 62
7
  6
CONTINUOUS
 10
5.5777310924
 20
-37.75
  7
TEXTSTYLE_3
 40
2.5
  1
info@oracdecor.com
 72
5
 11
39.4222689076
 21
-37.75
100
AcDbText
  0
TEXT
  5
278
100
AcDbEntity
  8
0
100
AcDbText
 62
7
  6
CONTINUOUS
 10
46.0625
 20
-23.375
  7
TEXTSTYLE_3
 40
2.5
  1
Unless otherwise specified: all dimensions are in millimeters 
 72
5
 11
143.4259453782
 21
-23.375
100
AcDbText
  0
TEXT
  5
279
100
AcDbEntity
  8
0
100
AcDbText
 62
7
  6
CONTINUOUS
 10
46.0625
 20
-27.125
  7
TEXTSTYLE_3
 40
2.5
  1
and inches, scale 1:1, length 2 meters
 72
5
 11
106.1675420168
 21
-27.125
100
AcDbText
  0
TEXT
  5
27A
100
AcDbEntity
  8
0
100
AcDbText
 62
7
  6
CONTINUOUS
 10
46.0625
 20
-31.81
  7
TEXTSTYLE_3
 40
1.8
  1
All information in this document is Orac's exclusive property.  It may in no case 
 72
5
 11
137.5070378151
 21
-31.81
100
AcDbText
  0
TEXT
  5
27B
100
AcDbEntity
  8
0
100
AcDbText
 62
7
  6
CONTINUOUS
 10
46.0625
 20
-34.87
  7
TEXTSTYLE_3
 40
1.8
  1
be reproduced, even partly, be communicated to a third party or used for any 
 72
5
 11
136.3272058824
 21
-34.87
100
AcDbText
  0
TEXT
  5
27C
100
AcDbEntity
  8
0
100
AcDbText
 62
7
  6
CONTINUOUS
 10
46.0625
 20
-37.93
  7
TEXTSTYLE_3
 40
1.8
  1
possible purpose without ORAC's express written permission. Further legal 
 72
5
 11
132.7952731092
 21
-37.93
100
AcDbText
  0
TEXT
  5
27D
100
AcDbEntity
  8
0
100
AcDbText
 62
7
  6
CONTINUOUS
 10
46.0625
 20
-40.99
  7
TEXTSTYLE_3
 40
1.8
  1
information can be found at https://www.oracdecor.com/en/general-sales-conditions
 72
5
 11
145.349894958
 21
-40.99
100
AcDbText
  0
ENDBLK
  5
27E
100
AcDbEntity
  8
0
  6
BYBLOCK
 62
0
100
AcDbBlockEnd
  0
ENDSEC
  0
SECTION
  2
ENTITIES
  0
DIMENSION
  5
27F
100
AcDbEntity
  8
0
100
AcDbDimension
 62
2
  6
CONTINUOUS
  2
*D0
 10
28.5654136826
 20
67.6027124843
 11
28.5654136826
 21
111.3527124843
 70
160
 71
2
 72
2
 41
0.9
 42
91.25
  1
<>mm\P3-5/8"
  3
DIMSTYLE_1
100
AcDbAlignedDimension
 13
53.6350976031
 23
158.8527124843
 14
53.6350976031
 24
67.6027124843
 50
270.0
100
AcDbRotatedDimension
  0
DIMENSION
  5
280
100
AcDbEntity
  8
0
100
AcDbDimension
 62
2
  6
CONTINUOUS
  2
*D1
 10
83.8013318573
 20
177.0746194172
 11
68.7182147302
 21
175.1996194172
 70
160
 71
2
 72
2
 41
0.9
 42
30.1662342542
  1
<>mm\P1-1/8"
  3
DIMSTYLE_1
100
AcDbAlignedDimension
 13
53.6350976031
 23
158.8527124843
 14
83.8013318573
 24
140.8735820201
100
AcDbRotatedDimension
  0
DIMENSION
  5
281
100
AcDbEntity
  8
0
100
AcDbDimension
 62
2
  6
CONTINUOUS
  2
*D2
 10
40.9796073208
 20
87.6027124843
 11
40.9796073208
 21
111.3527124843
 70
160
 71
2
 72
2
 41
0.9
 42
51.25
  1
<>mm\P2"
  3
DIMSTYLE_1
100
AcDbAlignedDimension
 13
53.6350976031
 23
138.8527124843
 14
53.6350976031
 24
87.6027124843
 50
270.0
100
AcDbRotatedDimension
  0
DIMENSION
  5
282
100
AcDbEntity
  8
0
100
AcDbDimension
 62
2
  6
CONTINUOUS
  2
*D3
 10
53.6350976031
 20
119.3452264426
 11
58.271385005
 21
117.4702264426
 70
160
 71
2
 72
2
 41
0.9
 42
9.0
  1
<>mm\P3/8"
  3
DIMSTYLE_2
100
AcDbAlignedDimension
 13
62.6350976031
 23
130.9891434888
 14
53.6350976031
 24
138.8527124843
 50
180.0
100
AcDbRotatedDimension
  0
DIMENSION
  5
283
100
AcDbEntity
  8
0
100
AcDbDimension
 62
2
  6
CONTINUOUS
  2
*D4
 10
63.6350976031
 20
168.0600324321
 11
58.6350976031
 21
166.1850324321
 70
160
 71
2
 72
2
 41
0.9
 42
10.0
  1
<>mm\P3/8"
  3
DIMSTYLE_2
100
AcDbAlignedDimension
 13
53.6350976031
 23
158.8527124843
 14
63.6350976031
 24
158.5908532686
100
AcDbRotatedDimension
  0
DIMENSION
  5
284
100
AcDbEntity
  8
0
100
AcDbDimension
 62
2
  6
CONTINUOUS
  2
*D5
 10
53.6350976031
 20
59.4939898876
 11
60.6350976031
 21
57.6189898876
 70
160
 71
2
 72
2
 41
0.9
 42
14.0
  1
<>mm\P1/2"
  3
DIMSTYLE_2
100
AcDbAlignedDimension
 13
67.6350976031
 23
67.9693153863
 14
53.6350976031
 24
67.6027124843
 50
180.0
100
AcDbRotatedDimension
  0
ACAD_TABLE
  5
285
100
AcDbEntity
  8
0
 62
2
  6
CONTINUOUS
100
AcDbBlockReference
  2
*T1
 10
144.0
 20
48.0
 30
0.0
100
AcDbTable
342
       2D6
343
213
 11
1.0
 21
0.0
 31
0.0
 90
22
 91
4
 92
4
 93
0
 94
0
 95
0
 96
0
141
15.0
141
5.0
141
8.0
141
15.0
142
45.0
142
28.0
142
70.0
142
5.0
171
1
172
0
173
0
174
0
175
1
176
1
 91
41
178
0
145
0.0
301
CELL_VALUE
 90
4
  1
\A1;O\H5.5;RAC\fCG Triumvirate;\H3.0;\S®^ ;\PD  E  C  O  R\fCG Times;\H2.5; 
304
ACVALUE_END
170
5
140
8.0
 64
7
171
1
172
0
173
0
174
0
175
1
176
2
 91
57
178
0
145
0.0
  7
TEXTSTYLE_3
301
CELL_VALUE
 90
4
  1
Part name:\PDesigned by:\PDesigned on:
304
ACVALUE_END
170
6
140
2.7
 64
7
171
1
172
0
173
0
174
0
175
1
176
2
 91
49
178
0
145
0.0
  7
TEXTSTYLE_3
301
CELL_VALUE
 90
4
  1
P9010\PORAC\P29-Jul-1982 
304
ACVALUE_END
170
4
140
2.7
171
1
172
0
173
0
174
0
175
1
176
2
 91
49
178
0
145
0.0
  7
TEXTSTYLE_3
301
CELL_VALUE
 90
4
  1
Version: 1.0 
304
ACVALUE_END
170
6
140
1.5
171
1
172
0
173
0
174
0
175
1
176
3
 91
57
178
0
145
0.0
  7
TEXTSTYLE_3
301
CELL_VALUE
 90
4
  1
Biekorfstraat 32\P8400 Oostende - Belgium\PTel  +32 (0)59 80 32 52\Pwww.oracdecor.com\Pinfo@oracdecor.com
304
ACVALUE_END
170
5
140
2.5
 64
7
171
1
172
0
173
1
174
0
175
1
176
1
 91
1
178
0
145
0.0
170
1
171
1
172
0
173
1
174
0
175
1
176
1
 91
1
178
0
145
0.0
170
1
171
1
172
0
173
1
174
0
175
1
176
1
 91
1
178
0
145
0.0
170
1
171
1
172
0
173
1
174
0
175
1
176
1
 91
1
178
0
145
0.0
170
1
171
1
172
0
173
0
174
0
175
3
176
1
 91
57
178
0
145
0.0
  7
TEXTSTYLE_3
301
CELL_VALUE
 90
4
  1
Unless otherwise specified: all dimensions are in millimeters \Pand inches, scale 1:1, length 2 meters
304
ACVALUE_END
170
4
140
2.5
 64
7
171
1
172
0
173
1
174
0
175
1
176
1
 91
1
178
0
145
0.0
170
1
171
1
172
0
173
1
174
0
175
1
176
1
 91
1
178
0
145
0.0
170
1
171
1
172
0
173
1
174
0
175
1
176
1
 91
1
178
0
145
0.0
170
1
171
1
172
0
173
0
174
0
175
3
176
1
 91
57
178
0
145
0.0
  7
TEXTSTYLE_3
301
CELL_VALUE
 90
4
  2
All information in this document is Orac's exclusive property.  It may in no case \Pbe reproduced, even partly, be communicated to a third party or used for any \Ppossible purpose without ORAC's express written permission. Further legal \Pinformation
  1
 can be found at https://www.oracdecor.com/en/general-sales-conditions
304
ACVALUE_END
170
4
140
1.8
 64
7
171
1
172
0
173
1
174
0
175
1
176
1
 91
1
178
0
145
0.0
170
1
171
1
172
0
173
1
174
0
175
1
176
1
 91
1
178
0
145
0.0
170
1
  0
LINE
  5
286
100
AcDbEntity
  8
0
100
AcDbLine
 62
5
  6
CONTINUOUS
 10
0.0
 20
0.0
 11
0.0
 21
210.0
  0
LINE
  5
287
100
AcDbEntity
  8
0
100
AcDbLine
 62
7
  6
CONTINUOUS
 10
5.0
 20
5.0
 11
5.0
 21
195.0
  0
LINE
  5
288
100
AcDbEntity
  8
0
100
AcDbLine
 62
5
  6
CONTINUOUS
 10
0.0
 20
0.0
 11
297.0
 21
0.0
  0
LINE
  5
289
100
AcDbEntity
  8
0
100
AcDbLine
 62
7
  6
CONTINUOUS
 10
5.0
 20
5.0
 11
292.0
 21
5.0
  0
LINE
  5
28A
100
AcDbEntity
  8
0
100
AcDbLine
 62
4
  6
CONTINUOUS
 10
148.5
 20
195.0
 11
148.5
 21
205.0
  0
LINE
  5
28B
100
AcDbEntity
  8
0
100
AcDbLine
 62
7
  6
CONTINUOUS
 10
5.0
 20
195.0
 11
292.0
 21
195.0
  0
LINE
  5
28C
100
AcDbEntity
  8
0
100
AcDbLine
 62
5
  6
CONTINUOUS
 10
0.0
 20
210.0
 11
297.0
 21
210.0
  0
LINE
  5
28D
100
AcDbEntity
  8
0
100
AcDbLine
 62
7
  6
CONTINUOUS
 10
292.0
 20
5.0
 11
292.0
 21
195.0
  0
LINE
  5
28E
100
AcDbEntity
  8
0
100
AcDbLine
 62
5
  6
CONTINUOUS
 10
297.0
 20
0.0
 11
297.0
 21
210.0
  0
LINE
  5
28F
100
AcDbEntity
  8
0
100
AcDbLine
 62
7
  6
CONTINUOUS
 10
150.9120436877
 20
161.047767894
 11
150.8857765374
 21
152.7769908386
  0
LINE
  5
290
100
AcDbEntity
  8
0
100
AcDbLine
 62
7
  6
CONTINUOUS
 10
150.8747933343
 20
149.3186931762
 11
150.8485261839
 21
141.0479161208
  0
LINE
  5
291
100
AcDbEntity
  8
0
100
AcDbLine
 62
7
  6
CONTINUOUS
 10
150.6857625803
 20
89.7982959518
 11
150.6602893988
 21
81.7775170435
  0
LINE
  5
292
100
AcDbEntity
  8
0
100
AcDbLine
 62
7
  6
CONTINUOUS
 10
150.6493061956
 20
78.3192193812
 11
150.6222450765
 21
69.7984441785
  0
LINE
  5
293
100
AcDbEntity
  8
0
100
AcDbLine
 62
7
  6
CONTINUOUS
 10
159.7025939485
 20
97.6324189036
 11
159.8154101247
 21
133.1550176406
  0
LINE
  5
294
100
AcDbEntity
  8
0
100
AcDbLine
 62
7
  6
CONTINUOUS
 10
164.6107434908
 20
70.1193300637
 11
249.4283228115
 21
74.1987360953
  0
LINE
  5
295
100
AcDbEntity
  8
0
100
AcDbLine
 62
7
  6
CONTINUOUS
 10
164.6107434908
 20
70.1193300637
 11
150.6222450765
 21
69.7984441785
  0
LINE
  5
296
100
AcDbEntity
  8
0
100
AcDbLine
 62
7
  6
CONTINUOUS
 10
167.6146306156
 20
72.1880765021
 11
164.6170952411
 21
72.119315241
  0
LINE
  5
297
100
AcDbEntity
  8
0
100
AcDbLine
 62
7
  6
CONTINUOUS
 10
164.6170952411
 20
72.119315241
 11
164.6107434908
 21
70.1193300637
  0
LINE
  5
298
100
AcDbEntity
  8
0
100
AcDbLine
 62
7
  6
CONTINUOUS
 10
167.6146306156
 20
72.1880765021
 11
252.4322099363
 21
76.2674825337
  0
LINE
  5
299
100
AcDbEntity
  8
0
100
AcDbLine
 62
7
  6
CONTINUOUS
 10
169.7733394022
 20
122.7241514144
 11
169.6779266469
 21
92.6813939554
  0
LINE
  5
29A
100
AcDbEntity
  8
0
100
AcDbLine
 62
7
  6
CONTINUOUS
 10
170.8740627033
 20
154.7206489445
 11
170.8645350777
 21
151.7206711785
  0
LINE
  5
29B
100
AcDbEntity
  8
0
100
AcDbLine
 62
7
  6
CONTINUOUS
 10
173.7919517083
 20
129.7110383065
 11
173.7824240827
 21
126.7110605405
  0
LINE
  5
29C
100
AcDbEntity
  8
0
100
AcDbLine
 62
7
  6
CONTINUOUS
 10
169.6779266469
 20
92.6813939554
 11
254.4955059677
 21
96.7607999871
  0
LINE
  5
29D
100
AcDbEntity
  8
0
100
AcDbLine
 62
7
  6
CONTINUOUS
 10
150.6857625803
 20
89.7982959518
 11
158.4166760463
 21
95.1791581955
  0
LINE
  5
29E
100
AcDbEntity
  8
0
100
AcDbLine
 62
7
  6
CONTINUOUS
 10
158.5451013704
 20
135.6166327722
 11
150.8485261839
 21
141.0479161208
  0
LINE
  5
29F
100
AcDbEntity
  8
0
100
AcDbLine
 62
7
  6
CONTINUOUS
 10
169.7733394022
 20
122.7241514144
 11
254.5909187229
 21
126.8035574461
  0
LINE
  5
2A0
100
AcDbEntity
  8
0
100
AcDbLine
 62
7
  6
CONTINUOUS
 10
173.7824240827
 20
126.7110605405
 11
258.6000034034
 21
130.7904665722
  0
LINE
  5
2A1
100
AcDbEntity
  8
0
100
AcDbLine
 62
7
  6
CONTINUOUS
 10
173.7919517083
 20
129.7110383065
 11
258.609531029
 21
133.7904443382
  0
LINE
  5
2A2
100
AcDbEntity
  8
0
100
AcDbLine
 62
7
  6
CONTINUOUS
 10
170.8645350777
 20
151.7206711785
 11
255.6821143984
 21
155.8000772102
  0
LINE
  5
2A3
100
AcDbEntity
  8
0
100
AcDbLine
 62
7
  6
CONTINUOUS
 10
170.8740627033
 20
154.7206489445
 11
255.691642024
 21
158.8000549761
  0
LINE
  5
2A4
100
AcDbEntity
  8
0
100
AcDbLine
 62
7
  6
CONTINUOUS
 10
166.8776815235
 20
154.733710173
 11
251.6952608442
 21
158.8131162047
  0
LINE
  5
2A5
100
AcDbEntity
  8
0
100
AcDbLine
 62
7
  6
CONTINUOUS
 10
166.8776815235
 20
154.733710173
 11
170.8740627033
 21
154.7206489445
  0
LINE
  5
2A6
100
AcDbEntity
  8
0
100
AcDbLine
 62
7
  6
CONTINUOUS
 10
249.4344350342
 20
76.1233008545
 11
249.4283228115
 21
74.1987360953
  0
LINE
  5
2A7
100
AcDbEntity
  8
0
100
AcDbLine
 62
7
  6
CONTINUOUS
 10
160.902165005
 20
160.7532575478
 11
245.7197443257
 21
164.8326635794
  0
LINE
  5
2A8
100
AcDbEntity
  8
0
100
AcDbLine
 62
7
  6
CONTINUOUS
 10
251.6952608442
 20
158.8131162047
 11
255.691642024
 21
158.8000549761
  0
LINE
  5
2A9
100
AcDbEntity
  8
0
100
AcDbLine
 62
7
  6
CONTINUOUS
 10
150.9120436877
 20
161.047767894
 11
160.902165005
 21
160.7532575478
  0
LINE
  5
2AA
100
AcDbEntity
  8
0
100
AcDbLine
 62
7
  6
CONTINUOUS
 10
254.5909187229
 20
126.8035574461
 11
254.4955059677
 21
96.7607999871
  0
LINE
  5
2AB
100
AcDbEntity
  8
0
100
AcDbLine
 62
7
  6
CONTINUOUS
 10
255.691642024
 20
158.8000549761
 11
255.6821143984
 21
155.8000772102
  0
LINE
  5
2AC
100
AcDbEntity
  8
0
100
AcDbLine
 62
7
  6
CONTINUOUS
 10
258.609531029
 20
133.7904443382
 11
258.6000034034
 21
130.7904665722
  0
LINE
  5
2AD
100
AcDbEntity
  8
0
100
AcDbLine
 62
7
  6
CONTINUOUS
 10
150.9120436877
 20
161.047767894
 11
235.7296230085
 21
165.1271739257
  0
LINE
  5
2AE
100
AcDbEntity
  8
0
100
AcDbLine
 62
7
  6
CONTINUOUS
 10
235.7296230085
 20
165.1271739257
 11
245.7197443257
 21
164.8326635794
  0
LINE
  5
2AF
100
AcDbEntity
  8
0
100
AcDbLine
 62
7
  6
CONTINUOUS
 10
67.6350976031
 20
67.9693153863
 11
53.6350976031
 21
67.6027124843
  0
LINE
  5
2B0
100
AcDbEntity
  8
0
100
AcDbLine
 62
7
  6
CONTINUOUS
 10
70.6350976031
 20
70.047873151
 11
67.6350976031
 21
69.9693153863
  0
LINE
  5
2B1
100
AcDbEntity
  8
0
100
AcDbLine
 62
7
  6
CONTINUOUS
 10
53.6350976031
 20
158.8527124843
 11
53.6350976031
 21
150.5818741309
  0
LINE
  5
2B2
100
AcDbEntity
  8
0
100
AcDbLine
 62
7
  6
CONTINUOUS
 10
53.6350976031
 20
147.1235508377
 11
53.6350976031
 21
138.8527124843
  0
LINE
  5
2B3
100
AcDbEntity
  8
0
100
AcDbLine
 62
7
  6
CONTINUOUS
 10
53.6350976031
 20
87.6027124843
 11
53.6350976031
 21
79.5818741309
  0
LINE
  5
2B4
100
AcDbEntity
  8
0
100
AcDbLine
 62
7
  6
CONTINUOUS
 10
53.6350976031
 20
76.1235508377
 11
53.6350976031
 21
67.6027124843
  0
LINE
  5
2B5
100
AcDbEntity
  8
0
100
AcDbLine
 62
7
  6
CONTINUOUS
 10
62.6350976031
 20
95.4662814799
 11
62.6350976031
 21
130.9891434888
  0
LINE
  5
2B6
100
AcDbEntity
  8
0
100
AcDbLine
 62
7
  6
CONTINUOUS
 10
67.6350976031
 20
69.9693153863
 11
67.6350976031
 21
67.9693153863
  0
LINE
  5
2B7
100
AcDbEntity
  8
0
100
AcDbLine
 62
7
  6
CONTINUOUS
 10
72.6350976031
 20
120.5908532686
 11
72.6350976031
 21
90.547873151
  0
LINE
  5
2B8
100
AcDbEntity
  8
0
100
AcDbLine
 62
7
  6
CONTINUOUS
 10
73.6350976031
 20
152.5908532686
 11
73.6350976031
 21
149.5908532686
  0
LINE
  5
2B9
100
AcDbEntity
  8
0
100
AcDbLine
 62
7
  6
CONTINUOUS
 10
76.6350976031
 20
127.5908532686
 11
76.6350976031
 21
124.5908532686
  0
LINE
  5
2BA
100
AcDbEntity
  8
0
100
AcDbLine
 62
7
  6
CONTINUOUS
 10
53.6350976031
 20
87.6027124843
 11
61.3558269121
 21
93.008825347
  0
LINE
  5
2BB
100
AcDbEntity
  8
0
100
AcDbLine
 62
7
  6
CONTINUOUS
 10
61.3558269121
 20
133.4465996216
 11
53.6350976031
 21
138.8527124843
  0
LINE
  5
2BC
100
AcDbEntity
  8
0
100
AcDbLine
 62
7
  6
CONTINUOUS
 10
69.6350976031
 20
152.5908532686
 11
73.6350976031
 21
152.5908532686
  0
LINE
  5
2BD
100
AcDbEntity
  8
0
100
AcDbLine
 62
7
  6
CONTINUOUS
 10
53.6350976031
 20
158.8527124843
 11
63.6350976031
 21
158.5908532686
  0
ARC
  5
2BE
100
AcDbEntity
  8
0
100
AcDbCircle
 62
7
  6
CONTINUOUS
 10
251.7179741934
 20
164.8107259205
 40
5.997965296
100
AcDbArc
 50
179.790449901
 51
269.7830180875
  0
ARC
  5
2BF
100
AcDbEntity
  8
0
100
AcDbCircle
 62
7
  6
CONTINUOUS
 10
166.9003948727
 20
160.7313198889
 40
5.997965296
100
AcDbArc
 50
179.790449901
 51
269.7830180875
  0
ARC
  5
2C0
100
AcDbEntity
  8
0
100
AcDbCircle
 62
7
  6
CONTINUOUS
 10
258.5892682491
 20
126.7926693927
 40
3.9981930879
100
AcDbArc
 50
95.664069986
 51
179.8439761313
  0
ARC
  5
2C1
100
AcDbEntity
  8
0
100
AcDbCircle
 62
7
  6
CONTINUOUS
 10
173.7714834068
 20
122.7133944279
 40
3.9979683819
100
AcDbArc
 50
92.784542744
 51
179.8458463624
  0
ARC
  5
2C2
100
AcDbEntity
  8
0
100
AcDbCircle
 62
7
  6
CONTINUOUS
 10
173.769437135
 20
122.7179439035
 40
3.9931377559
100
AcDbArc
 50
89.8136556644
 51
92.7583876018
  0
ARC
  5
2C3
100
AcDbEntity
  8
0
100
AcDbCircle
 62
7
  6
CONTINUOUS
 10
156.8143067322
 20
133.1649252918
 40
3.0011046296
100
AcDbArc
 50
359.810848058
 51
54.7796370592
  0
ARC
  5
2C4
100
AcDbEntity
  8
0
100
AcDbCircle
 62
7
  6
CONTINUOUS
 10
156.7021145148
 20
97.6414754786
 40
3.0004750643
100
AcDbArc
 50
304.8502782984
 51
359.8270603215
  0
ARC
  5
2C5
100
AcDbEntity
  8
0
100
AcDbCircle
 62
7
  6
CONTINUOUS
 10
150.3787021432
 20
151.0493985589
 40
1.8005190492
100
AcDbArc
 50
285.99447551
 51
73.642240382
  0
ARC
  5
2C6
100
AcDbEntity
  8
0
100
AcDbCircle
 62
7
  6
CONTINUOUS
 10
150.1532150047
 20
80.0499247638
 40
1.8005190491
100
AcDbArc
 50
285.9944755082
 51
73.642240383
  0
ARC
  5
2C7
100
AcDbEntity
  8
0
100
AcDbCircle
 62
7
  6
CONTINUOUS
 10
69.6350976031
 20
158.5908532686
 40
6.0
100
AcDbArc
 50
180.0
 51
270.0
  0
ARC
  5
2C8
100
AcDbEntity
  8
0
100
AcDbCircle
 62
7
  6
CONTINUOUS
 10
76.6350976031
 20
120.5908532686
 40
4.0
100
AcDbArc
 50
90.0
 51
180.0
  0
ARC
  5
2C9
100
AcDbEntity
  8
0
100
AcDbCircle
 62
7
  6
CONTINUOUS
 10
59.6350976031
 20
95.4662814799
 40
3.0
100
AcDbArc
 50
305.0
 51
360.0
  0
ARC
  5
2CA
100
AcDbEntity
  8
0
100
AcDbCircle
 62
7
  6
CONTINUOUS
 10
59.6350976031
 20
130.9891434888
 40
3.0
100
AcDbArc
 50
0.0
 51
55.0
  0
ARC
  5
2CB
100
AcDbEntity
  8
0
100
AcDbCircle
 62
7
  6
CONTINUOUS
 10
53.1350976031
 20
148.8527124843
 40
1.8
100
AcDbArc
 50
286.1276202132
 51
73.8723797868
  0
ARC
  5
2CC
100
AcDbEntity
  8
0
100
AcDbCircle
 62
7
  6
CONTINUOUS
 10
53.1350976031
 20
77.8527124843
 40
1.8
100
AcDbArc
 50
286.1276202132
 51
73.8723797868
  0
SPLINE
  5
2CD
100
AcDbEntity
  8
0
100
AcDbSpline
 62
7
  6
CONTINUOUS
 70
0
 71
3
 72
25
 73
21
 74
0
 42
0.0000001
 43
0.0000001
 44
0.0000000001
 40
0.0
 40
0.0
 40
0.0
 40
0.0
 40
0.0612402956
 40
0.1240704818
 40
0.1554759874
 40
0.1866803926
 40
0.2177009867
 40
0.2487348223
 40
0.2800413324
 40
0.3116513767
 40
0.3752975877
 40
0.4386091206
 40
0.5010189822
 40
0.5637154179
 40
0.6269448771
 40
0.6585359952
 40
0.6899272466
 40
0.7521998011
 40
0.8756566882
 40
1.0
 40
1.0
 40
1.0
 40
1.0
 10
255.6821143984
 20
155.8000772102
 30
0.0
 10
256.3016924329
 20
155.7440303649
 30
0.0
 10
257.5553629719
 20
155.610196619
 30
0.0
 10
259.1105004726
 20
155.3133615322
 30
0.0
 10
260.3314774225
 20
154.9442106978
 30
0.0
 10
261.2156917376
 20
154.5897771852
 30
0.0
 10
262.0548007023
 20
154.1454188651
 30
0.0
 10
262.8323713752
 20
153.5973794921
 30
0.0
 10
263.5320147144
 20
152.944056941
 30
0.0
 10
264.3578375017
 20
151.9552283598
 30
0.0
 10
265.1669033786
 20
150.5454510281
 30
0.0
 10
265.7423249851
 20
148.6922395608
 30
0.0
 10
265.8685504541
 20
146.7665427998
 30
0.0
 10
265.6211234885
 20
144.8603382653
 30
0.0
 10
265.1793226722
 20
143.3174093282
 30
0.0
 10
264.7216663185
 20
142.11933087
 30
0.0
 10
264.2078960863
 20
140.9546898814
 30
0.0
 10
263.1700866695
 20
139.0048303577
 30
0.0
 10
261.319364066
 20
136.436596606
 30
0.0
 10
259.5482588115
 20
134.6356118064
 30
0.0
 10
258.609531029
 20
133.7904443382
 30
0.0
  0
SPLINE
  5
2CE
100
AcDbEntity
  8
0
100
AcDbSpline
 62
7
  6
CONTINUOUS
 70
0
 71
3
 72
41
 73
37
 74
0
 42
0.0000001
 43
0.0000001
 44
0.0000000001
 40
0.0
 40
0.0
 40
0.0
 40
0.0
 40
0.0109609345
 40
0.0237004326
 40
0.0535442341
 40
0.0875365816
 40
0.1236943553
 40
0.1601497242
 40
0.1952809134
 40
0.2279684906
 40
0.2584215039
 40
0.2880296604
 40
0.3179574943
 40
0.3333005719
 40
0.3489349172
 40
0.3805528795
 40
0.4117875322
 40
0.427056099
 40
0.4420504885
 40
0.4717711308
 40
0.502169058
 40
0.5334394956
 40
0.5651474197
 40
0.5967027001
 40
0.6123104809
 40
0.6278217155
 40
0.6587036875
 40
0.6895991941
 40
0.7206151929
 40
0.7517480516
 40
0.7829043516
 40
0.8139629463
 40
0.8449076161
 40
0.8757692164
 40
0.9374764229
 40
1.0
 40
1.0
 40
1.0
 40
1.0
 10
254.4955059677
 20
96.7607999871
 30
0.0
 10
254.5858328721
 20
96.7176613648
 30
0.0
 10
254.7842184778
 20
96.6308652475
 30
0.0
 10
255.2382684803
 20
96.4493104721
 30
0.0
 10
255.8934346787
 20
96.2046650116
 30
0.0
 10
256.7458141826
 20
95.8769028371
 30
0.0
 10
257.6420083676
 20
95.495621772
 30
0.0
 10
258.522096345
 20
95.0533148996
 30
0.0
 10
259.3285406588
 20
94.542725459
 30
0.0
 10
260.0066341437
 20
93.9455792543
 30
0.0
 10
260.5019498939
 20
93.2487720285
 30
0.0
 10
260.8179694495
 20
92.4833079023
 30
0.0
 10
260.9453331841
 20
91.8070357324
 30
0.0
 10
260.9774639161
 20
91.2513136495
 30
0.0
 10
260.9659518452
 20
90.6792749963
 30
0.0
 10
260.8682941555
 20
89.966053424
 30
0.0
 10
260.6515606154
 20
89.2814034066
 30
0.0
 10
260.3993024232
 20
88.7783671364
 30
0.0
 10
260.0953332419
 20
88.3208841395
 30
0.0
 10
259.610627506
 20
87.8270781408
 30
0.0
 10
258.9311012723
 20
87.3391925403
 30
0.0
 10
258.1954727349
 20
86.907041071
 30
0.0
 10
257.4415572286
 20
86.4868491084
 30
0.0
 10
256.826571633
 20
86.1101760588
 30
0.0
 10
256.3652556678
 20
85.7707026626
 30
0.0
 10
255.9308568397
 20
85.4070566478
 30
0.0
 10
255.4297679839
 20
84.9077417859
 30
0.0
 10
254.8934786934
 20
84.2499852262
 30
0.0
 10
254.4164935641
 20
83.5456186942
 30
0.0
 10
253.9928792698
 20
82.8055077248
 30
0.0
 10
253.6162573375
 20
82.0402372879
 30
0.0
 10
253.280871861
 20
81.2579285632
 30
0.0
 10
252.9925278942
 20
80.4597737161
 30
0.0
 10
252.6769585765
 20
79.3761800614
 30
0.0
 10
252.4220461683
 20
77.9776870986
 30
0.0
 10
252.3966653696
 20
76.837364089
 30
0.0
 10
252.4322099363
 20
76.2674825337
 30
0.0
  0
SPLINE
  5
2CF
100
AcDbEntity
  8
0
100
AcDbSpline
 62
7
  6
CONTINUOUS
 70
0
 71
3
 72
25
 73
21
 74
0
 42
0.0000001
 43
0.0000001
 44
0.0000000001
 40
0.0
 40
0.0
 40
0.0
 40
0.0
 40
0.0612402956
 40
0.1240704818
 40
0.1554759874
 40
0.1866803926
 40
0.2177009867
 40
0.2487348223
 40
0.2800413324
 40
0.3116513767
 40
0.3752975877
 40
0.4386091206
 40
0.5010189822
 40
0.5637154179
 40
0.6269448771
 40
0.6585359952
 40
0.6899272466
 40
0.7521998011
 40
0.8756566882
 40
1.0
 40
1.0
 40
1.0
 40
1.0
 10
170.8645350777
 20
151.7206711785
 30
0.0
 10
171.4841131122
 20
151.6646243332
 30
0.0
 10
172.7377836512
 20
151.5307905874
 30
0.0
 10
174.2929211519
 20
151.2339555006
 30
0.0
 10
175.5138981018
 20
150.8648046661
 30
0.0
 10
176.3981124169
 20
150.5103711535
 30
0.0
 10
177.2372213816
 20
150.0660128334
 30
0.0
 10
178.0147920545
 20
149.5179734604
 30
0.0
 10
178.7144353937
 20
148.8646509094
 30
0.0
 10
179.540258181
 20
147.8758223282
 30
0.0
 10
180.3493240579
 20
146.4660449965
 30
0.0
 10
180.9247456644
 20
144.6128335292
 30
0.0
 10
181.0509711334
 20
142.6871367681
 30
0.0
 10
180.8035441678
 20
140.7809322336
 30
0.0
 10
180.3617433515
 20
139.2380032966
 30
0.0
 10
179.9040869978
 20
138.0399248383
 30
0.0
 10
179.3903167656
 20
136.8752838497
 30
0.0
 10
178.3525073487
 20
134.925424326
 30
0.0
 10
176.5017847453
 20
132.3571905743
 30
0.0
 10
174.7306794907
 20
130.5562057747
 30
0.0
 10
173.7919517083
 20
129.7110383065
 30
0.0
  0
SPLINE
  5
2D0
100
AcDbEntity
  8
0
100
AcDbSpline
 62
7
  6
CONTINUOUS
 70
0
 71
3
 72
41
 73
37
 74
0
 42
0.0000001
 43
0.0000001
 44
0.0000000001
 40
0.0
 40
0.0
 40
0.0
 40
0.0
 40
0.0109609345
 40
0.0237004326
 40
0.0535442341
 40
0.0875365816
 40
0.1236943553
 40
0.1601497242
 40
0.1952809134
 40
0.2279684906
 40
0.2584215039
 40
0.2880296604
 40
0.3179574943
 40
0.3333005719
 40
0.3489349172
 40
0.3805528795
 40
0.4117875322
 40
0.427056099
 40
0.4420504885
 40
0.4717711308
 40
0.502169058
 40
0.5334394956
 40
0.5651474197
 40
0.5967027001
 40
0.6123104809
 40
0.6278217155
 40
0.6587036875
 40
0.6895991941
 40
0.7206151929
 40
0.7517480516
 40
0.7829043516
 40
0.8139629463
 40
0.8449076161
 40
0.8757692164
 40
0.9374764229
 40
1.0
 40
1.0
 40
1.0
 40
1.0
 10
169.6779266469
 20
92.6813939554
 30
0.0
 10
169.7682535514
 20
92.6382553331
 30
0.0
 10
169.9666391571
 20
92.5514592159
 30
0.0
 10
170.4206891596
 20
92.3699044404
 30
0.0
 10
171.075855358
 20
92.1252589799
 30
0.0
 10
171.9282348619
 20
91.7974968054
 30
0.0
 10
172.8244290468
 20
91.4162157403
 30
0.0
 10
173.7045170243
 20
90.973908868
 30
0.0
 10
174.5109613381
 20
90.4633194273
 30
0.0
 10
175.189054823
 20
89.8661732226
 30
0.0
 10
175.6843705732
 20
89.1693659968
 30
0.0
 10
176.0003901288
 20
88.4039018706
 30
0.0
 10
176.1277538633
 20
87.7276297007
 30
0.0
 10
176.1598845954
 20
87.1719076178
 30
0.0
 10
176.1483725245
 20
86.5998689647
 30
0.0
 10
176.0507148348
 20
85.8866473923
 30
0.0
 10
175.8339812947
 20
85.201997375
 30
0.0
 10
175.5817231025
 20
84.6989611047
 30
0.0
 10
175.2777539212
 20
84.2414781078
 30
0.0
 10
174.7930481852
 20
83.7476721092
 30
0.0
 10
174.1135219516
 20
83.2597865087
 30
0.0
 10
173.3778934142
 20
82.8276350393
 30
0.0
 10
172.6239779079
 20
82.4074430767
 30
0.0
 10
172.0089923123
 20
82.0307700272
 30
0.0
 10
171.5476763471
 20
81.691296631
 30
0.0
 10
171.113277519
 20
81.3276506162
 30
0.0
 10
170.6121886632
 20
80.8283357542
 30
0.0
 10
170.0758993727
 20
80.1705791945
 30
0.0
 10
169.5989142434
 20
79.4662126625
 30
0.0
 10
169.175299949
 20
78.7261016931
 30
0.0
 10
168.7986780167
 20
77.9608312563
 30
0.0
 10
168.4632925403
 20
77.1785225315
 30
0.0
 10
168.1749485735
 20
76.3803676845
 30
0.0
 10
167.8593792558
 20
75.2967740298
 30
0.0
 10
167.6044668476
 20
73.8982810669
 30
0.0
 10
167.5790860489
 20
72.7579580573
 30
0.0
 10
167.6146306156
 20
72.1880765021
 30
0.0
  0
SPLINE
  5
2D1
100
AcDbEntity
  8
0
100
AcDbSpline
 62
7
  6
CONTINUOUS
 70
0
 71
3
 72
14
 73
10
 74
0
 42
0.0000001
 43
0.0000001
 44
0.0000000001
 40
0.0
 40
0.0
 40
0.0
 40
0.0
 40
0.1200926512
 40
0.210558632
 40
0.3286490753
 40
0.4312557155
 40
0.5998825989
 40
0.7781226518
 40
1.0
 40
1.0
 40
1.0
 40
1.0
 10
72.6350976031
 20
90.547873151
 30
0.0
 10
73.2698665514
 20
90.2475184108
 30
0.0
 10
75.3681679623
 20
89.5916167033
 30
0.0
 10
78.5223781488
 20
87.8489202151
 30
0.0
 10
79.4050021133
 20
85.2667977538
 30
0.0
 10
78.5757370132
 20
81.4788656471
 30
0.0
 10
74.2967371898
 20
80.0665653595
 30
0.0
 10
71.3928046086
 20
75.6450711692
 30
0.0
 10
70.5004198193
 20
72.1002626118
 30
0.0
 10
70.6350976031
 20
70.047873151
 30
0.0
  0
SPLINE
  5
2D2
100
AcDbEntity
  8
0
100
AcDbSpline
 62
7
  6
CONTINUOUS
 70
0
 71
3
 72
13
 73
9
 74
0
 42
0.0000001
 43
0.0000001
 44
0.0000000001
 40
0.0
 40
0.0
 40
0.0
 40
0.0
 40
0.1228484901
 40
0.2415308263
 40
0.4342498865
 40
0.654158242
 40
0.8334724822
 40
1.0
 40
1.0
 40
1.0
 40
1.0
 10
73.6350976031
 20
149.5908532686
 30
0.0
 10
74.8214295123
 20
149.4875377782
 30
0.0
 10
77.3126453935
 20
149.1997542545
 30
0.0
 10
81.4589221554
 20
147.5340459567
 30
0.0
 10
84.5093637278
 20
142.3974701809
 30
0.0
 10
83.1849971384
 20
136.217814828
 30
0.0
 10
80.2750589883
 20
131.2755038734
 30
0.0
 10
77.9002647276
 20
128.7363091812
 30
0.0
 10
76.6350976031
 20
127.5908532686
 30
0.0
  0
ENDSEC
  0
SECTION
  2
OBJECTS
  0
DICTIONARY
  5
C
100
AcDbDictionary
280
0
281
1
  3
ACAD_GROUP
350
D
  3
ACAD_MLINESTYLE
350
17
  3
ACAD_LAYOUT
350
1A
  3
ACAD_PLOTSETTINGS
350
19
  3
ACAD_PLOTSTYLENAME
350
E
  3
ACAD_TABLESTYLE
350
       2D3
  0
DICTIONARY
  5
D
102
{ACAD_REACTORS
330
C
102
}
100
AcDbDictionary
280
0
281
1
  0
ACDBDICTIONARYWDFLT
  5
E
102
{ACAD_REACTORS
330
C
102
}
100
AcDbDictionary
281
1
  3
Normal
350
F
100
AcDbDictionaryWithDefault
340
F
  0
DICTIONARY
  5
17
102
{ACAD_REACTORS
330
C
102
}
100
AcDbDictionary
280
0
281
1
  3
Standard
350
18
  0
DICTIONARY
  5
2D3
330
C
100
AcDbDictionary
281
1
  3
Standard
350
       2D6
  3
Standard1
350
       2D7
  0
DICTIONARY
  5
19
102
{ACAD_REACTORS
330
C
102
}
100
AcDbDictionary
281
1
  0
DICTIONARY
  5
1A
102
{ACAD_REACTORS
330
C
102
}
100
AcDbDictionary
281
1
  3
Model
350
2D4
  3
Layout1
350
2D5
  0
ACDBPLACEHOLDER
  5
F
102
{ACAD_REACTORS
330
E
102
}
  0
MLINESTYLE
  5
18
102
{ACAD_REACTORS
330
17
102
}
100
AcDbMlineStyle
  2
STANDARD
 70
0
  3

 62
256
 51
90.0
 52
90.0
 71
2
 49
0.5
 62
256
  6
BYLAYER
 49
-0.5
 62
256
  6
BYLAYER
  0
LAYOUT
  5
2D4
102
{ACAD_REACTORS
330
1A
102
}
100
AcDbPlotSettings
  1

  2
none_device
  4
ISO_A4_(297.00_x_210.00_MM)
  6

 40
0.0
 41
0.0
 42
0.0
 43
0.0
 44
297.0
 45
210.0
 46
0.0
 47
0.0
 48
0.0
 49
0.0
140
0.0
141
0.0
142
1.0
143
1.0
 70
1024
 72
1
 73
0
 74
0
  7

 75
0
147
1.0
148
0.0
149
0.0
100
AcDbLayout
  1
Model
 70
0
 71
0
 10
0.0
 20
0.0
 11
297.0
 21
210.0
 12
0.0
 22
0.0
 32
0.0
 14
0.0
 24
0.0
 34
0.0
 15
0.0
 25
0.0
 35
0.0
146
0.0
 13
0.0
 23
0.0
 33
0.0
 16
1.0
 26
0.0
 36
0.0
 17
0.0
 27
1.0
 37
0.0
 76
0
330
20A
345
0
346
0
  0
LAYOUT
  5
2D5
102
{ACAD_REACTORS
330
1A
102
}
100
AcDbPlotSettings
  1

  2
none_device
  4
ISO_A4_(297.00_x_210.00_MM)
  6

 40
0.0
 41
0.0
 42
0.0
 43
0.0
 44
297.0
 45
210.0
 46
0.0
 47
0.0
 48
0.0
 49
0.0
140
0.0
141
0.0
142
1.0
143
1.0
 70
0
 72
1
 73
0
 74
0
  7

 75
0
147
1.0
148
0.0
149
0.0
100
AcDbLayout
  1
Layout1
 70
0
 71
1
 10
0.0
 20
0.0
 11
297.0
 21
210.0
 12
0.0
 22
0.0
 32
0.0
 14
0.0
 24
0.0
 34
0.0
 15
0.0
 25
0.0
 35
0.0
146
0.0
 13
0.0
 23
0.0
 33
0.0
 16
1.0
 26
0.0
 36
0.0
 17
0.0
 27
1.0
 37
0.0
 76
0
330
20B
345
0
346
0
  0
TABLESTYLE
  5
2D6
102
{ACAD_REACTORS
330
2D3
330
285
102
}
330
2D3
100
AcDbTableStyle
  3
Standard
 70
0
 71
0
 40
0.06
 41
0.06
280
1
281
1
  7
Standard
140
0.18
170
1
 62
0
 63
7
283
0
  7
Standard
140
0.18
170
1
 62
0
 63
7
283
0
  7
Standard
140
0.18
170
1
 62
0
 63
7
283
0
  0
TABLESTYLE
  5
2D7
102
{ACAD_REACTORS
330
2D3
102
}
330
2D3
100
AcDbTableStyle
  3
Standard1
 70
1
 71
0
 40
0.06
 41
0.06
280
1
281
1
  7
Standard
140
0.18
170
1
 62
0
 63
7
283
0
  7
Standard
140
0.18
170
1
 62
0
 63
7
283
0
  7
Standard
140
0.18
170
1
 62
0
 63
7
283
0
  0
ENDSEC
  0
EOF
