999
DXF file: O:\ORAC_PRODUCTEN\ORAC_LIJN6\P-TYPE\P8050\p8050-prod-mm.dxf
999
Pro/ENGINEER 2018500 by Parametric Technology Corporation
  0
SECTION
  2
HEADER
  9
$ACADVER
  1
AC1024
  9
$DWGCODEPAGE
  3
ANSI_1250
  9
$EXTMAX
 10
297.0
 20
210.0
 30
0.0
  9
$EXTMIN
 10
0.0
 20
0.0
 30
0.0
  9
$LIMMIN
 10
0.0
 20
0.0
  9
$LIMMAX
 10
297.0
 20
210.0
  9
$VIEWCTR
 10
148.5
 20
105.0
  9
$VIEWSIZE
 40
210.0
  9
$CLAYER
  8
0
  9
$LTSCALE
 40
16.335
  9
$CELTYPE
  6
BYLAYER
  9
$DIMSCALE
 40
1.0
  9
$DIMASZ
 40
3.5
  9
$DIMEXO
 40
1.0
  9
$DIMDLI
 40
11.286
  9
$DIMEXE
 40
1.5
  9
$DIMCEN
 40
2.673
  9
$DIMLFAC
 40
1.0
  9
$DIMBLK
  1
_FILLED
  9
$DIMALT
 70
0
  9
$DIMALTF
 40
0.0393700787
  9
$DIMTXT
 40
2.5
  9
$DIMTOL
 70
1
  9
$DIMLIM
 70
0
  9
$DIMTFAC
 40
1.0
  9
$DIMTP
 40
0.001
  9
$DIMTM
 40
0.001
  9
$DIMGAP
 40
0.625
  9
$DIMDSEP
 70
44
  9
$AUNITS
 70
0
  9
$PDMODE
 70
3
  9
$PDSIZE
 40
8.0
  9
$HANDSEED
  5
304
  9
$TILEMODE
 70
1
  9
$MEASUREMENT
 70
1
  9
$INSUNITS
 70
4
  0
ENDSEC
  0
SECTION
  2
CLASSES
  0
CLASS
  1
ACDBDICTIONARYWDFLT
  2
AcDbDictionaryWithDefault
  3
AutoCAD 2000
 90
0
 91
1
280
0
281
0
  0
CLASS
  1
ACDBPLACEHOLDER
  2
AcDbPlaceHolder
  3
AutoCAD 2000
 90
0
 91
1
280
0
281
0
  0
CLASS
  1
LAYOUT
  2
AcDbLayout
  3
AutoCAD 2000
 90
0
 91
0
280
0
281
0
  0
CLASS
  1
TABLESTYLE
  2
AcDbTableStyle
  3
ObjectDBX Classes
 90
2047
 91
1
280
0
281
0
  0
CLASS
  1
ACAD_TABLE
  2
AcDbTable
  3
ObjectDBX Classes
 90
1025
 91
1
280
0
281
1
  0
ENDSEC
  0
SECTION
  2
TABLES
  0
TABLE
  2
VPORT
  5
8
100
AcDbSymbolTable
 70
2
  0
VPORT
  5
1F4
100
AcDbSymbolTableRecord
100
AcDbViewportTableRecord
  2
*ACTIVE
 70
0
 10
0.0
 20
0.0
 11
1.0
 21
1.0
 12
148.5
 22
105.0
 13
0.0
 23
0.0
 14
1.0
 24
1.0
 15
0.0
 25
0.0
 16
0.0
 26
0.0
 36
1.0
 17
0.0
 27
0.0
 37
0.0
 40
210.0
 41
1.4142857143
 42
50.0
 43
0.0
 44
0.0
 50
0.0
 51
0.0
 71
0
 72
100
 73
1
 74
1
 75
0
 76
0
 77
0
 78
0
  0
ENDTAB
  0
TABLE
  2
LTYPE
  5
5
100
AcDbSymbolTable
 70
6
  0
LTYPE
  5
14
100
AcDbSymbolTableRecord
100
AcDbLinetypeTableRecord
  2
BYBLOCK
 70
0
  3

 72
65
 73
0
 40
0.0
  0
LTYPE
  5
15
100
AcDbSymbolTableRecord
100
AcDbLinetypeTableRecord
  2
BYLAYER
 70
0
  3

 72
65
 73
0
 40
0.0
  0
LTYPE
  5
16
100
AcDbSymbolTableRecord
100
AcDbLinetypeTableRecord
  2
CONTINUOUS
 70
64
  3
Solid line
 72
65
 73
0
 40
0.0
  0
LTYPE
  5
1F5
100
AcDbSymbolTableRecord
100
AcDbLinetypeTableRecord
  2
CENTER
 70
64
  3
____ _ ____ _ ____ _ ____ _ ____ _ ____ _ ____
 72
65
 73
4
 40
0.6
 49
0.375
 74
0
 49
-0.075
 74
0
 49
0.075
 74
0
 49
-0.075
 74
0
  0
LTYPE
  5
1F6
100
AcDbSymbolTableRecord
100
AcDbLinetypeTableRecord
  2
HIDDEN
 70
64
  3
- - - - - - - - - - - - - - - - - - - -
 72
65
 73
2
 40
0.2
 49
0.1
 74
0
 49
-0.1
 74
0
  0
LTYPE
  5
1F7
100
AcDbSymbolTableRecord
100
AcDbLinetypeTableRecord
  2
PHANTOM
 70
64
  3
_____ _ _ _____ _ _ _____ _ _ _____
 72
65
 73
6
 40
0.8
 49
0.45
 74
0
 49
-0.05
 74
0
 49
0.1
 74
0
 49
-0.05
 74
0
 49
0.1
 74
0
 49
-0.05
 74
0
  0
LTYPE
  5
1F8
100
AcDbSymbolTableRecord
100
AcDbLinetypeTableRecord
  2
DOT
 70
64
  3
. . . . . . . . . . . . . . . . . . . .
 72
65
 73
2
 40
0.2
 49
0.1
 74
0
 49
-0.1
 74
0
  0
LTYPE
  5
1F9
100
AcDbSymbolTableRecord
100
AcDbLinetypeTableRecord
  2
DASHED
 70
64
  3
- - - - - - - - - - - - - - - - - - - -
 72
65
 73
2
 40
0.2
 49
0.1
 74
0
 49
-0.1
 74
0
  0
ENDTAB
  0
TABLE
  2
LAYER
  5
2
100
AcDbSymbolTable
 70
36
  0
LAYER
  5
10
100
AcDbSymbolTableRecord
100
AcDbLayerTableRecord
  2
0
 70
0
 62
7
  6
CONTINUOUS
370
-3
390
F
  0
LAYER
  5
1FA
100
AcDbSymbolTableRecord
100
AcDbLayerTableRecord
  2
DEFAULT_1
 70
0
 62
7
  6
CENTER
370
-3
390
F
  0
LAYER
  5
1FB
100
AcDbSymbolTableRecord
100
AcDbLayerTableRecord
  2
DEFAULT_2
 70
0
 62
8
  6
HIDDEN
370
-3
390
F
  0
LAYER
  5
1FC
100
AcDbSymbolTableRecord
100
AcDbLayerTableRecord
  2
DEFAULT_3
 70
0
 62
7
  6
PHANTOM
370
-3
390
F
  0
LAYER
  5
1FD
100
AcDbSymbolTableRecord
100
AcDbLayerTableRecord
  2
01___PRT_ALL_DTM_PLN
 70
0
 62
7
  6
CONTINUOUS
370
-3
390
F
  0
LAYER
  5
1FE
100
AcDbSymbolTableRecord
100
AcDbLayerTableRecord
  2
01___PRT_DEF_DTM_PLN
 70
0
 62
7
  6
CONTINUOUS
370
-3
390
F
  0
LAYER
  5
1FF
100
AcDbSymbolTableRecord
100
AcDbLayerTableRecord
  2
02___PRT_ALL_AXES
 70
0
 62
7
  6
CONTINUOUS
370
-3
390
F
  0
LAYER
  5
200
100
AcDbSymbolTableRecord
100
AcDbLayerTableRecord
  2
03___PRT_ALL_CURVES
 70
0
 62
7
  6
CONTINUOUS
370
-3
390
F
  0
LAYER
  5
201
100
AcDbSymbolTableRecord
100
AcDbLayerTableRecord
  2
04___PRT_ALL_DTM_PNT
 70
0
 62
7
  6
CONTINUOUS
370
-3
390
F
  0
LAYER
  5
202
100
AcDbSymbolTableRecord
100
AcDbLayerTableRecord
  2
05___PRT_ALL_DTM_CSYS
 70
0
 62
7
  6
CONTINUOUS
370
-3
390
F
  0
LAYER
  5
203
100
AcDbSymbolTableRecord
100
AcDbLayerTableRecord
  2
05___PRT_DEF_DTM_CSYS
 70
0
 62
7
  6
CONTINUOUS
370
-3
390
F
  0
LAYER
  5
204
100
AcDbSymbolTableRecord
100
AcDbLayerTableRecord
  2
06___PRT_ALL_SURFS
 70
0
 62
7
  6
CONTINUOUS
370
-3
390
F
  0
LAYER
  5
205
100
AcDbSymbolTableRecord
100
AcDbLayerTableRecord
  2
AXES
 70
0
 62
7
  6
CONTINUOUS
370
-3
390
F
  0
LAYER
  5
206
100
AcDbSymbolTableRecord
100
AcDbLayerTableRecord
  2
DTM_ALL
 70
0
 62
7
  6
CONTINUOUS
370
-3
390
F
  0
LAYER
  5
207
100
AcDbSymbolTableRecord
100
AcDbLayerTableRecord
  2
DTM_AXIS
 70
0
 62
7
  6
CONTINUOUS
370
-3
390
F
  0
LAYER
  5
208
100
AcDbSymbolTableRecord
100
AcDbLayerTableRecord
  2
DTM_CSYS
 70
0
 62
7
  6
CONTINUOUS
370
-3
390
F
  0
LAYER
  5
209
100
AcDbSymbolTableRecord
100
AcDbLayerTableRecord
  2
DTM_CURVE
 70
0
 62
7
  6
CONTINUOUS
370
-3
390
F
  0
LAYER
  5
20A
100
AcDbSymbolTableRecord
100
AcDbLayerTableRecord
  2
DTM_MASTER
 70
0
 62
7
  6
CONTINUOUS
370
-3
390
F
  0
LAYER
  5
20B
100
AcDbSymbolTableRecord
100
AcDbLayerTableRecord
  2
DTM_POINT
 70
0
 62
7
  6
CONTINUOUS
370
-3
390
F
  0
LAYER
  5
20C
100
AcDbSymbolTableRecord
100
AcDbLayerTableRecord
  2
DTM_QUILT
 70
0
 62
7
  6
CONTINUOUS
370
-3
390
F
  0
LAYER
  5
20D
100
AcDbSymbolTableRecord
100
AcDbLayerTableRecord
  2
GTOL
 70
0
 62
7
  6
CONTINUOUS
370
-3
390
F
  0
LAYER
  5
20E
100
AcDbSymbolTableRecord
100
AcDbLayerTableRecord
  2
NOTES
 70
0
 62
7
  6
CONTINUOUS
370
-3
390
F
  0
LAYER
  5
20F
100
AcDbSymbolTableRecord
100
AcDbLayerTableRecord
  2
REF_PLANS
 70
0
 62
7
  6
CONTINUOUS
370
-3
390
F
  0
LAYER
  5
210
100
AcDbSymbolTableRecord
100
AcDbLayerTableRecord
  2
XSEC_DATUMS
 70
0
 62
7
  6
CONTINUOUS
370
-3
390
F
  0
ENDTAB
  0
TABLE
  2
STYLE
  5
3
100
AcDbSymbolTable
 70
1
  0
STYLE
  5
11
100
AcDbSymbolTableRecord
100
AcDbTextStyleTableRecord
  2
STANDARD
 70
0
 40
0.0
 41
1.0
 50
0.0
 71
0
 42
0.2
  3
cgtime.ttf
  4

  0
STYLE
  5
211
100
AcDbSymbolTableRecord
100
AcDbTextStyleTableRecord
  2
TEXTSTYLE_1
 70
0
 40
0.0
 41
0.8
 50
0.0
 71
0
 42
0.2
  3
gdt
  4

  0
STYLE
  5
212
100
AcDbSymbolTableRecord
100
AcDbTextStyleTableRecord
  2
TEXTSTYLE_2
 70
0
 40
0.0
 41
1.0
 50
0.0
 71
0
 42
0.2
  3
trium.ttf
  4

  0
STYLE
  5
213
100
AcDbSymbolTableRecord
100
AcDbTextStyleTableRecord
  2
TEXTSTYLE_3
 70
0
 40
0.0
 41
1.0
 50
0.0
 71
0
 42
0.2
  3
calibri.ttf
  4

  0
ENDTAB
  0
TABLE
  2
VIEW
  5
6
100
AcDbSymbolTable
 70
0
  0
ENDTAB
  0
TABLE
  2
UCS
  5
7
100
AcDbSymbolTable
 70
0
  0
ENDTAB
  0
TABLE
  2
APPID
  5
9
100
AcDbSymbolTable
 70
1
  0
APPID
  5
214
100
AcDbSymbolTableRecord
100
AcDbRegAppTableRecord
  2
ACAD
 70
0
  0
ENDTAB
  0
TABLE
  2
BLOCK_RECORD
  5
1
100
AcDbSymbolTable
 70
0
  0
BLOCK_RECORD
  5
215
100
AcDbSymbolTableRecord
100
AcDbBlockTableRecord
  2
*Model_Space
  0
BLOCK_RECORD
  5
216
100
AcDbSymbolTableRecord
100
AcDbBlockTableRecord
  2
*Paper_Space
  0
BLOCK_RECORD
  5
217
100
AcDbSymbolTableRecord
100
AcDbBlockTableRecord
  2
_FILLED
  0
BLOCK_RECORD
  5
218
100
AcDbSymbolTableRecord
100
AcDbBlockTableRecord
  2
*D0
  0
BLOCK_RECORD
  5
219
100
AcDbSymbolTableRecord
100
AcDbBlockTableRecord
  2
*D1
  0
BLOCK_RECORD
  5
21A
100
AcDbSymbolTableRecord
100
AcDbBlockTableRecord
  2
*D2
  0
BLOCK_RECORD
  5
21B
100
AcDbSymbolTableRecord
100
AcDbBlockTableRecord
  2
*D3
  0
BLOCK_RECORD
  5
21C
100
AcDbSymbolTableRecord
100
AcDbBlockTableRecord
  2
*D4
  0
BLOCK_RECORD
  5
21D
100
AcDbSymbolTableRecord
100
AcDbBlockTableRecord
  2
*D5
  0
BLOCK_RECORD
  5
21E
100
AcDbSymbolTableRecord
100
AcDbBlockTableRecord
  2
*T1
  0
ENDTAB
  0
TABLE
  2
DIMSTYLE
  5
A
100
AcDbSymbolTable
 70
1
100
AcDbDimStyleTable
 71
0
  0
DIMSTYLE
105
21F
100
AcDbSymbolTableRecord
100
AcDbDimStyleTableRecord
  2
STANDARD
 70
0
  3

  4

 40
1.0
 41
3.5
 42
1.0
 43
0.38
 44
1.5
 45
0.0
 46
0.0
 47
0.001
 48
0.001
140
2.5
141
0.09
142
0.0
143
25.4
144
1.0
145
0.0
146
1.0
147
0.625
 71
1.0
 72
0.0
 73
1
 74
1
 75
0
 76
0
 77
0
 78
8
 79
2
170
0
171
2
172
0
173
0
174
0
175
0
176
0
177
0
178
0
270
2
179
3
271
3
272
3
273
2
274
2
275
0
280
0
281
0
282
0
283
1
284
8
285
0
286
0
287
3
288
0
340
11
278
44
341
217
342
217
343
217
344
217
  0
DIMSTYLE
105
220
100
AcDbSymbolTableRecord
100
AcDbDimStyleTableRecord
  2
DIMSTYLE_1
 70
0
  3

  4

 40
1.0
 41
3.5
 42
1.0
 43
0.38
 44
1.5
 45
0.0
 46
0.0
 47
0.0
 48
0.0
140
2.5
141
0.09
142
0.0
143
25.4
144
1.0
145
0.0
146
1.0
147
1.25
 71
0.0
 72
0.0
 73
1
 74
1
 75
0
 76
0
 77
0
 78
8
 79
2
170
0
171
2
172
0
173
0
174
0
175
0
176
0
177
0
178
0
270
2
179
3
271
0
272
0
273
2
274
2
275
0
280
0
281
0
282
0
283
1
284
8
285
0
286
0
287
3
288
0
340
11
278
44
341
217
342
217
343
217
344
217
  0
DIMSTYLE
105
221
100
AcDbSymbolTableRecord
100
AcDbDimStyleTableRecord
  2
DIMSTYLE_2
 70
0
  3

  4

 40
1.0
 41
3.5
 42
1.0
 43
0.38
 44
1.5
 45
0.0
 46
0.0
 47
0.0
 48
0.0
140
2.5
141
0.09
142
0.0
143
25.4
144
1.0
145
0.0
146
1.0
147
1.25
 71
0.0
 72
0.0
 73
1
 74
1
 75
0
 76
0
 77
0
 78
8
 79
2
170
0
171
2
172
0
173
0
174
0
175
0
176
0
177
0
178
0
270
2
179
3
271
3
272
3
273
2
274
2
275
0
280
0
281
0
282
0
283
1
284
8
285
0
286
0
287
3
288
0
340
11
278
44
341
217
342
217
343
217
344
217
  0
ENDTAB
  0
ENDSEC
  0
SECTION
  2
BLOCKS
  0
BLOCK
  5
20
100
AcDbEntity
  8
0
100
AcDbBlockBegin
  2
*Model_Space
 70
0
 10
0.0
 20
0.0
 30
0.0
  3
*Model_Space
  1

  0
ENDBLK
  5
21
100
AcDbEntity
  8
0
100
AcDbBlockEnd
  0
BLOCK
  5
1C
100
AcDbEntity
  8
0
100
AcDbBlockBegin
  2
*Paper_Space
 70
0
 10
0.0
 20
0.0
 30
0.0
  3
*Paper_Space
  1

  0
ENDBLK
  5
1D
100
AcDbEntity
  8
0
100
AcDbBlockEnd
  0
BLOCK
  5
222
100
AcDbEntity
  8
0
100
AcDbBlockBegin
  2
_FILLED
 70
64
 10
0.0
 20
0.0
  3
_FILLED
  1

  0
SOLID
  5
223
100
AcDbEntity
  8
0
  6
BYBLOCK
 62
0
100
AcDbTrace
 10
0.0
 20
0.0
 11
-1.0
 21
0.2142857143
 12
-1.0
 22
-0.2142857143
 13
-1.0
 23
-0.2142857143
  0
ENDBLK
  5
224
100
AcDbEntity
  8
0
  6
BYBLOCK
 62
0
100
AcDbBlockEnd
  0
BLOCK
  5
225
100
AcDbEntity
  8
0
100
AcDbBlockBegin
 62
2
  6
CONTINUOUS
  2
*D0
 70
65
 10
0.0
 20
0.0
  3
*D0
  1

  0
TEXT
  5
226
100
AcDbEntity
  8
0
100
AcDbText
 62
2
  6
CONTINUOUS
 10
27.6187753718
 20
107.0055876676
  7
STANDARD
 40
2.5
  1
120
 72
5
 11
33.0759738154
 21
107.0055876676
100
AcDbText
  0
TEXT
  5
227
100
AcDbEntity
  8
0
100
AcDbText
 62
2
  6
CONTINUOUS
 10
33.0759738154
 20
107.0055876676
  7
STANDARD
 40
2.5
  1
mm
 72
5
 11
38.7471800411
 21
107.0055876676
100
AcDbText
  0
TEXT
  5
228
100
AcDbEntity
  8
0
100
AcDbText
 62
2
  6
CONTINUOUS
 10
28.3969854886
 20
103.2555876676
  7
STANDARD
 40
2.5
  1
4-3/4"
 72
5
 11
37.9689699244
 21
103.2555876676
100
AcDbText
  0
LINE
  5
229
100
AcDbEntity
  8
0
100
AcDbLine
 62
2
  6
CONTINUOUS
 10
54.4177265389
 20
168.2468601352
 11
31.6829777065
 21
168.2468601352
  0
LINE
  5
22A
100
AcDbEntity
  8
0
100
AcDbLine
 62
2
  6
CONTINUOUS
 10
54.4177265389
 20
48.2643152001
 11
31.6829777065
 21
48.2643152001
  0
LINE
  5
22B
100
AcDbEntity
  8
0
100
AcDbLine
 62
2
  6
CONTINUOUS
 10
33.1829777065
 20
168.2468601352
 11
33.1829777065
 21
110.7555876676
  0
LINE
  5
22C
100
AcDbEntity
  8
0
100
AcDbLine
 62
2
  6
CONTINUOUS
 10
33.1829777065
 20
48.2643152001
 11
33.1829777065
 21
102.0055876676
  0
INSERT
  5
22D
100
AcDbEntity
  8
0
100
AcDbBlockReference
 62
2
  6
CONTINUOUS
  2
_FILLED
 10
33.1829777065
 20
168.2468601352
 41
3.5
 42
3.5
 43
3.5
 50
90.0
  0
INSERT
  5
22E
100
AcDbEntity
  8
0
100
AcDbBlockReference
 62
2
  6
CONTINUOUS
  2
_FILLED
 10
33.1829777065
 20
48.2643152001
 41
3.5
 42
3.5
 43
3.5
 50
270.0
  0
ENDBLK
  5
22F
100
AcDbEntity
  8
0
  6
BYBLOCK
 62
0
100
AcDbBlockEnd
  0
BLOCK
  5
230
100
AcDbEntity
  8
0
100
AcDbBlockBegin
 62
2
  6
CONTINUOUS
  2
*D1
 70
65
 10
0.0
 20
0.0
  3
*D1
  1

  0
TEXT
  5
231
100
AcDbEntity
  8
0
100
AcDbText
 62
2
  6
CONTINUOUS
 10
65.9273300055
 20
185.1314924245
  7
STANDARD
 40
2.5
  1
30
 72
5
 11
69.5654623012
 21
185.1314924245
100
AcDbText
  0
TEXT
  5
232
100
AcDbEntity
  8
0
100
AcDbText
 62
2
  6
CONTINUOUS
 10
69.5654623012
 20
185.1314924245
  7
STANDARD
 40
2.5
  1
mm
 72
5
 11
75.2366685269
 21
185.1314924245
100
AcDbText
  0
TEXT
  5
233
100
AcDbEntity
  8
0
100
AcDbText
 62
2
  6
CONTINUOUS
 10
65.7960070483
 20
181.3814924245
  7
STANDARD
 40
2.5
  1
1-1/8"
 72
5
 11
75.3679914841
 21
181.3814924245
100
AcDbText
  0
LINE
  5
234
100
AcDbEntity
  8
0
100
AcDbLine
 62
2
  6
CONTINUOUS
 10
55.4177265389
 20
169.2468601352
 11
55.4177265389
 21
187.8814924245
  0
LINE
  5
235
100
AcDbEntity
  8
0
100
AcDbLine
 62
2
  6
CONTINUOUS
 10
85.7462719934
 20
133.2613298019
 11
85.7462719934
 21
187.8814924245
  0
LINE
  5
236
100
AcDbEntity
  8
0
100
AcDbLine
 62
2
  6
CONTINUOUS
 10
55.4177265389
 20
186.3814924245
 11
64.6773300055
 21
186.3814924245
  0
LINE
  5
237
100
AcDbEntity
  8
0
100
AcDbLine
 62
2
  6
CONTINUOUS
 10
85.7462719934
 20
186.3814924245
 11
76.4866685269
 21
186.3814924245
  0
INSERT
  5
238
100
AcDbEntity
  8
0
100
AcDbBlockReference
 62
2
  6
CONTINUOUS
  2
_FILLED
 10
55.4177265389
 20
186.3814924245
 41
3.5
 42
3.5
 43
3.5
 50
180.0
  0
INSERT
  5
239
100
AcDbEntity
  8
0
100
AcDbBlockReference
 62
2
  6
CONTINUOUS
  2
_FILLED
 10
85.7462719934
 20
186.3814924245
 41
3.5
 42
3.5
 43
3.5
 50
360.0
  0
ENDBLK
  5
23A
100
AcDbEntity
  8
0
  6
BYBLOCK
 62
0
100
AcDbBlockEnd
  0
BLOCK
  5
23B
100
AcDbEntity
  8
0
100
AcDbBlockBegin
 62
2
  6
CONTINUOUS
  2
*D2
 70
65
 10
0.0
 20
0.0
  3
*D2
  1

  0
TEXT
  5
23C
100
AcDbEntity
  8
0
100
AcDbText
 62
2
  6
CONTINUOUS
 10
69.0718949599
 20
173.4183861645
  7
STANDARD
 40
2.5
  1
7,5
 72
5
 11
73.925980563
 21
173.4183861645
100
AcDbText
  0
TEXT
  5
23D
100
AcDbEntity
  8
0
100
AcDbText
 62
2
  6
CONTINUOUS
 10
73.925980563
 20
173.4183861645
  7
STANDARD
 40
2.5
  1
mm
 72
5
 11
79.5971867887
 21
173.4183861645
100
AcDbText
  0
TEXT
  5
23E
100
AcDbEntity
  8
0
100
AcDbText
 62
2
  6
CONTINUOUS
 10
69.0718949599
 20
169.6683861645
  7
STANDARD
 40
2.5
  1
1/4"
 72
5
 11
75.6088599405
 21
169.6683861645
100
AcDbText
  0
LINE
  5
23F
100
AcDbEntity
  8
0
100
AcDbLine
 62
2
  6
CONTINUOUS
 10
55.4177265389
 20
169.2468601352
 11
55.4177265389
 21
176.1683861645
  0
LINE
  5
240
100
AcDbEntity
  8
0
100
AcDbLine
 62
2
  6
CONTINUOUS
 10
62.9177265389
 20
169.1159471482
 11
62.9177265389
 21
176.1683861645
  0
LINE
  5
241
100
AcDbEntity
  8
0
100
AcDbLine
 62
2
  6
CONTINUOUS
 10
55.4177265389
 20
174.6683861645
 11
59.1677265389
 21
174.6683861645
  0
LINE
  5
242
100
AcDbEntity
  8
0
100
AcDbLine
 62
2
  6
CONTINUOUS
 10
62.9177265389
 20
174.6683861645
 11
59.1677265389
 21
174.6683861645
  0
LINE
  5
243
100
AcDbEntity
  8
0
100
AcDbLine
 62
2
  6
CONTINUOUS
 10
59.1677265389
 20
174.6683861645
 11
67.8218949599
 21
174.6683861645
  0
INSERT
  5
244
100
AcDbEntity
  8
0
100
AcDbBlockReference
 62
2
  6
CONTINUOUS
  2
_FILLED
 10
55.4177265389
 20
174.6683861645
 41
3.5
 42
3.5
 43
3.5
 50
180.0
  0
INSERT
  5
245
100
AcDbEntity
  8
0
100
AcDbBlockReference
 62
2
  6
CONTINUOUS
  2
_FILLED
 10
62.9177265389
 20
174.6683861645
 41
3.5
 42
3.5
 43
3.5
  0
ENDBLK
  5
246
100
AcDbEntity
  8
0
  6
BYBLOCK
 62
0
100
AcDbBlockEnd
  0
BLOCK
  5
247
100
AcDbEntity
  8
0
100
AcDbBlockBegin
 62
2
  6
CONTINUOUS
  2
*D3
 70
65
 10
0.0
 20
0.0
  3
*D3
  1

  0
TEXT
  5
248
100
AcDbEntity
  8
0
100
AcDbText
 62
2
  6
CONTINUOUS
 10
36.4614066552
 20
39.1245076218
  7
STANDARD
 40
2.5
  1
4,5
 72
5
 11
41.3154922583
 21
39.1245076218
100
AcDbText
  0
TEXT
  5
249
100
AcDbEntity
  8
0
100
AcDbText
 62
2
  6
CONTINUOUS
 10
41.3154922583
 20
39.1245076218
  7
STANDARD
 40
2.5
  1
mm
 72
5
 11
46.986698484
 21
39.1245076218
100
AcDbText
  0
TEXT
  5
24A
100
AcDbEntity
  8
0
100
AcDbText
 62
2
  6
CONTINUOUS
 10
40.4497335035
 20
35.3745076218
  7
STANDARD
 40
2.5
  1
1/8"
 72
5
 11
46.986698484
 21
35.3745076218
100
AcDbText
  0
LINE
  5
24B
100
AcDbEntity
  8
0
100
AcDbLine
 62
2
  6
CONTINUOUS
 10
55.4177265389
 20
47.2643152001
 11
55.4177265389
 21
38.8745076218
  0
LINE
  5
24C
100
AcDbEntity
  8
0
100
AcDbLine
 62
2
  6
CONTINUOUS
 10
59.9177265389
 20
47.3428629923
 11
59.9177265389
 21
38.8745076218
  0
LINE
  5
24D
100
AcDbEntity
  8
0
100
AcDbLine
 62
2
  6
CONTINUOUS
 10
55.4177265389
 20
40.3745076218
 11
48.236698484
 21
40.3745076218
  0
LINE
  5
24E
100
AcDbEntity
  8
0
100
AcDbLine
 62
2
  6
CONTINUOUS
 10
59.9177265389
 20
40.3745076218
 11
64.9177265389
 21
40.3745076218
  0
INSERT
  5
24F
100
AcDbEntity
  8
0
100
AcDbBlockReference
 62
2
  6
CONTINUOUS
  2
_FILLED
 10
55.4177265389
 20
40.3745076218
 41
3.5
 42
3.5
 43
3.5
  0
INSERT
  5
250
100
AcDbEntity
  8
0
100
AcDbBlockReference
 62
2
  6
CONTINUOUS
  2
_FILLED
 10
59.9177265389
 20
40.3745076218
 41
3.5
 42
3.5
 43
3.5
 50
180.0
  0
ENDBLK
  5
251
100
AcDbEntity
  8
0
  6
BYBLOCK
 62
0
100
AcDbBlockEnd
  0
BLOCK
  5
252
100
AcDbEntity
  8
0
100
AcDbBlockBegin
 62
2
  6
CONTINUOUS
  2
*D4
 70
65
 10
0.0
 20
0.0
  3
*D4
  1

  0
TEXT
  5
253
100
AcDbEntity
  8
0
100
AcDbText
 62
2
  6
CONTINUOUS
 10
60.3034475476
 20
130.7194248587
  7
STANDARD
 40
2.5
  1
19
 72
5
 11
63.9415798433
 21
130.7194248587
100
AcDbText
  0
TEXT
  5
254
100
AcDbEntity
  8
0
100
AcDbText
 62
2
  6
CONTINUOUS
 10
63.9415798433
 20
130.7194248587
  7
STANDARD
 40
2.5
  1
mm
 72
5
 11
69.612786069
 21
130.7194248587
100
AcDbText
  0
TEXT
  5
255
100
AcDbEntity
  8
0
100
AcDbText
 62
2
  6
CONTINUOUS
 10
61.689634318
 20
126.9694248587
  7
STANDARD
 40
2.5
  1
3/4"
 72
5
 11
68.2265992986
 21
126.9694248587
100
AcDbText
  0
LINE
  5
256
100
AcDbEntity
  8
0
100
AcDbLine
 62
2
  6
CONTINUOUS
 10
55.4177265389
 20
152.0361045085
 11
55.4177265389
 21
130.4694248587
  0
LINE
  5
257
100
AcDbEntity
  8
0
100
AcDbLine
 62
2
  6
CONTINUOUS
 10
74.4985070777
 20
131.3810270587
 11
74.4985070777
 21
130.4694248587
  0
LINE
  5
258
100
AcDbEntity
  8
0
100
AcDbLine
 62
2
  6
CONTINUOUS
 10
55.4177265389
 20
131.9694248587
 11
59.0534475476
 21
131.9694248587
  0
LINE
  5
259
100
AcDbEntity
  8
0
100
AcDbLine
 62
2
  6
CONTINUOUS
 10
74.4985070777
 20
131.9694248587
 11
70.862786069
 21
131.9694248587
  0
INSERT
  5
25A
100
AcDbEntity
  8
0
100
AcDbBlockReference
 62
2
  6
CONTINUOUS
  2
_FILLED
 10
55.4177265389
 20
131.9694248587
 41
3.5
 42
3.5
 43
3.5
 50
180.0
  0
INSERT
  5
25B
100
AcDbEntity
  8
0
100
AcDbBlockReference
 62
2
  6
CONTINUOUS
  2
_FILLED
 10
74.4985070777
 20
131.9694248587
 41
3.5
 42
3.5
 43
3.5
  0
ENDBLK
  5
25C
100
AcDbEntity
  8
0
  6
BYBLOCK
 62
0
100
AcDbBlockEnd
  0
BLOCK
  5
25D
100
AcDbEntity
  8
0
100
AcDbBlockBegin
 62
2
  6
CONTINUOUS
  2
*D5
 70
65
 10
0.0
 20
0.0
  3
*D5
  1

  0
TEXT
  5
25E
100
AcDbEntity
  8
0
100
AcDbText
 62
2
  6
CONTINUOUS
 10
40.2214143549
 20
127.4181781957
  7
STANDARD
 40
2.5
  1
49
 72
5
 11
43.8595466506
 21
127.4181781957
100
AcDbText
  0
TEXT
  5
25F
100
AcDbEntity
  8
0
100
AcDbText
 62
2
  6
CONTINUOUS
 10
43.8595466506
 20
127.4181781957
  7
STANDARD
 40
2.5
  1
mm
 72
5
 11
49.5307528763
 21
127.4181781957
100
AcDbText
  0
TEXT
  5
260
100
AcDbEntity
  8
0
100
AcDbText
 62
2
  6
CONTINUOUS
 10
40.0900913977
 20
123.6681781957
  7
STANDARD
 40
2.5
  1
1-7/8"
 72
5
 11
49.6620758335
 21
123.6681781957
100
AcDbText
  0
LINE
  5
261
100
AcDbEntity
  8
0
100
AcDbLine
 62
2
  6
CONTINUOUS
 10
54.4177265389
 20
153.0361045085
 11
43.3760836156
 21
153.0361045085
  0
LINE
  5
262
100
AcDbEntity
  8
0
100
AcDbLine
 62
2
  6
CONTINUOUS
 10
54.4177265389
 20
104.3002518829
 11
43.3760836156
 21
104.3002518829
  0
LINE
  5
263
100
AcDbEntity
  8
0
100
AcDbLine
 62
2
  6
CONTINUOUS
 10
44.8760836156
 20
153.0361045085
 11
44.8760836156
 21
131.1681781957
  0
LINE
  5
264
100
AcDbEntity
  8
0
100
AcDbLine
 62
2
  6
CONTINUOUS
 10
44.8760836156
 20
104.3002518829
 11
44.8760836156
 21
122.4181781957
  0
INSERT
  5
265
100
AcDbEntity
  8
0
100
AcDbBlockReference
 62
2
  6
CONTINUOUS
  2
_FILLED
 10
44.8760836156
 20
153.0361045085
 41
3.5
 42
3.5
 43
3.5
 50
90.0
  0
INSERT
  5
266
100
AcDbEntity
  8
0
100
AcDbBlockReference
 62
2
  6
CONTINUOUS
  2
_FILLED
 10
44.8760836156
 20
104.3002518829
 41
3.5
 42
3.5
 43
3.5
 50
270.0
  0
ENDBLK
  5
267
100
AcDbEntity
  8
0
  6
BYBLOCK
 62
0
100
AcDbBlockEnd
  0
BLOCK
  5
268
100
AcDbEntity
  8
0
100
AcDbBlockBegin
  2
*T1
 70
1
 10
0.0
 20
0.0
  3
*T1
  1

  0
LINE
  5
269
100
AcDbEntity
  8
0
100
AcDbLine
 62
7
  6
CONTINUOUS
 10
0.0
 20
0.0
 11
148.0
 21
0.0
  0
LINE
  5
26A
100
AcDbEntity
  8
0
100
AcDbLine
 62
7
  6
CONTINUOUS
 10
0.0
 20
0.0
 11
0.0
 21
-43.0
  0
LINE
  5
26B
100
AcDbEntity
  8
0
100
AcDbLine
 62
7
  6
CONTINUOUS
 10
45.0
 20
-20.0
 11
148.0
 21
-20.0
  0
LINE
  5
26C
100
AcDbEntity
  8
0
100
AcDbLine
 62
7
  6
CONTINUOUS
 10
45.0
 20
-28.0
 11
148.0
 21
-28.0
  0
LINE
  5
26D
100
AcDbEntity
  8
0
100
AcDbLine
 62
7
  6
CONTINUOUS
 10
0.0
 20
-43.0
 11
148.0
 21
-43.0
  0
LINE
  5
26E
100
AcDbEntity
  8
0
100
AcDbLine
 62
7
  6
CONTINUOUS
 10
45.0
 20
0.0
 11
45.0
 21
-43.0
  0
LINE
  5
26F
100
AcDbEntity
  8
0
100
AcDbLine
 62
7
  6
CONTINUOUS
 10
143.0
 20
0.0
 11
143.0
 21
-20.0
  0
LINE
  5
270
100
AcDbEntity
  8
0
100
AcDbLine
 62
7
  6
CONTINUOUS
 10
148.0
 20
0.0
 11
148.0
 21
-43.0
  0
TEXT
  5
271
100
AcDbEntity
  8
0
100
AcDbText
 62
7
  6
CONTINUOUS
 10
8.9659749243
 20
-9.175
  7
STANDARD
 40
8.0
  1
O
 72
5
 11
17.370644185
 21
-9.175
100
AcDbText
  0
TEXT
  5
272
100
AcDbEntity
  8
0
100
AcDbText
 62
7
  6
CONTINUOUS
 10
17.370644185
 20
-9.175
  7
STANDARD
 40
5.5
  1
RAC
 72
5
 11
33.9562472979
 21
-9.175
100
AcDbText
  0
TEXT
  5
273
100
AcDbEntity
  8
0
100
AcDbText
 62
7
  6
CONTINUOUS
 10
33.9562472979
 20
-4.425
  7
TEXTSTYLE_2
 40
3.0
  1
®
 72
5
 11
36.0340250757
 21
-4.425
100
AcDbText
  0
TEXT
  5
274
100
AcDbEntity
  8
0
100
AcDbText
 62
7
  6
CONTINUOUS
 10
9.5323389537
 20
-13.825
  7
TEXTSTYLE_2
 40
3.0
  1
D  E  C  O  R
 72
5
 11
34.3878945093
 21
-13.825
100
AcDbText
  0
TEXT
  5
275
100
AcDbEntity
  8
0
100
AcDbText
 62
7
  6
CONTINUOUS
 10
34.3878945093
 20
-13.825
  7
STANDARD
 40
2.5
  1
 
 72
5
 11
35.4676610463
 21
-13.825
100
AcDbText
  0
TEXT
  5
276
100
AcDbEntity
  8
0
100
AcDbText
 62
7
  6
CONTINUOUS
 10
52.8786764706
 20
-4.6
  7
TEXTSTYLE_3
 40
2.7
  1
Part name:
 72
5
 11
71.9375
 21
-4.6
100
AcDbText
  0
TEXT
  5
277
100
AcDbEntity
  8
0
100
AcDbText
 62
7
  6
CONTINUOUS
 10
49.6908613445
 20
-11.35
  7
TEXTSTYLE_3
 40
2.7
  1
Designed by:
 72
5
 11
71.9375
 21
-11.35
100
AcDbText
  0
TEXT
  5
278
100
AcDbEntity
  8
0
100
AcDbText
 62
7
  6
CONTINUOUS
 10
49.3732142857
 20
-18.1
  7
TEXTSTYLE_3
 40
2.7
  1
Designed on:
 72
5
 11
71.9375
 21
-18.1
100
AcDbText
  0
TEXT
  5
279
100
AcDbEntity
  8
0
100
AcDbText
 62
2
  6
CONTINUOUS
 10
74.0625
 20
-4.6
  7
TEXTSTYLE_3
 40
2.7
  1
P8050
 72
5
 11
84.8851890756
 21
-4.6
100
AcDbText
  0
TEXT
  5
27A
100
AcDbEntity
  8
0
100
AcDbText
 62
2
  6
CONTINUOUS
 10
74.0625
 20
-11.35
  7
TEXTSTYLE_3
 40
2.7
  1
ORAC
 72
5
 11
83.9209033613
 21
-11.35
100
AcDbText
  0
TEXT
  5
27B
100
AcDbEntity
  8
0
100
AcDbText
 62
2
  6
CONTINUOUS
 10
74.0625
 20
-18.1
  7
TEXTSTYLE_3
 40
2.7
  1
02-Sep-2008
 72
5
 11
95.9120798319
 21
-18.1
100
AcDbText
  0
TEXT
  5
27C
100
AcDbEntity
  8
0
100
AcDbText
 62
2
  6
CONTINUOUS
 10
95.9120798319
 20
-18.1
  7
TEXTSTYLE_3
 40
2.7
  1
 
 72
5
 11
96.8763655462
 21
-18.1
100
AcDbText
  0
TEXT
  5
27D
100
AcDbEntity
  8
0
100
AcDbText
 62
2
  6
CONTINUOUS
 10
146.5625
 20
-16.0
  7
TEXTSTYLE_3
 40
1.5
  1
Version: 
 50
90.0
 72
5
 11
146.5625
 21
-7.5294117647
100
AcDbText
  0
TEXT
  5
27E
100
AcDbEntity
  8
0
100
AcDbText
 62
2
  6
CONTINUOUS
 10
146.5625
 20
-7.5294117647
  7
TEXTSTYLE_3
 40
1.5
  1
1.0
 50
90.0
 72
5
 11
146.5625
 21
-4.5357142857
100
AcDbText
  0
TEXT
  5
27F
100
AcDbEntity
  8
0
100
AcDbText
 62
2
  6
CONTINUOUS
 10
146.5625
 20
-4.5357142857
  7
TEXTSTYLE_3
 40
1.5
  1
 
 50
90.0
 72
5
 11
146.5625
 21
-4.0
100
AcDbText
  0
TEXT
  5
280
100
AcDbEntity
  8
0
100
AcDbText
 62
7
  6
CONTINUOUS
 10
9.6586134454
 20
-22.75
  7
TEXTSTYLE_3
 40
2.5
  1
Biekorfstraat 32
 72
5
 11
35.3413865546
 21
-22.75
100
AcDbText
  0
TEXT
  5
281
100
AcDbEntity
  8
0
100
AcDbText
 62
7
  6
CONTINUOUS
 10
2.2584033613
 20
-26.5
  7
TEXTSTYLE_3
 40
2.5
  1
8400 Oostende - Belgium
 72
5
 11
42.7415966387
 21
-26.5
100
AcDbText
  0
TEXT
  5
282
100
AcDbEntity
  8
0
100
AcDbText
 62
7
  6
CONTINUOUS
 10
4.2699579832
 20
-30.25
  7
TEXTSTYLE_3
 40
2.5
  1
Tel  +32 (0)59 80 32 52
 72
5
 11
40.7300420168
 21
-30.25
100
AcDbText
  0
TEXT
  5
283
100
AcDbEntity
  8
0
100
AcDbText
 62
7
  6
CONTINUOUS
 10
5.7405462185
 20
-34.0
  7
TEXTSTYLE_3
 40
2.5
  1
www.oracdecor.com
 72
5
 11
39.2594537815
 21
-34.0
100
AcDbText
  0
TEXT
  5
284
100
AcDbEntity
  8
0
100
AcDbText
 62
7
  6
CONTINUOUS
 10
5.5777310924
 20
-37.75
  7
TEXTSTYLE_3
 40
2.5
  1
info@oracdecor.com
 72
5
 11
39.4222689076
 21
-37.75
100
AcDbText
  0
TEXT
  5
285
100
AcDbEntity
  8
0
100
AcDbText
 62
7
  6
CONTINUOUS
 10
46.0625
 20
-23.375
  7
TEXTSTYLE_3
 40
2.5
  1
Unless otherwise specified: all dimensions are in millimeters 
 72
5
 11
143.4259453782
 21
-23.375
100
AcDbText
  0
TEXT
  5
286
100
AcDbEntity
  8
0
100
AcDbText
 62
7
  6
CONTINUOUS
 10
46.0625
 20
-27.125
  7
TEXTSTYLE_3
 40
2.5
  1
and inches, scale 1:1, length 2 meters
 72
5
 11
106.1675420168
 21
-27.125
100
AcDbText
  0
TEXT
  5
287
100
AcDbEntity
  8
0
100
AcDbText
 62
7
  6
CONTINUOUS
 10
46.0625
 20
-31.81
  7
TEXTSTYLE_3
 40
1.8
  1
All information in this document is Orac's exclusive property.  It may in no case 
 72
5
 11
137.5070378151
 21
-31.81
100
AcDbText
  0
TEXT
  5
288
100
AcDbEntity
  8
0
100
AcDbText
 62
7
  6
CONTINUOUS
 10
46.0625
 20
-34.87
  7
TEXTSTYLE_3
 40
1.8
  1
be reproduced, even partly, be communicated to a third party or used for any 
 72
5
 11
136.3272058824
 21
-34.87
100
AcDbText
  0
TEXT
  5
289
100
AcDbEntity
  8
0
100
AcDbText
 62
7
  6
CONTINUOUS
 10
46.0625
 20
-37.93
  7
TEXTSTYLE_3
 40
1.8
  1
possible purpose without ORAC's express written permission. Further legal 
 72
5
 11
132.7952731092
 21
-37.93
100
AcDbText
  0
TEXT
  5
28A
100
AcDbEntity
  8
0
100
AcDbText
 62
7
  6
CONTINUOUS
 10
46.0625
 20
-40.99
  7
TEXTSTYLE_3
 40
1.8
  1
information can be found at https://www.oracdecor.com/en/general-sales-conditions
 72
5
 11
145.349894958
 21
-40.99
100
AcDbText
  0
ENDBLK
  5
28B
100
AcDbEntity
  8
0
  6
BYBLOCK
 62
0
100
AcDbBlockEnd
  0
ENDSEC
  0
SECTION
  2
ENTITIES
  0
DIMENSION
  5
28C
100
AcDbEntity
  8
0
100
AcDbDimension
 62
2
  6
CONTINUOUS
  2
*D0
 10
33.1829777065
 20
48.2643152001
 11
33.1829777065
 21
106.3805876676
 70
160
 71
2
 72
2
 41
0.9
 42
119.9825449351
  1
<>mm\P4-3/4"
  3
DIMSTYLE_1
100
AcDbAlignedDimension
 13
55.4177265389
 23
168.2468601352
 14
55.4177265389
 24
48.2643152001
 50
270.0
100
AcDbRotatedDimension
  0
DIMENSION
  5
28D
100
AcDbEntity
  8
0
100
AcDbDimension
 62
2
  6
CONTINUOUS
  2
*D1
 10
85.7462719934
 20
186.3814924245
 11
70.5819992662
 21
184.5064924245
 70
160
 71
2
 72
2
 41
0.9
 42
30.3285454545
  1
<>mm\P1-1/8"
  3
DIMSTYLE_1
100
AcDbAlignedDimension
 13
55.4177265389
 23
168.2468601352
 14
85.7462719934
 24
132.2613298019
 50
360.0
100
AcDbRotatedDimension
  0
DIMENSION
  5
28E
100
AcDbEntity
  8
0
100
AcDbDimension
 62
2
  6
CONTINUOUS
  2
*D2
 10
62.9177265389
 20
174.6683861645
 11
74.3345408743
 21
172.7933861645
 70
160
 71
1
 72
2
 41
0.9
 42
7.5
  1
<>mm\P1/4"
  3
DIMSTYLE_2
100
AcDbAlignedDimension
 13
55.4177265389
 23
168.2468601352
 14
62.9177265389
 24
168.1159471482
 50
360.0
100
AcDbRotatedDimension
  0
DIMENSION
  5
28F
100
AcDbEntity
  8
0
100
AcDbDimension
 62
2
  6
CONTINUOUS
  2
*D3
 10
59.9177265389
 20
40.3745076218
 11
41.7240525696
 21
38.4995076218
 70
160
 71
3
 72
2
 41
0.9
 42
4.5
  1
<>mm\P1/8"
  3
DIMSTYLE_2
100
AcDbAlignedDimension
 13
55.4177265389
 23
48.2643152001
 14
59.9177265389
 24
48.3428629923
100
AcDbRotatedDimension
  0
DIMENSION
  5
290
100
AcDbEntity
  8
0
100
AcDbDimension
 62
2
  6
CONTINUOUS
  2
*D4
 10
74.4985070777
 20
131.9694248587
 11
64.9581168083
 21
130.0944248587
 70
160
 71
2
 72
2
 41
0.9
 42
19.0807805388
  1
<>mm\P3/4"
  3
DIMSTYLE_1
100
AcDbAlignedDimension
 13
55.4177265389
 23
153.0361045085
 14
74.4985070777
 24
129.4694248587
100
AcDbRotatedDimension
  0
DIMENSION
  5
291
100
AcDbEntity
  8
0
100
AcDbDimension
 62
2
  6
CONTINUOUS
  2
*D5
 10
44.8760836156
 20
104.3002518829
 11
44.8760836156
 21
126.7931781957
 70
160
 71
2
 72
2
 41
0.9
 42
48.7358526256
  1
<>mm\P1-7/8"
  3
DIMSTYLE_1
100
AcDbAlignedDimension
 13
55.4177265389
 23
153.0361045085
 14
55.4177265389
 24
104.3002518829
 50
270.0
100
AcDbRotatedDimension
  0
ACAD_TABLE
  5
292
100
AcDbEntity
  8
0
 62
2
  6
CONTINUOUS
100
AcDbBlockReference
  2
*T1
 10
144.0
 20
48.0
 30
0.0
100
AcDbTable
342
       302
343
21E
 11
1.0
 21
0.0
 31
0.0
 90
22
 91
4
 92
4
 93
0
 94
0
 95
0
 96
0
141
15.0
141
5.0
141
8.0
141
15.0
142
45.0
142
28.0
142
70.0
142
5.0
171
1
172
0
173
0
174
0
175
1
176
1
 91
41
178
0
145
0.0
301
CELL_VALUE
 90
4
  1
\A1;O\H5.5;RAC\fCG Triumvirate;\H3.0;\S®^ ;\PD  E  C  O  R\fCG Times;\H2.5; 
304
ACVALUE_END
170
5
140
8.0
 64
7
171
1
172
0
173
0
174
0
175
1
176
2
 91
57
178
0
145
0.0
  7
TEXTSTYLE_3
301
CELL_VALUE
 90
4
  1
Part name:\PDesigned by:\PDesigned on:
304
ACVALUE_END
170
6
140
2.7
 64
7
171
1
172
0
173
0
174
0
175
1
176
2
 91
49
178
0
145
0.0
  7
TEXTSTYLE_3
301
CELL_VALUE
 90
4
  1
P8050\PORAC\P02-Sep-2008 
304
ACVALUE_END
170
4
140
2.7
171
1
172
0
173
0
174
0
175
1
176
2
 91
49
178
0
145
0.0
  7
TEXTSTYLE_3
301
CELL_VALUE
 90
4
  1
Version: 1.0 
304
ACVALUE_END
170
6
140
1.5
171
1
172
0
173
0
174
0
175
1
176
3
 91
57
178
0
145
0.0
  7
TEXTSTYLE_3
301
CELL_VALUE
 90
4
  1
Biekorfstraat 32\P8400 Oostende - Belgium\PTel  +32 (0)59 80 32 52\Pwww.oracdecor.com\Pinfo@oracdecor.com
304
ACVALUE_END
170
5
140
2.5
 64
7
171
1
172
0
173
1
174
0
175
1
176
1
 91
1
178
0
145
0.0
170
1
171
1
172
0
173
1
174
0
175
1
176
1
 91
1
178
0
145
0.0
170
1
171
1
172
0
173
1
174
0
175
1
176
1
 91
1
178
0
145
0.0
170
1
171
1
172
0
173
1
174
0
175
1
176
1
 91
1
178
0
145
0.0
170
1
171
1
172
0
173
0
174
0
175
3
176
1
 91
57
178
0
145
0.0
  7
TEXTSTYLE_3
301
CELL_VALUE
 90
4
  1
Unless otherwise specified: all dimensions are in millimeters \Pand inches, scale 1:1, length 2 meters
304
ACVALUE_END
170
4
140
2.5
 64
7
171
1
172
0
173
1
174
0
175
1
176
1
 91
1
178
0
145
0.0
170
1
171
1
172
0
173
1
174
0
175
1
176
1
 91
1
178
0
145
0.0
170
1
171
1
172
0
173
1
174
0
175
1
176
1
 91
1
178
0
145
0.0
170
1
171
1
172
0
173
0
174
0
175
3
176
1
 91
57
178
0
145
0.0
  7
TEXTSTYLE_3
301
CELL_VALUE
 90
4
  2
All information in this document is Orac's exclusive property.  It may in no case \Pbe reproduced, even partly, be communicated to a third party or used for any \Ppossible purpose without ORAC's express written permission. Further legal \Pinformation
  1
 can be found at https://www.oracdecor.com/en/general-sales-conditions
304
ACVALUE_END
170
4
140
1.8
 64
7
171
1
172
0
173
1
174
0
175
1
176
1
 91
1
178
0
145
0.0
170
1
171
1
172
0
173
1
174
0
175
1
176
1
 91
1
178
0
145
0.0
170
1
  0
LINE
  5
293
100
AcDbEntity
  8
0
100
AcDbLine
 62
5
  6
CONTINUOUS
 10
0.0
 20
0.0
 11
0.0
 21
210.0
  0
LINE
  5
294
100
AcDbEntity
  8
0
100
AcDbLine
 62
7
  6
CONTINUOUS
 10
5.0
 20
5.0
 11
5.0
 21
195.0
  0
LINE
  5
295
100
AcDbEntity
  8
0
100
AcDbLine
 62
5
  6
CONTINUOUS
 10
0.0
 20
0.0
 11
297.0
 21
0.0
  0
LINE
  5
296
100
AcDbEntity
  8
0
100
AcDbLine
 62
7
  6
CONTINUOUS
 10
5.0
 20
5.0
 11
292.0
 21
5.0
  0
LINE
  5
297
100
AcDbEntity
  8
0
100
AcDbLine
 62
4
  6
CONTINUOUS
 10
148.5
 20
195.0
 11
148.5
 21
205.0
  0
LINE
  5
298
100
AcDbEntity
  8
0
100
AcDbLine
 62
7
  6
CONTINUOUS
 10
5.0
 20
195.0
 11
292.0
 21
195.0
  0
LINE
  5
299
100
AcDbEntity
  8
0
100
AcDbLine
 62
5
  6
CONTINUOUS
 10
0.0
 20
210.0
 11
297.0
 21
210.0
  0
LINE
  5
29A
100
AcDbEntity
  8
0
100
AcDbLine
 62
7
  6
CONTINUOUS
 10
292.0
 20
5.0
 11
292.0
 21
195.0
  0
LINE
  5
29B
100
AcDbEntity
  8
0
100
AcDbLine
 62
5
  6
CONTINUOUS
 10
297.0
 20
0.0
 11
297.0
 21
210.0
  0
LINE
  5
29C
100
AcDbEntity
  8
0
100
AcDbLine
 62
7
  6
CONTINUOUS
 10
181.0814844175
 20
58.1245686758
 11
185.5753460114
 21
58.3390152292
  0
LINE
  5
29D
100
AcDbEntity
  8
0
100
AcDbLine
 62
7
  6
CONTINUOUS
 10
240.5350716662
 20
63.1901972295
 11
185.5753460114
 21
58.3390152292
  0
LINE
  5
29E
100
AcDbEntity
  8
0
100
AcDbLine
 62
7
  6
CONTINUOUS
 10
247.4829114243
 20
75.8665185169
 11
192.5231857695
 21
71.0153365165
  0
LINE
  5
29F
100
AcDbEntity
  8
0
100
AcDbLine
 62
7
  6
CONTINUOUS
 10
181.0814844175
 20
58.1245686758
 11
180.9008616299
 21
64.0902542865
  0
LINE
  5
2A0
100
AcDbEntity
  8
0
100
AcDbLine
 62
7
  6
CONTINUOUS
 10
180.8102744656
 20
67.0822053581
 11
180.6059426407
 21
73.8309630549
  0
LINE
  5
2A1
100
AcDbEntity
  8
0
100
AcDbLine
 62
7
  6
CONTINUOUS
 10
179.9731995334
 20
94.7294692829
 11
179.3856662011
 21
114.1347679936
  0
LINE
  5
2A2
100
AcDbEntity
  8
0
100
AcDbLine
 62
7
  6
CONTINUOUS
 10
177.9107707758
 20
162.8482361906
 11
177.7216569068
 21
169.0943688188
  0
LINE
  5
2A3
100
AcDbEntity
  8
0
100
AcDbLine
 62
7
  6
CONTINUOUS
 10
177.6310697425
 20
172.0863198904
 11
177.450446955
 21
178.0520055011
  0
LINE
  5
2A4
100
AcDbEntity
  8
0
100
AcDbLine
 62
7
  6
CONTINUOUS
 10
249.5799254662
 20
78.3739742564
 11
194.6201998115
 21
73.522792256
  0
LINE
  5
2A5
100
AcDbEntity
  8
0
100
AcDbLine
 62
7
  6
CONTINUOUS
 10
182.3896388952
 20
77.2889520936
 11
182.0418845454
 21
88.7747294355
  0
LINE
  5
2A6
100
AcDbEntity
  8
0
100
AcDbLine
 62
7
  6
CONTINUOUS
 10
246.2770477178
 20
84.5520543072
 11
191.317322063
 21
79.7008723068
  0
LINE
  5
2A7
100
AcDbEntity
  8
0
100
AcDbLine
 62
7
  6
CONTINUOUS
 10
191.317322063
 20
79.7008723068
 11
191.2017722451
 21
83.5173004301
  0
LINE
  5
2A8
100
AcDbEntity
  8
0
100
AcDbLine
 62
7
  6
CONTINUOUS
 10
246.1614978999
 20
88.3684824304
 11
249.4166152689
 21
88.6952923673
  0
LINE
  5
2A9
100
AcDbEntity
  8
0
100
AcDbLine
 62
7
  6
CONTINUOUS
 10
191.2017722451
 20
83.5173004301
 11
194.4568896141
 21
83.8441103669
  0
LINE
  5
2AA
100
AcDbEntity
  8
0
100
AcDbLine
 62
7
  6
CONTINUOUS
 10
246.1614978999
 20
88.3684824304
 11
191.2017722451
 21
83.5173004301
  0
LINE
  5
2AB
100
AcDbEntity
  8
0
100
AcDbLine
 62
7
  6
CONTINUOUS
 10
249.4166152689
 20
88.6952923673
 11
194.4568896141
 21
83.8441103669
  0
LINE
  5
2AC
100
AcDbEntity
  8
0
100
AcDbLine
 62
7
  6
CONTINUOUS
 10
194.4568896141
 20
83.8441103669
 11
194.2588042119
 21
90.3865585782
  0
LINE
  5
2AD
100
AcDbEntity
  8
0
100
AcDbLine
 62
7
  6
CONTINUOUS
 10
188.2577707707
 20
125.951168718
 11
195.7745781875
 21
136.5823299403
  0
LINE
  5
2AE
100
AcDbEntity
  8
0
100
AcDbLine
 62
7
  6
CONTINUOUS
 10
249.2185298667
 20
95.2377405785
 11
194.2588042119
 21
90.3865585782
  0
LINE
  5
2AF
100
AcDbEntity
  8
0
100
AcDbLine
 62
7
  6
CONTINUOUS
 10
198.0832852001
 20
120.0094461596
 11
197.8904490611
 21
126.3785194933
  0
LINE
  5
2B0
100
AcDbEntity
  8
0
100
AcDbLine
 62
7
  6
CONTINUOUS
 10
196.904956936
 20
158.9277690654
 11
196.712120797
 21
165.296842399
  0
LINE
  5
2B1
100
AcDbEntity
  8
0
100
AcDbLine
 62
7
  6
CONTINUOUS
 10
242.0780055641
 20
111.3225941414
 11
187.1182799094
 21
106.4714121411
  0
LINE
  5
2B2
100
AcDbEntity
  8
0
100
AcDbLine
 62
7
  6
CONTINUOUS
 10
180.6059426407
 20
73.8309630549
 11
182.0379307531
 21
76.033315213
  0
LINE
  5
2B3
100
AcDbEntity
  8
0
100
AcDbLine
 62
7
  6
CONTINUOUS
 10
195.2582915565
 20
148.7997273278
 11
187.367839428
 21
158.1697887235
  0
LINE
  5
2B4
100
AcDbEntity
  8
0
100
AcDbLine
 62
7
  6
CONTINUOUS
 10
253.0430108548
 20
124.86062816
 11
198.0832852001
 21
120.0094461596
  0
LINE
  5
2B5
100
AcDbEntity
  8
0
100
AcDbLine
 62
7
  6
CONTINUOUS
 10
252.8501747159
 20
131.2297014937
 11
197.8904490611
 21
126.3785194933
  0
LINE
  5
2B6
100
AcDbEntity
  8
0
100
AcDbLine
 62
7
  6
CONTINUOUS
 10
246.2770477178
 20
84.5520543072
 11
246.1614978999
 21
88.3684824304
  0
LINE
  5
2B7
100
AcDbEntity
  8
0
100
AcDbLine
 62
7
  6
CONTINUOUS
 10
263.802399863
 20
147.8503422316
 11
208.8426742082
 21
142.9991602313
  0
LINE
  5
2B8
100
AcDbEntity
  8
0
100
AcDbLine
 62
7
  6
CONTINUOUS
 10
185.7922252838
 20
159.3509474476
 11
178.1559254991
 21
162.7209235292
  0
LINE
  5
2B9
100
AcDbEntity
  8
0
100
AcDbLine
 62
7
  6
CONTINUOUS
 10
249.4166152689
 20
88.6952923673
 11
249.2185298667
 21
95.2377405785
  0
LINE
  5
2BA
100
AcDbEntity
  8
0
100
AcDbLine
 62
7
  6
CONTINUOUS
 10
253.0430108548
 20
124.86062816
 11
252.8501747159
 21
131.2297014937
  0
LINE
  5
2BB
100
AcDbEntity
  8
0
100
AcDbLine
 62
7
  6
CONTINUOUS
 10
251.8646825908
 20
163.7789510657
 11
251.6718464518
 21
170.1480243994
  0
LINE
  5
2BC
100
AcDbEntity
  8
0
100
AcDbLine
 62
7
  6
CONTINUOUS
 10
251.8646825908
 20
163.7789510657
 11
196.904956936
 21
158.9277690654
  0
LINE
  5
2BD
100
AcDbEntity
  8
0
100
AcDbLine
 62
7
  6
CONTINUOUS
 10
251.6718464518
 20
170.1480243994
 11
196.712120797
 21
165.296842399
  0
LINE
  5
2BE
100
AcDbEntity
  8
0
100
AcDbLine
 62
7
  6
CONTINUOUS
 10
239.9078655849
 20
182.9988927067
 11
184.9481399301
 21
178.1477107063
  0
LINE
  5
2BF
100
AcDbEntity
  8
0
100
AcDbLine
 62
7
  6
CONTINUOUS
 10
232.4101726098
 20
182.9031875014
 11
177.450446955
 21
178.0520055011
  0
LINE
  5
2C0
100
AcDbEntity
  8
0
100
AcDbLine
 62
7
  6
CONTINUOUS
 10
184.9481399301
 20
178.1477107063
 11
177.450446955
 21
178.0520055011
  0
LINE
  5
2C1
100
AcDbEntity
  8
0
100
AcDbLine
 62
7
  6
CONTINUOUS
 10
239.9078655849
 20
182.9988927067
 11
232.4101726098
 21
182.9031875014
  0
LINE
  5
2C2
100
AcDbEntity
  8
0
100
AcDbLine
 62
7
  6
CONTINUOUS
 10
55.4177265389
 20
48.2643152001
 11
59.9177265389
 21
48.3428629923
  0
LINE
  5
2C3
100
AcDbEntity
  8
0
100
AcDbLine
 62
7
  6
CONTINUOUS
 10
66.3059714653
 20
73.3396547925
 11
69.5707265389
 21
73.5679487066
  0
LINE
  5
2C4
100
AcDbEntity
  8
0
100
AcDbLine
 62
7
  6
CONTINUOUS
 10
55.4177265389
 20
48.2643152001
 11
55.4177265389
 21
54.2327421155
  0
LINE
  5
2C5
100
AcDbEntity
  8
0
100
AcDbLine
 62
7
  6
CONTINUOUS
 10
55.4177265389
 20
57.2260680249
 11
55.4177265389
 21
63.9779268576
  0
LINE
  5
2C6
100
AcDbEntity
  8
0
100
AcDbLine
 62
7
  6
CONTINUOUS
 10
55.4177265389
 20
84.8860362024
 11
55.4177265389
 21
104.3002518829
  0
LINE
  5
2C7
100
AcDbEntity
  8
0
100
AcDbLine
 62
7
  6
CONTINUOUS
 10
55.4177265389
 20
153.0361045085
 11
55.4177265389
 21
159.2851073103
  0
LINE
  5
2C8
100
AcDbEntity
  8
0
100
AcDbLine
 62
7
  6
CONTINUOUS
 10
55.4177265389
 20
162.2784332197
 11
55.4177265389
 21
168.2468601352
  0
LINE
  5
2C9
100
AcDbEntity
  8
0
100
AcDbLine
 62
7
  6
CONTINUOUS
 10
57.3059714653
 20
67.3804390585
 11
57.3059714653
 21
78.8714942542
  0
LINE
  5
2CA
100
AcDbEntity
  8
0
100
AcDbLine
 62
7
  6
CONTINUOUS
 10
64.6468689171
 20
115.8431627281
 11
72.4849382502
 21
126.242329924
  0
LINE
  5
2CB
100
AcDbEntity
  8
0
100
AcDbLine
 62
7
  6
CONTINUOUS
 10
66.3059714653
 20
69.5214729744
 11
66.3059714653
 21
73.3396547925
  0
LINE
  5
2CC
100
AcDbEntity
  8
0
100
AcDbLine
 62
7
  6
CONTINUOUS
 10
69.5707265389
 20
73.5679487066
 11
69.5707265389
 21
80.1134032521
  0
LINE
  5
2CD
100
AcDbEntity
  8
0
100
AcDbLine
 62
7
  6
CONTINUOUS
 10
74.2917265389
 20
109.6072266286
 11
74.2917265389
 21
115.9792266286
  0
LINE
  5
2CE
100
AcDbEntity
  8
0
100
AcDbLine
 62
7
  6
CONTINUOUS
 10
74.2917265389
 20
148.5434329751
 11
74.2917265389
 21
154.9154329751
  0
LINE
  5
2CF
100
AcDbEntity
  8
0
100
AcDbLine
 62
7
  6
CONTINUOUS
 10
55.4177265389
 20
63.9779268576
 11
56.9162771525
 21
66.1360023921
  0
LINE
  5
2D0
100
AcDbEntity
  8
0
100
AcDbLine
 62
7
  6
CONTINUOUS
 10
72.3385687221
 20
138.4697648783
 11
64.7324125067
 21
148.0740023136
  0
LINE
  5
2D1
100
AcDbEntity
  8
0
100
AcDbLine
 62
7
  6
CONTINUOUS
 10
63.1926815069
 20
149.3022369638
 11
55.6590076213
 21
152.9014414396
  0
LINE
  5
2D2
100
AcDbEntity
  8
0
100
AcDbLine
 62
7
  6
CONTINUOUS
 10
62.9177265389
 20
168.1159471482
 11
55.4177265389
 21
168.2468601352
  0
ARC
  5
2D3
100
AcDbEntity
  8
0
100
AcDbCircle
 62
7
  6
CONTINUOUS
 10
254.7838501664
 20
63.6229144206
 40
14.2552568474
100
AcDbArc
 50
120.8078917843
 51
181.7394649773
  0
ARC
  5
2D4
100
AcDbEntity
  8
0
100
AcDbCircle
 62
7
  6
CONTINUOUS
 10
199.8241245116
 20
58.7717324203
 40
14.2552568474
100
AcDbArc
 50
120.8078917843
 51
181.7394649773
  0
ARC
  5
2D5
100
AcDbEntity
  8
0
100
AcDbCircle
 62
7
  6
CONTINUOUS
 10
187.6066258671
 20
142.3567536096
 40
10.0029981163
100
AcDbArc
 50
324.7411794636
 51
40.0985669178
  0
ARC
  5
2D6
100
AcDbEntity
  8
0
100
AcDbCircle
 62
7
  6
CONTINUOUS
 10
176.0425059108
 20
88.5930935201
 40
6.00212759
100
AcDbArc
 50
1.7341451481
 51
26.8263278245
  0
ARC
  5
2D7
100
AcDbEntity
  8
0
100
AcDbCircle
 62
7
  6
CONTINUOUS
 10
244.9493200869
 20
80.1159963969
 40
4.9474384601
100
AcDbArc
 50
300.803920436
 51
339.3838260444
  0
ARC
  5
2D8
100
AcDbEntity
  8
0
100
AcDbCircle
 62
7
  6
CONTINUOUS
 10
189.9895944322
 20
75.2648143965
 40
4.9474384601
100
AcDbArc
 50
300.8039204361
 51
339.3838260445
  0
ARC
  5
2D9
100
AcDbEntity
  8
0
100
AcDbCircle
 62
7
  6
CONTINUOUS
 10
245.2197199399
 20
80.0150124205
 40
4.6587184987
100
AcDbArc
 50
339.3753106787
 51
76.8817316045
  0
ARC
  5
2DA
100
AcDbEntity
  8
0
100
AcDbCircle
 62
7
  6
CONTINUOUS
 10
190.259994285
 20
75.1638304203
 40
4.6587184987
100
AcDbArc
 50
339.3753106775
 51
76.8817316033
  0
ARC
  5
2DB
100
AcDbEntity
  8
0
100
AcDbCircle
 62
7
  6
CONTINUOUS
 10
184.0307713746
 20
155.35976529
 40
4.3625972642
100
AcDbArc
 50
40.0995097831
 51
66.1863872588
  0
ARC
  5
2DC
100
AcDbEntity
  8
0
100
AcDbCircle
 62
7
  6
CONTINUOUS
 10
184.6958211951
 20
128.469590017
 40
4.3623308699
100
AcDbArc
 50
306.8011617334
 51
324.7383706869
  0
ARC
  5
2DD
100
AcDbEntity
  8
0
100
AcDbCircle
 62
7
  6
CONTINUOUS
 10
179.0374511002
 20
164.7180920599
 40
2.1830642514
100
AcDbArc
 50
238.9289646205
 51
246.1839270883
  0
ARC
  5
2DE
100
AcDbEntity
  8
0
100
AcDbCircle
 62
7
  6
CONTINUOUS
 10
180.2082812475
 20
77.2228819961
 40
2.1823580011
100
AcDbArc
 50
326.9696474475
 51
1.7348740434
  0
ARC
  5
2DF
100
AcDbEntity
  8
0
100
AcDbCircle
 62
7
  6
CONTINUOUS
 10
176.6761472189
 20
170.5600508322
 40
1.8003866159
100
AcDbArc
 50
305.5012661146
 51
57.9675121652
  0
ARC
  5
2E0
100
AcDbEntity
  8
0
100
AcDbCircle
 62
7
  6
CONTINUOUS
 10
179.855351942
 20
65.5559362999
 40
1.8003866159
100
AcDbArc
 50
305.501266113
 51
57.9675121669
  0
ARC
  5
2E1
100
AcDbEntity
  8
0
100
AcDbCircle
 62
7
  6
CONTINUOUS
 10
74.1728748243
 20
48.3428629923
 40
14.2551482854
100
AcDbArc
 50
119.0599997554
 51
180.0
  0
ARC
  5
2E2
100
AcDbEntity
  8
0
100
AcDbCircle
 62
7
  6
CONTINUOUS
 10
64.499223475
 20
132.2613298019
 40
10.0
100
AcDbArc
 50
322.9939042153
 51
38.3777580675
  0
ARC
  5
2E3
100
AcDbEntity
  8
0
100
AcDbCircle
 62
7
  6
CONTINUOUS
 10
51.3059714653
 20
78.8714942542
 40
6.0
100
AcDbArc
 50
0.0
 51
25.1014756392
  0
ARC
  5
2E4
100
AcDbEntity
  8
0
100
AcDbCircle
 62
7
  6
CONTINUOUS
 10
64.8452441926
 20
65.1288743388
 40
4.9483636364
100
AcDbArc
 50
299.0599997553
 51
337.6400277847
  0
ARC
  5
2E5
100
AcDbEntity
  8
0
100
AcDbCircle
 62
7
  6
CONTINUOUS
 10
65.1136078289
 20
65.0184821005
 40
4.6581818182
100
AcDbArc
 50
337.6400277847
 51
75.1688177648
  0
ARC
  5
2E6
100
AcDbEntity
  8
0
100
AcDbCircle
 62
7
  6
CONTINUOUS
 10
61.1621933788
 20
118.4696354021
 40
4.3636363636
100
AcDbArc
 50
305.0581521838
 51
322.9939042153
  0
ARC
  5
2E7
100
AcDbEntity
  8
0
100
AcDbCircle
 62
7
  6
CONTINUOUS
 10
61.3116073079
 20
145.3648670076
 40
4.3636363636
100
AcDbArc
 50
38.3777580675
 51
64.4639123038
  0
ARC
  5
2E8
100
AcDbEntity
  8
0
100
AcDbCircle
 62
7
  6
CONTINUOUS
 10
56.5995447209
 20
154.8701264179
 40
2.181818182
100
AcDbArc
 50
237.2028317016
 51
244.4639123038
  0
ARC
  5
2E9
100
AcDbEntity
  8
0
100
AcDbCircle
 62
7
  6
CONTINUOUS
 10
55.1241532833
 20
67.3804390585
 40
2.181818182
100
AcDbArc
 50
325.2241918296
 51
360.0
  0
ARC
  5
2EA
100
AcDbEntity
  8
0
100
AcDbCircle
 62
7
  6
CONTINUOUS
 10
54.4177265389
 20
160.781770265
 40
1.8
100
AcDbArc
 50
303.7489885959
 51
56.2510114041
  0
ARC
  5
2EB
100
AcDbEntity
  8
0
100
AcDbCircle
 62
7
  6
CONTINUOUS
 10
54.4177265389
 20
55.7294050702
 40
1.8
100
AcDbArc
 50
303.7489885959
 51
56.2510114041
  0
SPLINE
  5
2EC
100
AcDbEntity
  8
0
100
AcDbSpline
 62
7
  6
CONTINUOUS
 70
0
 71
3
 72
17
 73
13
 74
0
 42
0.0000001
 43
0.0000001
 44
0.0000000001
 40
0.0
 40
0.0
 40
0.0
 40
0.0
 40
0.1351276109
 40
0.2658567045
 40
0.3922299914
 40
0.5145008066
 40
0.6335175097
 40
0.7510713883
 40
0.8104034466
 40
0.8709610598
 40
0.9337122202
 40
1.0
 40
1.0
 40
1.0
 40
1.0
 10
242.0780055641
 20
111.3225941414
 30
0.0
 10
242.1032064149
 20
110.4902498146
 30
0.0
 10
242.1939033845
 20
108.8533995943
 30
0.0
 10
242.4784986096
 20
106.4512796414
 30
0.0
 10
242.9285111124
 20
104.1542354138
 30
0.0
 10
243.5781358113
 20
101.9790683804
 30
0.0
 10
244.4622817544
 20
99.945236886
 30
0.0
 10
245.4435010502
 20
98.3961102207
 30
0.0
 10
246.3973801615
 20
97.2834882299
 30
0.0
 10
247.2186639535
 20
96.5104132688
 30
0.0
 10
248.1576357282
 20
95.8106615633
 30
0.0
 10
248.8515770008
 20
95.4172323873
 30
0.0
 10
249.2185298667
 20
95.2377405785
 30
0.0
  0
SPLINE
  5
2ED
100
AcDbEntity
  8
0
100
AcDbSpline
 62
7
  6
CONTINUOUS
 70
0
 71
3
 72
18
 73
14
 74
0
 42
0.0000001
 43
0.0000001
 44
0.0000000001
 40
0.0
 40
0.0
 40
0.0
 40
0.0
 40
0.073281534
 40
0.1402906761
 40
0.2034983428
 40
0.2642178291
 40
0.3813761456
 40
0.4962860135
 40
0.6118784406
 40
0.7310058189
 40
0.793089884
 40
0.85778621
 40
1.0
 40
1.0
 40
1.0
 40
1.0
 10
253.0430108548
 20
124.86062816
 30
0.0
 10
252.58316393
 20
124.8063351775
 30
0.0
 10
251.7092415948
 20
124.6379586355
 30
0.0
 10
250.485847305
 20
124.2336267109
 30
0.0
 10
249.3861145147
 20
123.731929743
 30
0.0
 10
248.0693239053
 20
122.9621412912
 30
0.0
 10
246.6014319127
 20
121.8204622389
 30
0.0
 10
245.1008265018
 20
120.2044579643
 30
0.0
 10
243.8553436871
 20
118.3697973812
 30
0.0
 10
243.0487386591
 20
116.6675462153
 30
0.0
 10
242.556286281
 20
115.1919057701
 30
0.0
 10
242.1636134469
 20
113.5369117614
 30
0.0
 10
242.050811146
 20
112.2207828553
 30
0.0
 10
242.0780055641
 20
111.3225941414
 30
0.0
  0
SPLINE
  5
2EE
100
AcDbEntity
  8
0
100
AcDbSpline
 62
7
  6
CONTINUOUS
 70
0
 71
3
 72
17
 73
13
 74
0
 42
0.0000001
 43
0.0000001
 44
0.0000000001
 40
0.0
 40
0.0
 40
0.0
 40
0.0
 40
0.2498119225
 40
0.3748770623
 40
0.4998911755
 40
0.6248277162
 40
0.6873685475
 40
0.7499018597
 40
0.8124289556
 40
0.8749527388
 40
0.9374738846
 40
1.0
 40
1.0
 40
1.0
 40
1.0
 10
263.802399863
 20
147.8503422316
 30
0.0
 10
263.8577673558
 20
146.0216413273
 30
0.0
 10
263.6742590041
 20
143.2513351372
 30
0.0
 10
262.7330923797
 20
139.7026400737
 30
0.0
 10
261.6234356343
 20
137.1761333409
 30
0.0
 10
260.3170547461
 20
135.2749064464
 30
0.0
 10
259.0384047821
 20
133.9590543766
 30
0.0
 10
257.9659966754
 20
133.0943585927
 30
0.0
 10
256.791932102
 20
132.3735659
 30
0.0
 10
255.5333851564
 20
131.8129542977
 30
0.0
 10
254.212596112
 20
131.4220625621
 30
0.0
 10
253.305804455
 20
131.275446181
 30
0.0
 10
252.8501747159
 20
131.2297014937
 30
0.0
  0
SPLINE
  5
2EF
100
AcDbEntity
  8
0
100
AcDbSpline
 62
7
  6
CONTINUOUS
 70
0
 71
3
 72
17
 73
13
 74
0
 42
0.0000001
 43
0.0000001
 44
0.0000000001
 40
0.0
 40
0.0
 40
0.0
 40
0.0
 40
0.0625270668
 40
0.1250513511
 40
0.187579448
 40
0.2501112188
 40
0.3126480404
 40
0.3751906346
 40
0.5001282279
 40
0.6251387495
 40
0.7501977971
 40
1.0
 40
1.0
 40
1.0
 40
1.0
 10
251.8646825908
 20
163.7789510657
 30
0.0
 10
252.3222628419
 20
163.7608143214
 30
0.0
 10
253.2363093772
 20
163.6692373513
 30
0.0
 10
254.5783972602
 20
163.3588300701
 30
0.0
 10
255.8686257175
 20
162.8752151229
 30
0.0
 10
257.0842038318
 20
162.2266068323
 30
0.0
 10
258.2069805685
 20
161.4282128949
 30
0.0
 10
259.5628701188
 20
160.1919594646
 30
0.0
 10
260.9818106922
 20
158.3731300103
 30
0.0
 10
262.2422058218
 20
155.9183350019
 30
0.0
 10
263.3962689335
 20
152.4331054735
 30
0.0
 10
263.7470330445
 20
149.6790208649
 30
0.0
 10
263.802399863
 20
147.8503422316
 30
0.0
  0
SPLINE
  5
2F0
100
AcDbEntity
  8
0
100
AcDbSpline
 62
7
  6
CONTINUOUS
 70
0
 71
3
 72
20
 73
16
 74
0
 42
0.0000001
 43
0.0000001
 44
0.0000000001
 40
0.0
 40
0.0
 40
0.0
 40
0.0
 40
0.1452039747
 40
0.2109390074
 40
0.2737268725
 40
0.3933192699
 40
0.5082834134
 40
0.6217194821
 40
0.6789076372
 40
0.7370386202
 40
0.7967911896
 40
0.8592275577
 40
0.9259264559
 40
0.9617429362
 40
1.0
 40
1.0
 40
1.0
 40
1.0
 10
239.9078655849
 20
182.9988927067
 30
0.0
 10
239.9359259108
 20
182.0721044283
 30
0.0
 10
240.1196281075
 20
180.7254074217
 30
0.0
 10
240.5981562849
 20
179.0428611277
 30
0.0
 10
241.163058159
 20
177.5607661522
 30
0.0
 10
242.0507652381
 20
175.8725202433
 30
0.0
 10
243.3877976471
 20
174.0866029938
 30
0.0
 10
244.7082445103
 20
172.815307108
 30
0.0
 10
245.8846144014
 20
171.9464625737
 30
0.0
 10
246.8430779308
 20
171.3677342798
 30
0.0
 10
247.8840607592
 20
170.870675657
 30
0.0
 10
249.0265313537
 20
170.475749281
 30
0.0
 10
250.0596697636
 20
170.2543978837
 30
0.0
 10
250.9540913298
 20
170.1579558439
 30
0.0
 10
251.4275724477
 20
170.1449063344
 30
0.0
 10
251.6718464518
 20
170.1480243994
 30
0.0
  0
SPLINE
  5
2F1
100
AcDbEntity
  8
0
100
AcDbSpline
 62
7
  6
CONTINUOUS
 70
0
 71
3
 72
9
 73
5
 74
0
 42
0.0000001
 43
0.0000001
 44
0.0000000001
 40
0.0
 40
0.0
 40
0.0
 40
0.0
 40
0.2572067909
 40
1.0
 40
1.0
 40
1.0
 40
1.0
 10
181.3986757829
 20
91.3017795314
 30
0.0
 10
181.2549665506
 20
91.5859437056
 30
0.0
 10
180.7185753625
 20
92.7020152548
 30
0.0
 10
180.267161503
 20
93.8580993869
 30
0.0
 10
179.9731995334
 20
94.7294692829
 30
0.0
  0
SPLINE
  5
2F2
100
AcDbEntity
  8
0
100
AcDbSpline
 62
7
  6
CONTINUOUS
 70
0
 71
3
 72
12
 73
8
 74
0
 42
0.0000001
 43
0.0000001
 44
0.0000000001
 40
0.0
 40
0.0
 40
0.0
 40
0.0
 40
0.1301340513
 40
0.2562657579
 40
0.5025187196
 40
0.7479314559
 40
1.0
 40
1.0
 40
1.0
 40
1.0
 10
179.3856662011
 20
114.1347679936
 30
0.0
 10
179.5819126853
 20
114.6917093389
 30
0.0
 10
180.0098843626
 20
115.7744557925
 30
0.0
 10
181.0066274527
 20
117.8270886392
 30
0.0
 10
182.5009634348
 20
120.2115105414
 30
0.0
 10
184.689732912
 20
122.7940986765
 30
0.0
 10
186.3931622143
 20
124.2914087226
 30
0.0
 10
187.3090311556
 20
124.9765878239
 30
0.0
  0
SPLINE
  5
2F3
100
AcDbEntity
  8
0
100
AcDbSpline
 62
7
  6
CONTINUOUS
 70
0
 71
3
 72
20
 73
16
 74
0
 42
0.0000001
 43
0.0000001
 44
0.0000000001
 40
0.0
 40
0.0
 40
0.0
 40
0.0
 40
0.1452039747
 40
0.2109390074
 40
0.2737268725
 40
0.3933192699
 40
0.5082834134
 40
0.6217194821
 40
0.6789076372
 40
0.7370386202
 40
0.7967911896
 40
0.8592275577
 40
0.9259264559
 40
0.9617429362
 40
1.0
 40
1.0
 40
1.0
 40
1.0
 10
184.9481399301
 20
178.1477107063
 30
0.0
 10
184.976200256
 20
177.220922428
 30
0.0
 10
185.1599024527
 20
175.8742254214
 30
0.0
 10
185.6384306301
 20
174.1916791274
 30
0.0
 10
186.2033325042
 20
172.7095841519
 30
0.0
 10
187.0910395833
 20
171.0213382429
 30
0.0
 10
188.4280719923
 20
169.2354209934
 30
0.0
 10
189.7485188555
 20
167.9641251077
 30
0.0
 10
190.9248887467
 20
167.0952805733
 30
0.0
 10
191.8833522761
 20
166.5165522795
 30
0.0
 10
192.9243351045
 20
166.0194936566
 30
0.0
 10
194.0668056989
 20
165.6245672807
 30
0.0
 10
195.0999441089
 20
165.4032158834
 30
0.0
 10
195.994365675
 20
165.3067738436
 30
0.0
 10
196.4678467929
 20
165.2937243341
 30
0.0
 10
196.712120797
 20
165.296842399
 30
0.0
  0
SPLINE
  5
2F4
100
AcDbEntity
  8
0
100
AcDbSpline
 62
7
  6
CONTINUOUS
 70
0
 71
3
 72
17
 73
13
 74
0
 42
0.0000001
 43
0.0000001
 44
0.0000000001
 40
0.0
 40
0.0
 40
0.0
 40
0.0
 40
0.1351276109
 40
0.2658567045
 40
0.3922299914
 40
0.5145008066
 40
0.6335175097
 40
0.7510713883
 40
0.8104034466
 40
0.8709610598
 40
0.9337122202
 40
1.0
 40
1.0
 40
1.0
 40
1.0
 10
187.1182799094
 20
106.4714121411
 30
0.0
 10
187.1434807601
 20
105.6390678142
 30
0.0
 10
187.2341777297
 20
104.0022175939
 30
0.0
 10
187.5187729549
 20
101.600097641
 30
0.0
 10
187.9687854576
 20
99.3030534134
 30
0.0
 10
188.6184101565
 20
97.12788638
 30
0.0
 10
189.5025560997
 20
95.0940548857
 30
0.0
 10
190.4837753954
 20
93.5449282204
 30
0.0
 10
191.4376545068
 20
92.4323062295
 30
0.0
 10
192.2589382987
 20
91.6592312684
 30
0.0
 10
193.1979100734
 20
90.959479563
 30
0.0
 10
193.8918513461
 20
90.566050387
 30
0.0
 10
194.2588042119
 20
90.3865585782
 30
0.0
  0
SPLINE
  5
2F5
100
AcDbEntity
  8
0
100
AcDbSpline
 62
7
  6
CONTINUOUS
 70
0
 71
3
 72
18
 73
14
 74
0
 42
0.0000001
 43
0.0000001
 44
0.0000000001
 40
0.0
 40
0.0
 40
0.0
 40
0.0
 40
0.073281534
 40
0.1402906761
 40
0.2034983428
 40
0.2642178291
 40
0.3813761456
 40
0.4962860135
 40
0.6118784406
 40
0.7310058189
 40
0.793089884
 40
0.85778621
 40
1.0
 40
1.0
 40
1.0
 40
1.0
 10
198.0832852001
 20
120.0094461596
 30
0.0
 10
197.6234382752
 20
119.9551531772
 30
0.0
 10
196.74951594
 20
119.7867766352
 30
0.0
 10
195.5261216502
 20
119.3824447106
 30
0.0
 10
194.4263888599
 20
118.8807477427
 30
0.0
 10
193.1095982505
 20
118.1109592909
 30
0.0
 10
191.6417062579
 20
116.9692802386
 30
0.0
 10
190.141100847
 20
115.353275964
 30
0.0
 10
188.8956180323
 20
113.5186153808
 30
0.0
 10
188.0890130043
 20
111.8163642149
 30
0.0
 10
187.5965606262
 20
110.3407237698
 30
0.0
 10
187.2038877921
 20
108.685729761
 30
0.0
 10
187.0910854912
 20
107.369600855
 30
0.0
 10
187.1182799094
 20
106.4714121411
 30
0.0
  0
SPLINE
  5
2F6
100
AcDbEntity
  8
0
100
AcDbSpline
 62
7
  6
CONTINUOUS
 70
0
 71
3
 72
17
 73
13
 74
0
 42
0.0000001
 43
0.0000001
 44
0.0000000001
 40
0.0
 40
0.0
 40
0.0
 40
0.0
 40
0.2498119225
 40
0.3748770623
 40
0.4998911755
 40
0.6248277162
 40
0.6873685475
 40
0.7499018597
 40
0.8124289556
 40
0.8749527388
 40
0.9374738846
 40
1.0
 40
1.0
 40
1.0
 40
1.0
 10
208.8426742082
 20
142.9991602313
 30
0.0
 10
208.898041701
 20
141.1704593269
 30
0.0
 10
208.7145333493
 20
138.4001531368
 30
0.0
 10
207.773366725
 20
134.8514580733
 30
0.0
 10
206.6637099795
 20
132.3249513406
 30
0.0
 10
205.3573290913
 20
130.4237244461
 30
0.0
 10
204.0786791274
 20
129.1078723763
 30
0.0
 10
203.0062710207
 20
128.2431765923
 30
0.0
 10
201.8322064472
 20
127.5223838997
 30
0.0
 10
200.5736595016
 20
126.9617722973
 30
0.0
 10
199.2528704572
 20
126.5708805617
 30
0.0
 10
198.3460788002
 20
126.4242641806
 30
0.0
 10
197.8904490611
 20
126.3785194933
 30
0.0
  0
SPLINE
  5
2F7
100
AcDbEntity
  8
0
100
AcDbSpline
 62
7
  6
CONTINUOUS
 70
0
 71
3
 72
17
 73
13
 74
0
 42
0.0000001
 43
0.0000001
 44
0.0000000001
 40
0.0
 40
0.0
 40
0.0
 40
0.0
 40
0.0625270668
 40
0.1250513511
 40
0.187579448
 40
0.2501112188
 40
0.3126480404
 40
0.3751906346
 40
0.5001282279
 40
0.6251387495
 40
0.7501977971
 40
1.0
 40
1.0
 40
1.0
 40
1.0
 10
196.904956936
 20
158.9277690654
 30
0.0
 10
197.3625371871
 20
158.909632321
 30
0.0
 10
198.2765837224
 20
158.818055351
 30
0.0
 10
199.6186716055
 20
158.5076480697
 30
0.0
 10
200.9089000627
 20
158.0240331226
 30
0.0
 10
202.1244781771
 20
157.375424832
 30
0.0
 10
203.2472549137
 20
156.5770308945
 30
0.0
 10
204.6031444641
 20
155.3407774642
 30
0.0
 10
206.0220850374
 20
153.52194801
 30
0.0
 10
207.282480167
 20
151.0671530015
 30
0.0
 10
208.4365432787
 20
147.5819234732
 30
0.0
 10
208.7873073898
 20
144.8278388645
 30
0.0
 10
208.8426742082
 20
142.9991602313
 30
0.0
  0
SPLINE
  5
2F8
100
AcDbEntity
  8
0
100
AcDbSpline
 62
7
  6
CONTINUOUS
 70
0
 71
3
 72
13
 73
9
 74
0
 42
0.0000001
 43
0.0000001
 44
0.0000000001
 40
0.0
 40
0.0
 40
0.0
 40
0.0
 40
0.25
 40
0.5
 40
0.625
 40
0.75
 40
0.875
 40
1.0
 40
1.0
 40
1.0
 40
1.0
 10
62.9177265389
 20
96.4067124556
 30
0.0
 10
62.9177265389
 20
94.7144151141
 30
0.0
 10
63.0911830571
 20
91.4344798888
 30
0.0
 10
63.8711843153
 20
87.6743703828
 30
0.0
 10
64.964675197
 20
84.9495615856
 30
0.0
 10
66.0718967768
 20
83.0791862293
 30
0.0
 10
67.5368301706
 20
81.4246455088
 30
0.0
 10
68.8221601543
 20
80.5078851158
 30
0.0
 10
69.5707265389
 20
80.1134032521
 30
0.0
  0
SPLINE
  5
2F9
100
AcDbEntity
  8
0
100
AcDbSpline
 62
7
  6
CONTINUOUS
 70
0
 71
3
 72
17
 73
13
 74
0
 42
0.0000001
 43
0.0000001
 44
0.0000000001
 40
0.0
 40
0.0
 40
0.0
 40
0.0
 40
0.0625
 40
0.125
 40
0.25
 40
0.375
 40
0.5
 40
0.625
 40
0.75
 40
0.875
 40
0.9375
 40
1.0
 40
1.0
 40
1.0
 40
1.0
 10
74.2917265389
 20
109.6072266286
 30
0.0
 10
73.8014562719
 20
109.5643335382
 30
0.0
 10
72.8948729695
 20
109.4107780406
 30
0.0
 10
71.2782314199
 20
108.9235850109
 30
0.0
 10
69.5324445979
 20
108.0625888005
 30
0.0
 10
67.7438443457
 20
106.7486808511
 30
0.0
 10
66.2140064215
 20
105.197660914
 30
0.0
 10
64.9265075882
 20
103.4245781132
 30
0.0
 10
63.8919651722
 20
101.4197034615
 30
0.0
 10
63.2732603581
 20
99.5259268716
 30
0.0
 10
62.9787172968
 20
97.8272537819
 30
0.0
 10
62.9177265389
 20
96.8988554753
 30
0.0
 10
62.9177265389
 20
96.4067124556
 30
0.0
  0
SPLINE
  5
2FA
100
AcDbEntity
  8
0
100
AcDbSpline
 62
7
  6
CONTINUOUS
 70
0
 71
3
 72
12
 73
8
 74
0
 42
0.0000001
 43
0.0000001
 44
0.0000000001
 40
0.0
 40
0.0
 40
0.0
 40
0.0
 40
0.039587196
 40
0.3058560156
 40
0.5721248352
 40
0.8383936548
 40
1.0
 40
1.0
 40
1.0
 40
1.0
 10
55.4177265389
 20
104.3002518829
 30
0.0
 10
55.4865589114
 20
104.4781557744
 30
0.0
 10
56.0318070654
 20
105.8368477935
 30
0.0
 10
57.2332603292
 20
108.1601104771
 30
0.0
 10
59.3181178933
 20
111.0349217069
 30
0.0
 10
61.4975129262
 20
113.2451830653
 30
0.0
 10
63.0460477113
 20
114.4607682917
 30
0.0
 10
63.6686989938
 20
114.8976958846
 30
0.0
  0
SPLINE
  5
2FB
100
AcDbEntity
  8
0
100
AcDbSpline
 62
7
  6
CONTINUOUS
 70
0
 71
3
 72
9
 73
5
 74
0
 42
0.0000001
 43
0.0000001
 44
0.0000000001
 40
0.0
 40
0.0
 40
0.0
 40
0.0
 40
0.7944297555
 40
1.0
 40
1.0
 40
1.0
 40
1.0
 10
56.7393187066
 20
81.4168307261
 30
0.0
 10
56.3052726248
 20
82.3433577717
 30
0.0
 10
55.8543611756
 20
83.5028975451
 30
0.0
 10
55.4893244784
 20
84.6505889703
 30
0.0
 10
55.4177265389
 20
84.8860362024
 30
0.0
  0
SPLINE
  5
2FC
100
AcDbEntity
  8
0
100
AcDbSpline
 62
7
  6
CONTINUOUS
 70
0
 71
3
 72
16
 73
12
 74
0
 42
0.0000001
 43
0.0000001
 44
0.0000000001
 40
0.0
 40
0.0
 40
0.0
 40
0.0
 40
0.125
 40
0.25
 40
0.375
 40
0.5
 40
0.625
 40
0.75
 40
0.875
 40
0.9375
 40
1.0
 40
1.0
 40
1.0
 40
1.0
 10
85.7462719934
 20
132.2613298019
 30
0.0
 10
85.7462719934
 20
131.1378448179
 30
0.0
 10
85.6123476413
 20
129.0157613288
 30
0.0
 10
85.0661743704
 20
126.1546211918
 30
0.0
 10
84.2005655282
 20
123.591359544
 30
0.0
 10
83.0210828779
 20
121.3207899574
 30
0.0
 10
81.5145965179
 20
119.3551562634
 30
0.0
 10
79.6442557499
 20
117.728822294
 30
0.0
 10
77.7232450851
 20
116.7114812597
 30
0.0
 10
75.8912657709
 20
116.1728596398
 30
0.0
 10
74.8521006544
 20
116.018411804
 30
0.0
 10
74.2917265389
 20
115.9792266286
 30
0.0
  0
SPLINE
  5
2FD
100
AcDbEntity
  8
0
100
AcDbSpline
 62
7
  6
CONTINUOUS
 70
0
 71
3
 72
17
 73
13
 74
0
 42
0.0000001
 43
0.0000001
 44
0.0000000001
 40
0.0
 40
0.0
 40
0.0
 40
0.0
 40
0.0625
 40
0.125
 40
0.25
 40
0.375
 40
0.5
 40
0.625
 40
0.75
 40
0.875
 40
0.9375
 40
1.0
 40
1.0
 40
1.0
 40
1.0
 10
62.9177265389
 20
168.1159471482
 30
0.0
 10
62.9177265389
 20
167.6080781306
 30
0.0
 10
62.9751314242
 20
166.6487517192
 30
0.0
 10
63.2568890894
 20
164.8941581353
 30
0.0
 10
63.8556784507
 20
162.943241714
 30
0.0
 10
64.8680325792
 20
160.8908652399
 30
0.0
 10
66.138014178
 20
159.0916585757
 30
0.0
 10
67.6575823257
 20
157.5377199301
 30
0.0
 10
69.4467246682
 20
156.248691108
 30
0.0
 10
71.2069343237
 20
155.4390992311
 30
0.0
 10
72.8527796307
 20
155.0249908395
 30
0.0
 10
73.7839348722
 20
154.9242965116
 30
0.0
 10
74.2917265389
 20
154.9154329751
 30
0.0
  0
SPLINE
  5
2FE
100
AcDbEntity
  8
0
100
AcDbSpline
 62
7
  6
CONTINUOUS
 70
0
 71
3
 72
16
 73
12
 74
0
 42
0.0000001
 43
0.0000001
 44
0.0000000001
 40
0.0
 40
0.0
 40
0.0
 40
0.0
 40
0.0625
 40
0.125
 40
0.25
 40
0.375
 40
0.5
 40
0.625
 40
0.75
 40
0.875
 40
1.0
 40
1.0
 40
1.0
 40
1.0
 10
74.2917265389
 20
148.5434329751
 30
0.0
 10
74.8521006544
 20
148.5042477997
 30
0.0
 10
75.8912657709
 20
148.349799964
 30
0.0
 10
77.7232450851
 20
147.8111783441
 30
0.0
 10
79.6442557499
 20
146.7938373097
 30
0.0
 10
81.5145965179
 20
145.1675033404
 30
0.0
 10
83.0210828779
 20
143.2018696463
 30
0.0
 10
84.2005655282
 20
140.9313000597
 30
0.0
 10
85.0661743704
 20
138.368038412
 30
0.0
 10
85.6123476413
 20
135.5068982749
 30
0.0
 10
85.7462719934
 20
133.3848147858
 30
0.0
 10
85.7462719934
 20
132.2613298019
 30
0.0
  0
ENDSEC
  0
SECTION
  2
OBJECTS
  0
DICTIONARY
  5
C
100
AcDbDictionary
280
0
281
1
  3
ACAD_GROUP
350
D
  3
ACAD_MLINESTYLE
350
17
  3
ACAD_LAYOUT
350
1A
  3
ACAD_PLOTSETTINGS
350
19
  3
ACAD_PLOTSTYLENAME
350
E
  3
ACAD_TABLESTYLE
350
       2FF
  0
DICTIONARY
  5
D
102
{ACAD_REACTORS
330
C
102
}
100
AcDbDictionary
280
0
281
1
  0
ACDBDICTIONARYWDFLT
  5
E
102
{ACAD_REACTORS
330
C
102
}
100
AcDbDictionary
281
1
  3
Normal
350
F
100
AcDbDictionaryWithDefault
340
F
  0
DICTIONARY
  5
17
102
{ACAD_REACTORS
330
C
102
}
100
AcDbDictionary
280
0
281
1
  3
Standard
350
18
  0
DICTIONARY
  5
2FF
330
C
100
AcDbDictionary
281
1
  3
Standard
350
       302
  3
Standard1
350
       303
  0
DICTIONARY
  5
19
102
{ACAD_REACTORS
330
C
102
}
100
AcDbDictionary
281
1
  0
DICTIONARY
  5
1A
102
{ACAD_REACTORS
330
C
102
}
100
AcDbDictionary
281
1
  3
Model
350
300
  3
Layout1
350
301
  0
ACDBPLACEHOLDER
  5
F
102
{ACAD_REACTORS
330
E
102
}
  0
MLINESTYLE
  5
18
102
{ACAD_REACTORS
330
17
102
}
100
AcDbMlineStyle
  2
STANDARD
 70
0
  3

 62
256
 51
90.0
 52
90.0
 71
2
 49
0.5
 62
256
  6
BYLAYER
 49
-0.5
 62
256
  6
BYLAYER
  0
LAYOUT
  5
300
102
{ACAD_REACTORS
330
1A
102
}
100
AcDbPlotSettings
  1

  2
none_device
  4
ISO_A4_(297.00_x_210.00_MM)
  6

 40
0.0
 41
0.0
 42
0.0
 43
0.0
 44
297.0
 45
210.0
 46
0.0
 47
0.0
 48
0.0
 49
0.0
140
0.0
141
0.0
142
1.0
143
1.0
 70
1024
 72
1
 73
0
 74
0
  7

 75
0
147
1.0
148
0.0
149
0.0
100
AcDbLayout
  1
Model
 70
0
 71
0
 10
0.0
 20
0.0
 11
297.0
 21
210.0
 12
0.0
 22
0.0
 32
0.0
 14
0.0
 24
0.0
 34
0.0
 15
0.0
 25
0.0
 35
0.0
146
0.0
 13
0.0
 23
0.0
 33
0.0
 16
1.0
 26
0.0
 36
0.0
 17
0.0
 27
1.0
 37
0.0
 76
0
330
215
345
0
346
0
  0
LAYOUT
  5
301
102
{ACAD_REACTORS
330
1A
102
}
100
AcDbPlotSettings
  1

  2
none_device
  4
ISO_A4_(297.00_x_210.00_MM)
  6

 40
0.0
 41
0.0
 42
0.0
 43
0.0
 44
297.0
 45
210.0
 46
0.0
 47
0.0
 48
0.0
 49
0.0
140
0.0
141
0.0
142
1.0
143
1.0
 70
0
 72
1
 73
0
 74
0
  7

 75
0
147
1.0
148
0.0
149
0.0
100
AcDbLayout
  1
Layout1
 70
0
 71
1
 10
0.0
 20
0.0
 11
297.0
 21
210.0
 12
0.0
 22
0.0
 32
0.0
 14
0.0
 24
0.0
 34
0.0
 15
0.0
 25
0.0
 35
0.0
146
0.0
 13
0.0
 23
0.0
 33
0.0
 16
1.0
 26
0.0
 36
0.0
 17
0.0
 27
1.0
 37
0.0
 76
0
330
216
345
0
346
0
  0
TABLESTYLE
  5
302
102
{ACAD_REACTORS
330
2FF
330
292
102
}
330
2FF
100
AcDbTableStyle
  3
Standard
 70
0
 71
0
 40
0.06
 41
0.06
280
1
281
1
  7
Standard
140
0.18
170
1
 62
0
 63
7
283
0
  7
Standard
140
0.18
170
1
 62
0
 63
7
283
0
  7
Standard
140
0.18
170
1
 62
0
 63
7
283
0
  0
TABLESTYLE
  5
303
102
{ACAD_REACTORS
330
2FF
102
}
330
2FF
100
AcDbTableStyle
  3
Standard1
 70
1
 71
0
 40
0.06
 41
0.06
280
1
281
1
  7
Standard
140
0.18
170
1
 62
0
 63
7
283
0
  7
Standard
140
0.18
170
1
 62
0
 63
7
283
0
  7
Standard
140
0.18
170
1
 62
0
 63
7
283
0
  0
ENDSEC
  0
EOF
