999
DXF file: O:\ORAC_PRODUCTEN\ORAC_XPS\CX\CX123\cx123_xps-prod-mm.dxf
999
Pro/ENGINEER 2018500 by Parametric Technology Corporation
  0
SECTION
  2
HEADER
  9
$ACADVER
  1
AC1024
  9
$DWGCODEPAGE
  3
ANSI_1250
  9
$EXTMAX
 10
297.0
 20
210.0
 30
0.0
  9
$EXTMIN
 10
0.0
 20
0.0
 30
0.0
  9
$LIMMIN
 10
0.0
 20
0.0
  9
$LIMMAX
 10
297.0
 20
210.0
  9
$VIEWCTR
 10
148.5
 20
105.0
  9
$VIEWSIZE
 40
210.0
  9
$CLAYER
  8
0
  9
$LTSCALE
 40
16.335
  9
$CELTYPE
  6
BYLAYER
  9
$DIMSCALE
 40
1.0
  9
$DIMASZ
 40
3.5
  9
$DIMEXO
 40
1.0
  9
$DIMDLI
 40
11.286
  9
$DIMEXE
 40
1.5
  9
$DIMCEN
 40
2.673
  9
$DIMLFAC
 40
1.0
  9
$DIMBLK
  1
_FILLED
  9
$DIMALT
 70
0
  9
$DIMALTF
 40
0.0393700787
  9
$DIMTXT
 40
2.5
  9
$DIMTOL
 70
1
  9
$DIMLIM
 70
0
  9
$DIMTFAC
 40
1.0
  9
$DIMTP
 40
0.001
  9
$DIMTM
 40
0.001
  9
$DIMGAP
 40
0.625
  9
$DIMDSEP
 70
44
  9
$AUNITS
 70
0
  9
$PDMODE
 70
3
  9
$PDSIZE
 40
8.0
  9
$HANDSEED
  5
300
  9
$TILEMODE
 70
1
  9
$MEASUREMENT
 70
1
  9
$INSUNITS
 70
4
  0
ENDSEC
  0
SECTION
  2
CLASSES
  0
CLASS
  1
ACDBDICTIONARYWDFLT
  2
AcDbDictionaryWithDefault
  3
AutoCAD 2000
 90
0
 91
1
280
0
281
0
  0
CLASS
  1
ACDBPLACEHOLDER
  2
AcDbPlaceHolder
  3
AutoCAD 2000
 90
0
 91
1
280
0
281
0
  0
CLASS
  1
LAYOUT
  2
AcDbLayout
  3
AutoCAD 2000
 90
0
 91
0
280
0
281
0
  0
CLASS
  1
TABLESTYLE
  2
AcDbTableStyle
  3
ObjectDBX Classes
 90
2047
 91
1
280
0
281
0
  0
CLASS
  1
ACAD_TABLE
  2
AcDbTable
  3
ObjectDBX Classes
 90
1025
 91
1
280
0
281
1
  0
ENDSEC
  0
SECTION
  2
TABLES
  0
TABLE
  2
VPORT
  5
8
100
AcDbSymbolTable
 70
2
  0
VPORT
  5
1F4
100
AcDbSymbolTableRecord
100
AcDbViewportTableRecord
  2
*ACTIVE
 70
0
 10
0.0
 20
0.0
 11
1.0
 21
1.0
 12
148.5
 22
105.0
 13
0.0
 23
0.0
 14
1.0
 24
1.0
 15
0.0
 25
0.0
 16
0.0
 26
0.0
 36
1.0
 17
0.0
 27
0.0
 37
0.0
 40
210.0
 41
1.4142857143
 42
50.0
 43
0.0
 44
0.0
 50
0.0
 51
0.0
 71
0
 72
100
 73
1
 74
1
 75
0
 76
0
 77
0
 78
0
  0
ENDTAB
  0
TABLE
  2
LTYPE
  5
5
100
AcDbSymbolTable
 70
6
  0
LTYPE
  5
14
100
AcDbSymbolTableRecord
100
AcDbLinetypeTableRecord
  2
BYBLOCK
 70
0
  3

 72
65
 73
0
 40
0.0
  0
LTYPE
  5
15
100
AcDbSymbolTableRecord
100
AcDbLinetypeTableRecord
  2
BYLAYER
 70
0
  3

 72
65
 73
0
 40
0.0
  0
LTYPE
  5
16
100
AcDbSymbolTableRecord
100
AcDbLinetypeTableRecord
  2
CONTINUOUS
 70
64
  3
Solid line
 72
65
 73
0
 40
0.0
  0
LTYPE
  5
1F5
100
AcDbSymbolTableRecord
100
AcDbLinetypeTableRecord
  2
CENTER
 70
64
  3
____ _ ____ _ ____ _ ____ _ ____ _ ____ _ ____
 72
65
 73
4
 40
0.6
 49
0.375
 74
0
 49
-0.075
 74
0
 49
0.075
 74
0
 49
-0.075
 74
0
  0
LTYPE
  5
1F6
100
AcDbSymbolTableRecord
100
AcDbLinetypeTableRecord
  2
HIDDEN
 70
64
  3
- - - - - - - - - - - - - - - - - - - -
 72
65
 73
2
 40
0.2
 49
0.1
 74
0
 49
-0.1
 74
0
  0
LTYPE
  5
1F7
100
AcDbSymbolTableRecord
100
AcDbLinetypeTableRecord
  2
PHANTOM
 70
64
  3
_____ _ _ _____ _ _ _____ _ _ _____
 72
65
 73
6
 40
0.8
 49
0.45
 74
0
 49
-0.05
 74
0
 49
0.1
 74
0
 49
-0.05
 74
0
 49
0.1
 74
0
 49
-0.05
 74
0
  0
LTYPE
  5
1F8
100
AcDbSymbolTableRecord
100
AcDbLinetypeTableRecord
  2
DOT
 70
64
  3
. . . . . . . . . . . . . . . . . . . .
 72
65
 73
2
 40
0.2
 49
0.1
 74
0
 49
-0.1
 74
0
  0
LTYPE
  5
1F9
100
AcDbSymbolTableRecord
100
AcDbLinetypeTableRecord
  2
DASHED
 70
64
  3
- - - - - - - - - - - - - - - - - - - -
 72
65
 73
2
 40
0.2
 49
0.1
 74
0
 49
-0.1
 74
0
  0
ENDTAB
  0
TABLE
  2
LAYER
  5
2
100
AcDbSymbolTable
 70
36
  0
LAYER
  5
10
100
AcDbSymbolTableRecord
100
AcDbLayerTableRecord
  2
0
 70
0
 62
7
  6
CONTINUOUS
370
-3
390
F
  0
LAYER
  5
1FA
100
AcDbSymbolTableRecord
100
AcDbLayerTableRecord
  2
DEFAULT_1
 70
0
 62
7
  6
CENTER
370
-3
390
F
  0
LAYER
  5
1FB
100
AcDbSymbolTableRecord
100
AcDbLayerTableRecord
  2
DEFAULT_2
 70
0
 62
8
  6
HIDDEN
370
-3
390
F
  0
LAYER
  5
1FC
100
AcDbSymbolTableRecord
100
AcDbLayerTableRecord
  2
DEFAULT_3
 70
0
 62
7
  6
PHANTOM
370
-3
390
F
  0
LAYER
  5
1FD
100
AcDbSymbolTableRecord
100
AcDbLayerTableRecord
  2
01___PRT_ALL_DTM_PLN
 70
0
 62
7
  6
CONTINUOUS
370
-3
390
F
  0
LAYER
  5
1FE
100
AcDbSymbolTableRecord
100
AcDbLayerTableRecord
  2
01___PRT_DEF_DTM_PLN
 70
0
 62
7
  6
CONTINUOUS
370
-3
390
F
  0
LAYER
  5
1FF
100
AcDbSymbolTableRecord
100
AcDbLayerTableRecord
  2
02___PRT_ALL_AXES
 70
0
 62
7
  6
CONTINUOUS
370
-3
390
F
  0
LAYER
  5
200
100
AcDbSymbolTableRecord
100
AcDbLayerTableRecord
  2
03___PRT_ALL_CURVES
 70
0
 62
7
  6
CONTINUOUS
370
-3
390
F
  0
LAYER
  5
201
100
AcDbSymbolTableRecord
100
AcDbLayerTableRecord
  2
04___PRT_ALL_DTM_PNT
 70
0
 62
7
  6
CONTINUOUS
370
-3
390
F
  0
LAYER
  5
202
100
AcDbSymbolTableRecord
100
AcDbLayerTableRecord
  2
05___PRT_ALL_DTM_CSYS
 70
0
 62
7
  6
CONTINUOUS
370
-3
390
F
  0
LAYER
  5
203
100
AcDbSymbolTableRecord
100
AcDbLayerTableRecord
  2
05___PRT_DEF_DTM_CSYS
 70
0
 62
7
  6
CONTINUOUS
370
-3
390
F
  0
LAYER
  5
204
100
AcDbSymbolTableRecord
100
AcDbLayerTableRecord
  2
06___PRT_ALL_SURFS
 70
0
 62
7
  6
CONTINUOUS
370
-3
390
F
  0
LAYER
  5
205
100
AcDbSymbolTableRecord
100
AcDbLayerTableRecord
  2
AXES
 70
0
 62
7
  6
CONTINUOUS
370
-3
390
F
  0
LAYER
  5
206
100
AcDbSymbolTableRecord
100
AcDbLayerTableRecord
  2
DTM_ALL
 70
0
 62
7
  6
CONTINUOUS
370
-3
390
F
  0
LAYER
  5
207
100
AcDbSymbolTableRecord
100
AcDbLayerTableRecord
  2
DTM_AXIS
 70
0
 62
7
  6
CONTINUOUS
370
-3
390
F
  0
LAYER
  5
208
100
AcDbSymbolTableRecord
100
AcDbLayerTableRecord
  2
DTM_CSYS
 70
0
 62
7
  6
CONTINUOUS
370
-3
390
F
  0
LAYER
  5
209
100
AcDbSymbolTableRecord
100
AcDbLayerTableRecord
  2
DTM_CURVE
 70
0
 62
7
  6
CONTINUOUS
370
-3
390
F
  0
LAYER
  5
20A
100
AcDbSymbolTableRecord
100
AcDbLayerTableRecord
  2
DTM_MASTER
 70
0
 62
7
  6
CONTINUOUS
370
-3
390
F
  0
LAYER
  5
20B
100
AcDbSymbolTableRecord
100
AcDbLayerTableRecord
  2
DTM_POINT
 70
0
 62
7
  6
CONTINUOUS
370
-3
390
F
  0
LAYER
  5
20C
100
AcDbSymbolTableRecord
100
AcDbLayerTableRecord
  2
DTM_QUILT
 70
0
 62
7
  6
CONTINUOUS
370
-3
390
F
  0
LAYER
  5
20D
100
AcDbSymbolTableRecord
100
AcDbLayerTableRecord
  2
GTOL
 70
0
 62
7
  6
CONTINUOUS
370
-3
390
F
  0
LAYER
  5
20E
100
AcDbSymbolTableRecord
100
AcDbLayerTableRecord
  2
NOTES
 70
0
 62
7
  6
CONTINUOUS
370
-3
390
F
  0
LAYER
  5
20F
100
AcDbSymbolTableRecord
100
AcDbLayerTableRecord
  2
REF_PLANS
 70
0
 62
7
  6
CONTINUOUS
370
-3
390
F
  0
ENDTAB
  0
TABLE
  2
STYLE
  5
3
100
AcDbSymbolTable
 70
1
  0
STYLE
  5
11
100
AcDbSymbolTableRecord
100
AcDbTextStyleTableRecord
  2
STANDARD
 70
0
 40
0.0
 41
1.0
 50
0.0
 71
0
 42
0.2
  3
cgtime.ttf
  4

  0
STYLE
  5
210
100
AcDbSymbolTableRecord
100
AcDbTextStyleTableRecord
  2
TEXTSTYLE_1
 70
0
 40
0.0
 41
0.8
 50
0.0
 71
0
 42
0.2
  3
gdt
  4

  0
STYLE
  5
211
100
AcDbSymbolTableRecord
100
AcDbTextStyleTableRecord
  2
TEXTSTYLE_2
 70
0
 40
0.0
 41
1.0
 50
0.0
 71
0
 42
0.2
  3
trium.ttf
  4

  0
STYLE
  5
212
100
AcDbSymbolTableRecord
100
AcDbTextStyleTableRecord
  2
TEXTSTYLE_3
 70
0
 40
0.0
 41
1.0
 50
0.0
 71
0
 42
0.2
  3
calibri.ttf
  4

  0
ENDTAB
  0
TABLE
  2
VIEW
  5
6
100
AcDbSymbolTable
 70
0
  0
ENDTAB
  0
TABLE
  2
UCS
  5
7
100
AcDbSymbolTable
 70
0
  0
ENDTAB
  0
TABLE
  2
APPID
  5
9
100
AcDbSymbolTable
 70
1
  0
APPID
  5
213
100
AcDbSymbolTableRecord
100
AcDbRegAppTableRecord
  2
ACAD
 70
0
  0
ENDTAB
  0
TABLE
  2
BLOCK_RECORD
  5
1
100
AcDbSymbolTable
 70
0
  0
BLOCK_RECORD
  5
214
100
AcDbSymbolTableRecord
100
AcDbBlockTableRecord
  2
*Model_Space
  0
BLOCK_RECORD
  5
215
100
AcDbSymbolTableRecord
100
AcDbBlockTableRecord
  2
*Paper_Space
  0
BLOCK_RECORD
  5
216
100
AcDbSymbolTableRecord
100
AcDbBlockTableRecord
  2
_FILLED
  0
BLOCK_RECORD
  5
217
100
AcDbSymbolTableRecord
100
AcDbBlockTableRecord
  2
*D0
  0
BLOCK_RECORD
  5
218
100
AcDbSymbolTableRecord
100
AcDbBlockTableRecord
  2
*D1
  0
BLOCK_RECORD
  5
219
100
AcDbSymbolTableRecord
100
AcDbBlockTableRecord
  2
*D2
  0
BLOCK_RECORD
  5
21A
100
AcDbSymbolTableRecord
100
AcDbBlockTableRecord
  2
*D3
  0
BLOCK_RECORD
  5
21B
100
AcDbSymbolTableRecord
100
AcDbBlockTableRecord
  2
*D4
  0
BLOCK_RECORD
  5
21C
100
AcDbSymbolTableRecord
100
AcDbBlockTableRecord
  2
*T1
  0
ENDTAB
  0
TABLE
  2
DIMSTYLE
  5
A
100
AcDbSymbolTable
 70
1
100
AcDbDimStyleTable
 71
0
  0
DIMSTYLE
105
21D
100
AcDbSymbolTableRecord
100
AcDbDimStyleTableRecord
  2
STANDARD
 70
0
  3

  4

 40
1.0
 41
3.5
 42
1.0
 43
0.38
 44
1.5
 45
0.0
 46
0.0
 47
0.001
 48
0.001
140
2.5
141
0.09
142
0.0
143
25.4
144
1.0
145
0.0
146
1.0
147
0.625
 71
1.0
 72
0.0
 73
1
 74
1
 75
0
 76
0
 77
0
 78
8
 79
2
170
0
171
2
172
0
173
0
174
0
175
0
176
0
177
0
178
0
270
2
179
3
271
3
272
3
273
2
274
2
275
0
280
0
281
0
282
0
283
1
284
8
285
0
286
0
287
3
288
0
340
11
278
44
341
216
342
216
343
216
344
216
  0
DIMSTYLE
105
21E
100
AcDbSymbolTableRecord
100
AcDbDimStyleTableRecord
  2
DIMSTYLE_1
 70
0
  3

  4

 40
1.0
 41
3.5
 42
1.0
 43
0.38
 44
1.5
 45
0.0
 46
0.0
 47
0.0
 48
0.0
140
2.5
141
0.09
142
0.0
143
25.4
144
1.0
145
0.0
146
1.0
147
1.25
 71
0.0
 72
0.0
 73
1
 74
1
 75
0
 76
0
 77
0
 78
8
 79
2
170
0
171
2
172
0
173
0
174
0
175
0
176
0
177
0
178
0
270
2
179
3
271
0
272
0
273
2
274
2
275
0
280
0
281
0
282
0
283
1
284
8
285
0
286
0
287
3
288
0
340
11
278
44
341
216
342
216
343
216
344
216
  0
DIMSTYLE
105
21F
100
AcDbSymbolTableRecord
100
AcDbDimStyleTableRecord
  2
DIMSTYLE_2
 70
0
  3

  4

 40
1.0
 41
3.5
 42
1.0
 43
0.38
 44
1.5
 45
0.0
 46
0.0
 47
0.0
 48
0.0
140
2.5
141
0.09
142
0.0
143
25.4
144
1.0
145
0.0
146
1.0
147
1.25
 71
0.0
 72
0.0
 73
1
 74
1
 75
0
 76
0
 77
0
 78
8
 79
2
170
0
171
2
172
0
173
0
174
0
175
0
176
0
177
0
178
0
270
2
179
3
271
3
272
3
273
2
274
2
275
0
280
0
281
0
282
0
283
1
284
8
285
0
286
0
287
3
288
0
340
11
278
44
341
216
342
216
343
216
344
216
  0
ENDTAB
  0
ENDSEC
  0
SECTION
  2
BLOCKS
  0
BLOCK
  5
20
100
AcDbEntity
  8
0
100
AcDbBlockBegin
  2
*Model_Space
 70
0
 10
0.0
 20
0.0
 30
0.0
  3
*Model_Space
  1

  0
ENDBLK
  5
21
100
AcDbEntity
  8
0
100
AcDbBlockEnd
  0
BLOCK
  5
1C
100
AcDbEntity
  8
0
100
AcDbBlockBegin
  2
*Paper_Space
 70
0
 10
0.0
 20
0.0
 30
0.0
  3
*Paper_Space
  1

  0
ENDBLK
  5
1D
100
AcDbEntity
  8
0
100
AcDbBlockEnd
  0
BLOCK
  5
220
100
AcDbEntity
  8
0
100
AcDbBlockBegin
  2
_FILLED
 70
64
 10
0.0
 20
0.0
  3
_FILLED
  1

  0
SOLID
  5
221
100
AcDbEntity
  8
0
  6
BYBLOCK
 62
0
100
AcDbTrace
 10
0.0
 20
0.0
 11
-1.0
 21
0.2142857143
 12
-1.0
 22
-0.2142857143
 13
-1.0
 23
-0.2142857143
  0
ENDBLK
  5
222
100
AcDbEntity
  8
0
  6
BYBLOCK
 62
0
100
AcDbBlockEnd
  0
BLOCK
  5
223
100
AcDbEntity
  8
0
100
AcDbBlockBegin
 62
2
  6
CONTINUOUS
  2
*D0
 70
65
 10
0.0
 20
0.0
  3
*D0
  1

  0
TEXT
  5
224
100
AcDbEntity
  8
0
100
AcDbText
 62
2
  6
CONTINUOUS
 10
66.8333371599
 20
171.0986378775
  7
STANDARD
 40
2.5
  1
80
 72
5
 11
70.4714694557
 21
171.0986378775
100
AcDbText
  0
TEXT
  5
225
100
AcDbEntity
  8
0
100
AcDbText
 62
2
  6
CONTINUOUS
 10
70.4714694557
 20
171.0986378775
  7
STANDARD
 40
2.5
  1
mm
 72
5
 11
76.1426756813
 21
171.0986378775
100
AcDbText
  0
TEXT
  5
226
100
AcDbEntity
  8
0
100
AcDbText
 62
2
  6
CONTINUOUS
 10
66.7020142027
 20
167.3486378775
  7
STANDARD
 40
2.5
  1
3-1/8"
 72
5
 11
76.2739986385
 21
167.3486378775
100
AcDbText
  0
LINE
  5
227
100
AcDbEntity
  8
0
100
AcDbLine
 62
2
  6
CONTINUOUS
 10
111.3880064206
 20
164.2675239915
 11
111.3880064206
 21
173.8486378775
  0
LINE
  5
228
100
AcDbEntity
  8
0
100
AcDbLine
 62
2
  6
CONTINUOUS
 10
31.5880064206
 20
97.1846671344
 11
31.5880064206
 21
173.8486378775
  0
LINE
  5
229
100
AcDbEntity
  8
0
100
AcDbLine
 62
2
  6
CONTINUOUS
 10
111.3880064206
 20
172.3486378775
 11
77.3926756813
 21
172.3486378775
  0
LINE
  5
22A
100
AcDbEntity
  8
0
100
AcDbLine
 62
2
  6
CONTINUOUS
 10
31.5880064206
 20
172.3486378775
 11
65.5833371599
 21
172.3486378775
  0
INSERT
  5
22B
100
AcDbEntity
  8
0
100
AcDbBlockReference
 62
2
  6
CONTINUOUS
  2
_FILLED
 10
111.3880064206
 20
172.3486378775
 41
3.5
 42
3.5
 43
3.5
  0
INSERT
  5
22C
100
AcDbEntity
  8
0
100
AcDbBlockReference
 62
2
  6
CONTINUOUS
  2
_FILLED
 10
31.5880064206
 20
172.3486378775
 41
3.5
 42
3.5
 43
3.5
 50
180.0
  0
ENDBLK
  5
22D
100
AcDbEntity
  8
0
  6
BYBLOCK
 62
0
100
AcDbBlockEnd
  0
BLOCK
  5
22E
100
AcDbEntity
  8
0
100
AcDbBlockBegin
 62
2
  6
CONTINUOUS
  2
*D1
 70
65
 10
0.0
 20
0.0
  3
*D1
  1

  0
TEXT
  5
22F
100
AcDbEntity
  8
0
100
AcDbText
 62
2
  6
CONTINUOUS
 10
15.9467831255
 20
122.1175239915
  7
STANDARD
 40
2.5
  1
80
 72
5
 11
19.5849154212
 21
122.1175239915
100
AcDbText
  0
TEXT
  5
230
100
AcDbEntity
  8
0
100
AcDbText
 62
2
  6
CONTINUOUS
 10
19.5849154212
 20
122.1175239915
  7
STANDARD
 40
2.5
  1
mm
 72
5
 11
25.2561216469
 21
122.1175239915
100
AcDbText
  0
TEXT
  5
231
100
AcDbEntity
  8
0
100
AcDbText
 62
2
  6
CONTINUOUS
 10
15.8154601683
 20
118.3675239915
  7
STANDARD
 40
2.5
  1
3-1/8"
 72
5
 11
25.3874446041
 21
118.3675239915
100
AcDbText
  0
LINE
  5
232
100
AcDbEntity
  8
0
100
AcDbLine
 62
2
  6
CONTINUOUS
 10
97.6708632777
 20
163.2675239915
 11
19.1014523862
 21
163.2675239915
  0
LINE
  5
233
100
AcDbEntity
  8
0
100
AcDbLine
 62
2
  6
CONTINUOUS
 10
30.5880064206
 20
83.4675239915
 11
19.1014523862
 21
83.4675239915
  0
LINE
  5
234
100
AcDbEntity
  8
0
100
AcDbLine
 62
2
  6
CONTINUOUS
 10
20.6014523862
 20
163.2675239915
 11
20.6014523862
 21
125.8675239915
  0
LINE
  5
235
100
AcDbEntity
  8
0
100
AcDbLine
 62
2
  6
CONTINUOUS
 10
20.6014523862
 20
83.4675239915
 11
20.6014523862
 21
117.1175239915
  0
INSERT
  5
236
100
AcDbEntity
  8
0
100
AcDbBlockReference
 62
2
  6
CONTINUOUS
  2
_FILLED
 10
20.6014523862
 20
163.2675239915
 41
3.5
 42
3.5
 43
3.5
 50
90.0
  0
INSERT
  5
237
100
AcDbEntity
  8
0
100
AcDbBlockReference
 62
2
  6
CONTINUOUS
  2
_FILLED
 10
20.6014523862
 20
83.4675239915
 41
3.5
 42
3.5
 43
3.5
 50
270.0
  0
ENDBLK
  5
238
100
AcDbEntity
  8
0
  6
BYBLOCK
 62
0
100
AcDbBlockEnd
  0
BLOCK
  5
239
100
AcDbEntity
  8
0
100
AcDbBlockBegin
 62
2
  6
CONTINUOUS
  2
*D2
 70
65
 10
0.0
 20
0.0
  3
*D2
  1

  0
TEXT
  5
23A
100
AcDbEntity
  8
0
100
AcDbText
 62
2
  6
CONTINUOUS
 10
80.9516879949
 20
107.0896400826
  7
STANDARD
 40
2.5
  1
110
 72
5
 11
86.4088864385
 21
107.0896400826
100
AcDbText
  0
TEXT
  5
23B
100
AcDbEntity
  8
0
100
AcDbText
 62
2
  6
CONTINUOUS
 10
86.4088864385
 20
107.0896400826
  7
STANDARD
 40
2.5
  1
mm
 72
5
 11
92.0800926642
 21
107.0896400826
100
AcDbText
  0
TEXT
  5
23C
100
AcDbEntity
  8
0
100
AcDbText
 62
2
  6
CONTINUOUS
 10
81.7298981116
 20
103.3396400826
  7
STANDARD
 40
2.5
  1
4-3/8"
 72
5
 11
91.3018825474
 21
103.3396400826
100
AcDbText
  0
LINE
  5
23D
100
AcDbEntity
  8
0
100
AcDbLine
 62
2
  6
CONTINUOUS
 10
32.2951132018
 20
82.7604172103
 11
47.6765505013
 21
67.3789799108
  0
LINE
  5
23E
100
AcDbEntity
  8
0
100
AcDbLine
 62
2
  6
CONTINUOUS
 10
112.0951132018
 20
162.5604172103
 11
127.4765505013
 21
147.1789799108
  0
LINE
  5
23F
100
AcDbEntity
  8
0
100
AcDbLine
 62
2
  6
CONTINUOUS
 10
46.6158903295
 20
68.4396400826
 11
80.4798981116
 21
102.3036478647
  0
LINE
  5
240
100
AcDbEntity
  8
0
100
AcDbLine
 62
2
  6
CONTINUOUS
 10
126.4158903295
 20
148.2396400826
 11
89.0158903295
 21
110.8396400826
  0
INSERT
  5
241
100
AcDbEntity
  8
0
100
AcDbBlockReference
 62
2
  6
CONTINUOUS
  2
_FILLED
 10
46.6158903295
 20
68.4396400826
 41
3.5
 42
3.5
 43
3.5
 50
225.0
  0
INSERT
  5
242
100
AcDbEntity
  8
0
100
AcDbBlockReference
 62
2
  6
CONTINUOUS
  2
_FILLED
 10
126.4158903295
 20
148.2396400826
 41
3.5
 42
3.5
 43
3.5
 50
45.0
  0
ENDBLK
  5
243
100
AcDbEntity
  8
0
  6
BYBLOCK
 62
0
100
AcDbBlockEnd
  0
BLOCK
  5
244
100
AcDbEntity
  8
0
100
AcDbBlockBegin
 62
2
  6
CONTINUOUS
  2
*D3
 70
65
 10
0.0
 20
0.0
  3
*D3
  1

  0
TEXT
  5
245
100
AcDbEntity
  8
0
100
AcDbText
 62
2
  6
CONTINUOUS
 10
133.3588385329
 20
171.8634355704
  7
STANDARD
 40
2.5
  1
8,4
 72
5
 11
138.212924136
 21
171.8634355704
100
AcDbText
  0
TEXT
  5
246
100
AcDbEntity
  8
0
100
AcDbText
 62
2
  6
CONTINUOUS
 10
138.212924136
 20
171.8634355704
  7
STANDARD
 40
2.5
  1
mm
 72
5
 11
143.8841303617
 21
171.8634355704
100
AcDbText
  0
TEXT
  5
247
100
AcDbEntity
  8
0
100
AcDbText
 62
2
  6
CONTINUOUS
 10
133.3588385329
 20
168.1134355704
  7
STANDARD
 40
2.5
  1
3/8"
 72
5
 11
139.8958035134
 21
168.1134355704
100
AcDbText
  0
LINE
  5
248
100
AcDbEntity
  8
0
100
AcDbLine
 62
2
  6
CONTINUOUS
 10
111.8880064206
 20
154.8675239915
 11
128.8588385329
 21
154.8675239915
  0
LINE
  5
249
100
AcDbEntity
  8
0
100
AcDbLine
 62
2
  6
CONTINUOUS
 10
112.3880064206
 20
163.2675239915
 11
128.8588385329
 21
163.2675239915
  0
LINE
  5
24A
100
AcDbEntity
  8
0
100
AcDbLine
 62
2
  6
CONTINUOUS
 10
127.3588385329
 20
154.8675239915
 11
127.3588385329
 21
149.8675239915
  0
LINE
  5
24B
100
AcDbEntity
  8
0
100
AcDbLine
 62
2
  6
CONTINUOUS
 10
127.3588385329
 20
163.2675239915
 11
127.3588385329
 21
173.1134355704
  0
LINE
  5
24C
100
AcDbEntity
  8
0
100
AcDbLine
 62
2
  6
CONTINUOUS
 10
127.3588385329
 20
173.1134355704
 11
132.1088385329
 21
173.1134355704
  0
INSERT
  5
24D
100
AcDbEntity
  8
0
100
AcDbBlockReference
 62
2
  6
CONTINUOUS
  2
_FILLED
 10
127.3588385329
 20
154.8675239915
 41
3.5
 42
3.5
 43
3.5
 50
90.0
  0
INSERT
  5
24E
100
AcDbEntity
  8
0
100
AcDbBlockReference
 62
2
  6
CONTINUOUS
  2
_FILLED
 10
127.3588385329
 20
163.2675239915
 41
3.5
 42
3.5
 43
3.5
 50
270.0
  0
ENDBLK
  5
24F
100
AcDbEntity
  8
0
  6
BYBLOCK
 62
0
100
AcDbBlockEnd
  0
BLOCK
  5
250
100
AcDbEntity
  8
0
100
AcDbBlockBegin
 62
2
  6
CONTINUOUS
  2
*D4
 70
65
 10
0.0
 20
0.0
  3
*D4
  1

  0
TEXT
  5
251
100
AcDbEntity
  8
0
100
AcDbText
 62
2
  6
CONTINUOUS
 10
13.6658337497
 20
65.8098354329
  7
STANDARD
 40
2.5
  1
8,4
 72
5
 11
18.5199193528
 21
65.8098354329
100
AcDbText
  0
TEXT
  5
252
100
AcDbEntity
  8
0
100
AcDbText
 62
2
  6
CONTINUOUS
 10
18.5199193528
 20
65.8098354329
  7
STANDARD
 40
2.5
  1
mm
 72
5
 11
24.1911255785
 21
65.8098354329
100
AcDbText
  0
TEXT
  5
253
100
AcDbEntity
  8
0
100
AcDbText
 62
2
  6
CONTINUOUS
 10
17.654160598
 20
62.0598354329
  7
STANDARD
 40
2.5
  1
3/8"
 72
5
 11
24.1911255785
 21
62.0598354329
100
AcDbText
  0
LINE
  5
254
100
AcDbEntity
  8
0
100
AcDbLine
 62
2
  6
CONTINUOUS
 10
39.9880064206
 20
82.9675239915
 11
39.9880064206
 21
65.5598354329
  0
LINE
  5
255
100
AcDbEntity
  8
0
100
AcDbLine
 62
2
  6
CONTINUOUS
 10
31.5880064206
 20
82.4675239915
 11
31.5880064206
 21
65.5598354329
  0
LINE
  5
256
100
AcDbEntity
  8
0
100
AcDbLine
 62
2
  6
CONTINUOUS
 10
39.9880064206
 20
67.0598354329
 11
44.9880064206
 21
67.0598354329
  0
LINE
  5
257
100
AcDbEntity
  8
0
100
AcDbLine
 62
2
  6
CONTINUOUS
 10
31.5880064206
 20
67.0598354329
 11
25.4411255785
 21
67.0598354329
  0
INSERT
  5
258
100
AcDbEntity
  8
0
100
AcDbBlockReference
 62
2
  6
CONTINUOUS
  2
_FILLED
 10
39.9880064206
 20
67.0598354329
 41
3.5
 42
3.5
 43
3.5
 50
180.0
  0
INSERT
  5
259
100
AcDbEntity
  8
0
100
AcDbBlockReference
 62
2
  6
CONTINUOUS
  2
_FILLED
 10
31.5880064206
 20
67.0598354329
 41
3.5
 42
3.5
 43
3.5
  0
ENDBLK
  5
25A
100
AcDbEntity
  8
0
  6
BYBLOCK
 62
0
100
AcDbBlockEnd
  0
BLOCK
  5
25B
100
AcDbEntity
  8
0
100
AcDbBlockBegin
  2
*T1
 70
1
 10
0.0
 20
0.0
  3
*T1
  1

  0
LINE
  5
25C
100
AcDbEntity
  8
0
100
AcDbLine
 62
7
  6
CONTINUOUS
 10
0.0
 20
0.0
 11
148.0
 21
0.0
  0
LINE
  5
25D
100
AcDbEntity
  8
0
100
AcDbLine
 62
7
  6
CONTINUOUS
 10
0.0
 20
0.0
 11
0.0
 21
-43.0
  0
LINE
  5
25E
100
AcDbEntity
  8
0
100
AcDbLine
 62
7
  6
CONTINUOUS
 10
45.0
 20
-20.0
 11
148.0
 21
-20.0
  0
LINE
  5
25F
100
AcDbEntity
  8
0
100
AcDbLine
 62
7
  6
CONTINUOUS
 10
45.0
 20
-28.0
 11
148.0
 21
-28.0
  0
LINE
  5
260
100
AcDbEntity
  8
0
100
AcDbLine
 62
7
  6
CONTINUOUS
 10
0.0
 20
-43.0
 11
148.0
 21
-43.0
  0
LINE
  5
261
100
AcDbEntity
  8
0
100
AcDbLine
 62
7
  6
CONTINUOUS
 10
45.0
 20
0.0
 11
45.0
 21
-43.0
  0
LINE
  5
262
100
AcDbEntity
  8
0
100
AcDbLine
 62
7
  6
CONTINUOUS
 10
143.0
 20
0.0
 11
143.0
 21
-20.0
  0
LINE
  5
263
100
AcDbEntity
  8
0
100
AcDbLine
 62
7
  6
CONTINUOUS
 10
148.0
 20
0.0
 11
148.0
 21
-43.0
  0
TEXT
  5
264
100
AcDbEntity
  8
0
100
AcDbText
 62
7
  6
CONTINUOUS
 10
8.9659749243
 20
-9.175
  7
STANDARD
 40
8.0
  1
O
 72
5
 11
17.370644185
 21
-9.175
100
AcDbText
  0
TEXT
  5
265
100
AcDbEntity
  8
0
100
AcDbText
 62
7
  6
CONTINUOUS
 10
17.370644185
 20
-9.175
  7
STANDARD
 40
5.5
  1
RAC
 72
5
 11
33.9562472979
 21
-9.175
100
AcDbText
  0
TEXT
  5
266
100
AcDbEntity
  8
0
100
AcDbText
 62
7
  6
CONTINUOUS
 10
33.9562472979
 20
-4.425
  7
TEXTSTYLE_2
 40
3.0
  1
®
 72
5
 11
36.0340250757
 21
-4.425
100
AcDbText
  0
TEXT
  5
267
100
AcDbEntity
  8
0
100
AcDbText
 62
7
  6
CONTINUOUS
 10
9.5323389537
 20
-13.825
  7
TEXTSTYLE_2
 40
3.0
  1
D  E  C  O  R
 72
5
 11
34.3878945093
 21
-13.825
100
AcDbText
  0
TEXT
  5
268
100
AcDbEntity
  8
0
100
AcDbText
 62
7
  6
CONTINUOUS
 10
34.3878945093
 20
-13.825
  7
STANDARD
 40
2.5
  1
 
 72
5
 11
35.4676610463
 21
-13.825
100
AcDbText
  0
TEXT
  5
269
100
AcDbEntity
  8
0
100
AcDbText
 62
7
  6
CONTINUOUS
 10
52.8786764706
 20
-4.6
  7
TEXTSTYLE_3
 40
2.7
  1
Part name:
 72
5
 11
71.9375
 21
-4.6
100
AcDbText
  0
TEXT
  5
26A
100
AcDbEntity
  8
0
100
AcDbText
 62
7
  6
CONTINUOUS
 10
49.6908613445
 20
-11.35
  7
TEXTSTYLE_3
 40
2.7
  1
Designed by:
 72
5
 11
71.9375
 21
-11.35
100
AcDbText
  0
TEXT
  5
26B
100
AcDbEntity
  8
0
100
AcDbText
 62
7
  6
CONTINUOUS
 10
49.3732142857
 20
-18.1
  7
TEXTSTYLE_3
 40
2.7
  1
Designed on:
 72
5
 11
71.9375
 21
-18.1
100
AcDbText
  0
TEXT
  5
26C
100
AcDbEntity
  8
0
100
AcDbText
 62
2
  6
CONTINUOUS
 10
74.0625
 20
-4.6
  7
TEXTSTYLE_3
 40
2.7
  1
CX123
 72
5
 11
85.0099789916
 21
-4.6
100
AcDbText
  0
TEXT
  5
26D
100
AcDbEntity
  8
0
100
AcDbText
 62
2
  6
CONTINUOUS
 10
74.0625
 20
-11.35
  7
TEXTSTYLE_3
 40
2.7
  1
ORAC
 72
5
 11
83.9209033613
 21
-11.35
100
AcDbText
  0
TEXT
  5
26E
100
AcDbEntity
  8
0
100
AcDbText
 62
2
  6
CONTINUOUS
 10
74.0625
 20
-18.1
  7
TEXTSTYLE_3
 40
2.7
  1
29-Jul-2003
 72
5
 11
94.1763655462
 21
-18.1
100
AcDbText
  0
TEXT
  5
26F
100
AcDbEntity
  8
0
100
AcDbText
 62
2
  6
CONTINUOUS
 10
94.1763655462
 20
-18.1
  7
TEXTSTYLE_3
 40
2.7
  1
 
 72
5
 11
95.1406512605
 21
-18.1
100
AcDbText
  0
TEXT
  5
270
100
AcDbEntity
  8
0
100
AcDbText
 62
2
  6
CONTINUOUS
 10
146.5625
 20
-16.0
  7
TEXTSTYLE_3
 40
1.5
  1
Version: 
 50
90.0
 72
5
 11
146.5625
 21
-7.5294117647
100
AcDbText
  0
TEXT
  5
271
100
AcDbEntity
  8
0
100
AcDbText
 62
2
  6
CONTINUOUS
 10
146.5625
 20
-7.5294117647
  7
TEXTSTYLE_3
 40
1.5
  1
1.0
 50
90.0
 72
5
 11
146.5625
 21
-4.5357142857
100
AcDbText
  0
TEXT
  5
272
100
AcDbEntity
  8
0
100
AcDbText
 62
2
  6
CONTINUOUS
 10
146.5625
 20
-4.5357142857
  7
TEXTSTYLE_3
 40
1.5
  1
 
 50
90.0
 72
5
 11
146.5625
 21
-4.0
100
AcDbText
  0
TEXT
  5
273
100
AcDbEntity
  8
0
100
AcDbText
 62
7
  6
CONTINUOUS
 10
9.6586134454
 20
-22.75
  7
TEXTSTYLE_3
 40
2.5
  1
Biekorfstraat 32
 72
5
 11
35.3413865546
 21
-22.75
100
AcDbText
  0
TEXT
  5
274
100
AcDbEntity
  8
0
100
AcDbText
 62
7
  6
CONTINUOUS
 10
2.2584033613
 20
-26.5
  7
TEXTSTYLE_3
 40
2.5
  1
8400 Oostende - Belgium
 72
5
 11
42.7415966387
 21
-26.5
100
AcDbText
  0
TEXT
  5
275
100
AcDbEntity
  8
0
100
AcDbText
 62
7
  6
CONTINUOUS
 10
4.2699579832
 20
-30.25
  7
TEXTSTYLE_3
 40
2.5
  1
Tel  +32 (0)59 80 32 52
 72
5
 11
40.7300420168
 21
-30.25
100
AcDbText
  0
TEXT
  5
276
100
AcDbEntity
  8
0
100
AcDbText
 62
7
  6
CONTINUOUS
 10
5.7405462185
 20
-34.0
  7
TEXTSTYLE_3
 40
2.5
  1
www.oracdecor.com
 72
5
 11
39.2594537815
 21
-34.0
100
AcDbText
  0
TEXT
  5
277
100
AcDbEntity
  8
0
100
AcDbText
 62
7
  6
CONTINUOUS
 10
5.5777310924
 20
-37.75
  7
TEXTSTYLE_3
 40
2.5
  1
info@oracdecor.com
 72
5
 11
39.4222689076
 21
-37.75
100
AcDbText
  0
TEXT
  5
278
100
AcDbEntity
  8
0
100
AcDbText
 62
7
  6
CONTINUOUS
 10
46.0625
 20
-23.375
  7
TEXTSTYLE_3
 40
2.5
  1
Unless otherwise specified: all dimensions are in millimeters 
 72
5
 11
143.4259453782
 21
-23.375
100
AcDbText
  0
TEXT
  5
279
100
AcDbEntity
  8
0
100
AcDbText
 62
7
  6
CONTINUOUS
 10
46.0625
 20
-27.125
  7
TEXTSTYLE_3
 40
2.5
  1
and inches, scale 1:1, length 2 meters
 72
5
 11
106.1675420168
 21
-27.125
100
AcDbText
  0
TEXT
  5
27A
100
AcDbEntity
  8
0
100
AcDbText
 62
7
  6
CONTINUOUS
 10
46.0625
 20
-31.81
  7
TEXTSTYLE_3
 40
1.8
  1
All information in this document is Orac's exclusive property.  It may in no case 
 72
5
 11
137.5070378151
 21
-31.81
100
AcDbText
  0
TEXT
  5
27B
100
AcDbEntity
  8
0
100
AcDbText
 62
7
  6
CONTINUOUS
 10
46.0625
 20
-34.87
  7
TEXTSTYLE_3
 40
1.8
  1
be reproduced, even partly, be communicated to a third party or used for any 
 72
5
 11
136.3272058824
 21
-34.87
100
AcDbText
  0
TEXT
  5
27C
100
AcDbEntity
  8
0
100
AcDbText
 62
7
  6
CONTINUOUS
 10
46.0625
 20
-37.93
  7
TEXTSTYLE_3
 40
1.8
  1
possible purpose without ORAC's express written permission. Further legal 
 72
5
 11
132.7952731092
 21
-37.93
100
AcDbText
  0
TEXT
  5
27D
100
AcDbEntity
  8
0
100
AcDbText
 62
7
  6
CONTINUOUS
 10
46.0625
 20
-40.99
  7
TEXTSTYLE_3
 40
1.8
  1
information can be found at https://www.oracdecor.com/en/general-sales-conditions
 72
5
 11
145.349894958
 21
-40.99
100
AcDbText
  0
ENDBLK
  5
27E
100
AcDbEntity
  8
0
  6
BYBLOCK
 62
0
100
AcDbBlockEnd
  0
ENDSEC
  0
SECTION
  2
ENTITIES
  0
DIMENSION
  5
27F
100
AcDbEntity
  8
0
100
AcDbDimension
 62
2
  6
CONTINUOUS
  2
*D0
 10
31.5880064206
 20
172.3486378775
 11
71.4880064206
 21
170.4736378775
 70
160
 71
2
 72
2
 41
0.9
 42
79.8
  1
<>mm\P3-1/8"
  3
DIMSTYLE_1
100
AcDbAlignedDimension
 13
111.3880064206
 23
163.2675239915
 14
31.5880064206
 24
96.1846671344
 50
180.0
100
AcDbRotatedDimension
  0
DIMENSION
  5
280
100
AcDbEntity
  8
0
100
AcDbDimension
 62
2
  6
CONTINUOUS
  2
*D1
 10
20.6014523862
 20
83.4675239915
 11
20.6014523862
 21
121.4925239915
 70
160
 71
2
 72
2
 41
0.9
 42
79.8
  1
<>mm\P3-1/8"
  3
DIMSTYLE_1
100
AcDbAlignedDimension
 13
98.6708632777
 23
163.2675239915
 14
31.5880064206
 24
83.4675239915
 50
270.0
100
AcDbRotatedDimension
  0
DIMENSION
  5
281
100
AcDbEntity
  8
0
100
AcDbDimension
 62
2
  6
CONTINUOUS
  2
*D2
 10
126.4158903295
 20
148.2396400826
 11
86.5158903295
 21
106.4646400826
 70
160
 71
2
 72
2
 41
0.9
 42
112.8542422774
  1
<>mm\P4-3/8"
  3
DIMSTYLE_2
100
AcDbAlignedDimension
 13
31.5880064206
 23
83.4675239915
 14
111.3880064206
 24
163.2675239915
 50
45.0
100
AcDbRotatedDimension
  0
DIMENSION
  5
282
100
AcDbEntity
  8
0
100
AcDbDimension
 62
2
  6
CONTINUOUS
  2
*D3
 10
127.3588385329
 20
163.2675239915
 11
138.6214844473
 21
171.2384355704
 70
160
 71
1
 72
2
 41
0.9
 42
8.4
  1
<>mm\P3/8"
  3
DIMSTYLE_2
100
AcDbAlignedDimension
 13
110.8880064206
 23
154.8675239915
 14
111.3880064206
 24
163.2675239915
 50
90.0
100
AcDbRotatedDimension
  0
DIMENSION
  5
283
100
AcDbEntity
  8
0
100
AcDbDimension
 62
2
  6
CONTINUOUS
  2
*D4
 10
31.5880064206
 20
67.0598354329
 11
18.9284796641
 21
65.1848354329
 70
160
 71
3
 72
2
 41
0.9
 42
8.4
  1
<>mm\P3/8"
  3
DIMSTYLE_2
100
AcDbAlignedDimension
 13
39.9880064206
 23
83.9675239915
 14
31.5880064206
 24
83.4675239915
 50
180.0
100
AcDbRotatedDimension
  0
ACAD_TABLE
  5
284
100
AcDbEntity
  8
0
 62
2
  6
CONTINUOUS
100
AcDbBlockReference
  2
*T1
 10
144.0
 20
48.0
 30
0.0
100
AcDbTable
342
       2FE
343
21C
 11
1.0
 21
0.0
 31
0.0
 90
22
 91
4
 92
4
 93
0
 94
0
 95
0
 96
0
141
15.0
141
5.0
141
8.0
141
15.0
142
45.0
142
28.0
142
70.0
142
5.0
171
1
172
0
173
0
174
0
175
1
176
1
 91
41
178
0
145
0.0
301
CELL_VALUE
 90
4
  1
\A1;O\H5.5;RAC\fCG Triumvirate;\H3.0;\S®^ ;\PD  E  C  O  R\fCG Times;\H2.5; 
304
ACVALUE_END
170
5
140
8.0
 64
7
171
1
172
0
173
0
174
0
175
1
176
2
 91
57
178
0
145
0.0
  7
TEXTSTYLE_3
301
CELL_VALUE
 90
4
  1
Part name:\PDesigned by:\PDesigned on:
304
ACVALUE_END
170
6
140
2.7
 64
7
171
1
172
0
173
0
174
0
175
1
176
2
 91
49
178
0
145
0.0
  7
TEXTSTYLE_3
301
CELL_VALUE
 90
4
  1
CX123\PORAC\P29-Jul-2003 
304
ACVALUE_END
170
4
140
2.7
171
1
172
0
173
0
174
0
175
1
176
2
 91
49
178
0
145
0.0
  7
TEXTSTYLE_3
301
CELL_VALUE
 90
4
  1
Version: 1.0 
304
ACVALUE_END
170
6
140
1.5
171
1
172
0
173
0
174
0
175
1
176
3
 91
57
178
0
145
0.0
  7
TEXTSTYLE_3
301
CELL_VALUE
 90
4
  1
Biekorfstraat 32\P8400 Oostende - Belgium\PTel  +32 (0)59 80 32 52\Pwww.oracdecor.com\Pinfo@oracdecor.com
304
ACVALUE_END
170
5
140
2.5
 64
7
171
1
172
0
173
1
174
0
175
1
176
1
 91
1
178
0
145
0.0
170
1
171
1
172
0
173
1
174
0
175
1
176
1
 91
1
178
0
145
0.0
170
1
171
1
172
0
173
1
174
0
175
1
176
1
 91
1
178
0
145
0.0
170
1
171
1
172
0
173
1
174
0
175
1
176
1
 91
1
178
0
145
0.0
170
1
171
1
172
0
173
0
174
0
175
3
176
1
 91
57
178
0
145
0.0
  7
TEXTSTYLE_3
301
CELL_VALUE
 90
4
  1
Unless otherwise specified: all dimensions are in millimeters \Pand inches, scale 1:1, length 2 meters
304
ACVALUE_END
170
4
140
2.5
 64
7
171
1
172
0
173
1
174
0
175
1
176
1
 91
1
178
0
145
0.0
170
1
171
1
172
0
173
1
174
0
175
1
176
1
 91
1
178
0
145
0.0
170
1
171
1
172
0
173
1
174
0
175
1
176
1
 91
1
178
0
145
0.0
170
1
171
1
172
0
173
0
174
0
175
3
176
1
 91
57
178
0
145
0.0
  7
TEXTSTYLE_3
301
CELL_VALUE
 90
4
  2
All information in this document is Orac's exclusive property.  It may in no case \Pbe reproduced, even partly, be communicated to a third party or used for any \Ppossible purpose without ORAC's express written permission. Further legal \Pinformation
  1
 can be found at https://www.oracdecor.com/en/general-sales-conditions
304
ACVALUE_END
170
4
140
1.8
 64
7
171
1
172
0
173
1
174
0
175
1
176
1
 91
1
178
0
145
0.0
170
1
171
1
172
0
173
1
174
0
175
1
176
1
 91
1
178
0
145
0.0
170
1
  0
LINE
  5
285
100
AcDbEntity
  8
0
100
AcDbLine
 62
5
  6
CONTINUOUS
 10
0.0
 20
0.0
 11
0.0
 21
210.0
  0
LINE
  5
286
100
AcDbEntity
  8
0
100
AcDbLine
 62
7
  6
CONTINUOUS
 10
5.0
 20
5.0
 11
5.0
 21
195.0
  0
LINE
  5
287
100
AcDbEntity
  8
0
100
AcDbLine
 62
5
  6
CONTINUOUS
 10
0.0
 20
0.0
 11
297.0
 21
0.0
  0
LINE
  5
288
100
AcDbEntity
  8
0
100
AcDbLine
 62
7
  6
CONTINUOUS
 10
5.0
 20
5.0
 11
292.0
 21
5.0
  0
LINE
  5
289
100
AcDbEntity
  8
0
100
AcDbLine
 62
4
  6
CONTINUOUS
 10
148.5
 20
195.0
 11
148.5
 21
205.0
  0
LINE
  5
28A
100
AcDbEntity
  8
0
100
AcDbLine
 62
7
  6
CONTINUOUS
 10
5.0
 20
195.0
 11
292.0
 21
195.0
  0
LINE
  5
28B
100
AcDbEntity
  8
0
100
AcDbLine
 62
5
  6
CONTINUOUS
 10
0.0
 20
210.0
 11
297.0
 21
210.0
  0
LINE
  5
28C
100
AcDbEntity
  8
0
100
AcDbLine
 62
7
  6
CONTINUOUS
 10
292.0
 20
5.0
 11
292.0
 21
195.0
  0
LINE
  5
28D
100
AcDbEntity
  8
0
100
AcDbLine
 62
5
  6
CONTINUOUS
 10
297.0
 20
0.0
 11
297.0
 21
210.0
  0
LINE
  5
28E
100
AcDbEntity
  8
DTM_AXIS
100
AcDbLine
 62
7
  6
CONTINUOUS
 10
134.1055378167
 20
105.3939925516
 11
134.1512586991
 21
102.7757222876
  0
LINE
  5
28F
100
AcDbEntity
  8
DTM_AXIS
100
AcDbLine
 62
7
  6
CONTINUOUS
 10
134.2419675967
 20
97.5811504299
 11
134.3275401639
 21
92.6807177079
  0
LINE
  5
290
100
AcDbEntity
  8
DTM_AXIS
100
AcDbLine
 62
7
  6
CONTINUOUS
 10
135.1010736172
 20
101.1948017721
 11
134.1512586991
 21
102.7757222876
  0
LINE
  5
291
100
AcDbEntity
  8
0
100
AcDbLine
 62
7
  6
CONTINUOUS
 10
142.712144444
 20
93.3323291519
 11
142.6056521758
 21
99.430757805
  0
LINE
  5
292
100
AcDbEntity
  8
DTM_AXIS
100
AcDbLine
 62
7
  6
CONTINUOUS
 10
134.2419675967
 20
97.5811504299
 11
135.1359874882
 21
99.1954101319
  0
LINE
  5
293
100
AcDbEntity
  8
0
100
AcDbLine
 62
7
  6
CONTINUOUS
 10
205.9395213221
 20
59.1040492351
 11
213.8332509302
 21
59.2467792254
  0
LINE
  5
294
100
AcDbEntity
  8
DTM_AXIS
100
AcDbLine
 62
7
  6
CONTINUOUS
 10
143.6719571385
 20
112.7853822216
 11
149.9395592819
 21
121.7232268525
  0
LINE
  5
295
100
AcDbEntity
  8
DTM_AXIS
100
AcDbLine
 62
7
  6
CONTINUOUS
 10
206.192403638
 20
172.8583925782
 11
207.7731047867
 21
173.8096342401
  0
LINE
  5
296
100
AcDbEntity
  8
DTM_AXIS
100
AcDbLine
 62
7
  6
CONTINUOUS
 10
205.9395213221
 20
59.1040492351
 11
134.3275401639
 21
92.6807177079
  0
LINE
  5
297
100
AcDbEntity
  8
0
100
AcDbLine
 62
7
  6
CONTINUOUS
 10
142.221269772
 20
92.8234476982
 11
213.8332509302
 21
59.2467792254
  0
LINE
  5
298
100
AcDbEntity
  8
DTM_AXIS
100
AcDbLine
 62
7
  6
CONTINUOUS
 10
184.2155994234
 20
157.2566167994
 11
192.9208201144
 21
163.84084386
  0
LINE
  5
299
100
AcDbEntity
  8
0
100
AcDbLine
 62
7
  6
CONTINUOUS
 10
142.712144444
 20
93.3323291519
 11
214.3241256022
 21
59.7556606792
  0
LINE
  5
29A
100
AcDbEntity
  8
DTM_AXIS
100
AcDbLine
 62
7
  6
CONTINUOUS
 10
214.2176333339
 20
65.8540893323
 11
142.6056521758
 21
99.430757805
  0
LINE
  5
29B
100
AcDbEntity
  8
DTM_AXIS
100
AcDbLine
 62
7
  6
CONTINUOUS
 10
142.9779959034
 20
99.7272563287
 11
214.5899770616
 21
66.150587856
  0
LINE
  5
29C
100
AcDbEntity
  8
0
100
AcDbLine
 62
7
  6
CONTINUOUS
 10
191.7314454271
 20
147.6106513588
 11
193.3409364874
 21
153.6217067542
  0
LINE
  5
29D
100
AcDbEntity
  8
DTM_AXIS
100
AcDbLine
 62
7
  6
CONTINUOUS
 10
225.3185688787
 20
78.7470743227
 11
153.7065877205
 21
112.3237427954
  0
LINE
  5
29E
100
AcDbEntity
  8
DTM_AXIS
100
AcDbLine
 62
7
  6
CONTINUOUS
 10
153.8946770018
 20
112.7284380319
 11
225.50665816
 21
79.1517695591
  0
LINE
  5
29F
100
AcDbEntity
  8
0
100
AcDbLine
 62
7
  6
CONTINUOUS
 10
134.3275401639
 20
92.6807177079
 11
142.221269772
 21
92.8234476982
  0
LINE
  5
2A0
100
AcDbEntity
  8
0
100
AcDbLine
 62
7
  6
CONTINUOUS
 10
159.8418704507
 20
114.5512694058
 11
231.4538516088
 21
80.9746009331
  0
LINE
  5
2A1
100
AcDbEntity
  8
0
100
AcDbLine
 62
7
  6
CONTINUOUS
 10
160.189455335
 20
115.1067690262
 11
231.8014364932
 21
81.5301005535
  0
LINE
  5
2A2
100
AcDbEntity
  8
0
100
AcDbLine
 62
7
  6
CONTINUOUS
 10
153.8946770018
 20
112.7284380319
 11
159.8418704507
 21
114.5512694058
  0
LINE
  5
2A3
100
AcDbEntity
  8
0
100
AcDbLine
 62
7
  6
CONTINUOUS
 10
214.3241256022
 20
59.7556606792
 11
214.2176333339
 21
65.8540893323
  0
LINE
  5
2A4
100
AcDbEntity
  8
0
100
AcDbLine
 62
7
  6
CONTINUOUS
 10
212.8090476082
 20
166.0006007466
 11
212.671137818
 21
173.8981977255
  0
LINE
  5
2A5
100
AcDbEntity
  8
0
100
AcDbLine
 62
7
  6
CONTINUOUS
 10
277.834711778
 20
131.8048364518
 11
283.9301540943
 21
131.9150508201
  0
LINE
  5
2A6
100
AcDbEntity
  8
0
100
AcDbLine
 62
7
  6
CONTINUOUS
 10
191.1889129453
 20
147.2433813903
 11
262.8008941034
 21
113.6667129176
  0
LINE
  5
2A7
100
AcDbEntity
  8
0
100
AcDbLine
 62
7
  6
CONTINUOUS
 10
191.7314454271
 20
147.6106513588
 11
263.3434265852
 21
114.033982886
  0
LINE
  5
2A8
100
AcDbEntity
  8
DTM_AXIS
100
AcDbLine
 62
7
  6
CONTINUOUS
 10
264.9529176456
 20
120.0450382814
 11
193.3409364874
 21
153.6217067542
  0
LINE
  5
2A9
100
AcDbEntity
  8
DTM_AXIS
100
AcDbLine
 62
7
  6
CONTINUOUS
 10
193.738499227
 20
153.8241470429
 11
265.3504803852
 21
120.2474785701
  0
LINE
  5
2AA
100
AcDbEntity
  8
0
100
AcDbLine
 62
7
  6
CONTINUOUS
 10
225.50665816
 20
79.1517695591
 11
231.4538516088
 21
80.9746009331
  0
LINE
  5
2AB
100
AcDbEntity
  8
DTM_AXIS
100
AcDbLine
 62
7
  6
CONTINUOUS
 10
277.5517725954
 20
131.4220142873
 11
205.9397914372
 21
164.99868276
  0
LINE
  5
2AC
100
AcDbEntity
  8
DTM_AXIS
100
AcDbLine
 62
7
  6
CONTINUOUS
 10
206.2227306199
 20
165.3815049245
 11
277.834711778
 21
131.8048364518
  0
LINE
  5
2AD
100
AcDbEntity
  8
0
100
AcDbLine
 62
7
  6
CONTINUOUS
 10
206.2227306199
 20
165.3815049245
 11
212.3181729362
 21
165.4917192928
  0
LINE
  5
2AE
100
AcDbEntity
  8
0
100
AcDbLine
 62
7
  6
CONTINUOUS
 10
212.3181729362
 20
165.4917192928
 11
283.9301540943
 21
131.9150508201
  0
LINE
  5
2AF
100
AcDbEntity
  8
0
100
AcDbLine
 62
7
  6
CONTINUOUS
 10
212.8090476082
 20
166.0006007466
 11
284.4210287663
 21
132.4239322738
  0
LINE
  5
2B0
100
AcDbEntity
  8
DTM_AXIS
100
AcDbLine
 62
7
  6
CONTINUOUS
 10
204.193991079
 20
172.8222584035
 11
204.3159213192
 21
172.7650890417
  0
LINE
  5
2B1
100
AcDbEntity
  8
DTM_AXIS
100
AcDbLine
 62
7
  6
CONTINUOUS
 10
202.5810766566
 20
173.7157549002
 11
205.0068571456
 21
172.5783805957
  0
LINE
  5
2B2
100
AcDbEntity
  8
DTM_AXIS
100
AcDbLine
 62
7
  6
CONTINUOUS
 10
202.5810766566
 20
173.7157549002
 11
204.193991079
 21
172.8222584035
  0
LINE
  5
2B3
100
AcDbEntity
  8
0
100
AcDbLine
 62
7
  6
CONTINUOUS
 10
263.3434265852
 20
114.033982886
 11
264.9529176456
 21
120.0450382814
  0
LINE
  5
2B4
100
AcDbEntity
  8
DTM_AXIS
100
AcDbLine
 62
7
  6
CONTINUOUS
 10
212.671137818
 20
173.8981977255
 11
207.7731047867
 21
173.8096342401
  0
LINE
  5
2B5
100
AcDbEntity
  8
DTM_AXIS
100
AcDbLine
 62
7
  6
CONTINUOUS
 10
202.5810766566
 20
173.7157549002
 11
199.9640885322
 21
173.6684359891
  0
LINE
  5
2B6
100
AcDbEntity
  8
DTM_AXIS
100
AcDbLine
 62
7
  6
CONTINUOUS
 10
212.671137818
 20
173.8981977255
 11
284.2831189761
 21
140.3215292527
  0
LINE
  5
2B7
100
AcDbEntity
  8
0
100
AcDbLine
 62
7
  6
CONTINUOUS
 10
284.4210287663
 20
132.4239322738
 11
284.2831189761
 21
140.3215292527
  0
LINE
  5
2B8
100
AcDbEntity
  8
DTM_AXIS
100
AcDbLine
 62
7
  6
CONTINUOUS
 10
32.5106561514
 20
91.9675239915
 11
31.5880064206
 21
93.5656002028
  0
LINE
  5
2B9
100
AcDbEntity
  8
DTM_AXIS
100
AcDbLine
 62
7
  6
CONTINUOUS
 10
31.5880064206
 20
96.1846671344
 11
31.5880064206
 21
93.5656002028
  0
LINE
  5
2BA
100
AcDbEntity
  8
DTM_AXIS
100
AcDbLine
 62
7
  6
CONTINUOUS
 10
31.5880064206
 20
88.3694477801
 11
31.5880064206
 21
83.4675239915
  0
LINE
  5
2BB
100
AcDbEntity
  8
0
100
AcDbLine
 62
7
  6
CONTINUOUS
 10
31.5880064206
 20
83.4675239915
 11
39.4880064206
 21
83.4675239915
  0
LINE
  5
2BC
100
AcDbEntity
  8
0
100
AcDbLine
 62
7
  6
CONTINUOUS
 10
39.9880064206
 20
83.9675239915
 11
39.9880064206
 21
90.0678082284
  0
LINE
  5
2BD
100
AcDbEntity
  8
DTM_AXIS
100
AcDbLine
 62
7
  6
CONTINUOUS
 10
31.5880064206
 20
88.3694477801
 11
32.5106561514
 21
89.9675239915
  0
LINE
  5
2BE
100
AcDbEntity
  8
DTM_AXIS
100
AcDbLine
 62
7
  6
CONTINUOUS
 10
104.8880064206
 20
162.3448742607
 11
106.486082632
 21
163.2675239915
  0
LINE
  5
2BF
100
AcDbEntity
  8
DTM_AXIS
100
AcDbLine
 62
7
  6
CONTINUOUS
 10
41.2881348939
 20
103.4029994072
 11
47.7148853446
 21
112.227415586
  0
LINE
  5
2C0
100
AcDbEntity
  8
DTM_AXIS
100
AcDbLine
 62
7
  6
CONTINUOUS
 10
82.6281148261
 20
147.1406450675
 11
91.4525310049
 21
153.5673955182
  0
LINE
  5
2C1
100
AcDbEntity
  8
0
100
AcDbLine
 62
7
  6
CONTINUOUS
 10
89.9790360177
 20
137.3588944797
 11
91.6943139077
 21
143.3407793686
  0
LINE
  5
2C2
100
AcDbEntity
  8
0
100
AcDbLine
 62
7
  6
CONTINUOUS
 10
51.5147510435
 20
103.1612165044
 11
57.4966359324
 21
104.8764943944
  0
LINE
  5
2C3
100
AcDbEntity
  8
0
100
AcDbLine
 62
7
  6
CONTINUOUS
 10
104.7877221837
 20
154.8675239915
 11
110.8880064206
 21
154.8675239915
  0
LINE
  5
2C4
100
AcDbEntity
  8
0
100
AcDbLine
 62
7
  6
CONTINUOUS
 10
111.3880064206
 20
155.3675239915
 11
111.3880064206
 21
163.2675239915
  0
LINE
  5
2C5
100
AcDbEntity
  8
DTM_AXIS
100
AcDbLine
 62
7
  6
CONTINUOUS
 10
111.3880064206
 20
163.2675239915
 11
106.486082632
 21
163.2675239915
  0
LINE
  5
2C6
100
AcDbEntity
  8
DTM_AXIS
100
AcDbLine
 62
7
  6
CONTINUOUS
 10
101.2899302093
 20
163.2675239915
 11
98.6708632777
 21
163.2675239915
  0
LINE
  5
2C7
100
AcDbEntity
  8
DTM_AXIS
100
AcDbLine
 62
7
  6
CONTINUOUS
 10
101.2899302093
 20
163.2675239915
 11
102.8880064206
 21
162.3448742607
  0
ARC
  5
2C8
100
AcDbEntity
  8
DTM_AXIS
100
AcDbCircle
 62
7
  6
CONTINUOUS
 10
187.8763344769
 20
119.4292564551
 40
37.015702959
100
AcDbArc
 50
100.8683294093
 51
171.1975948487
  0
ARC
  5
2C9
100
AcDbEntity
  8
DTM_AXIS
100
AcDbCircle
 62
7
  6
CONTINUOUS
 10
185.6764509867
 20
173.4179992432
 40
12.0084465812
100
AcDbArc
 50
307.1046556516
 51
351.0779802995
  0
ARC
  5
2CA
100
AcDbEntity
  8
DTM_AXIS
100
AcDbCircle
 62
7
  6
CONTINUOUS
 10
133.8452243165
 20
119.6749013529
 40
12.0012224441
100
AcDbArc
 50
280.9742920908
 51
324.965715465
  0
ARC
  5
2CB
100
AcDbEntity
  8
DTM_AXIS
100
AcDbCircle
 62
7
  6
CONTINUOUS
 10
145.205161047
 20
108.6965073878
 40
9.2425237931
100
AcDbArc
 50
256.0548640458
 51
23.1060989469
  0
ARC
  5
2CC
100
AcDbEntity
  8
DTM_AXIS
100
AcDbCircle
 62
7
  6
CONTINUOUS
 10
216.817142976
 20
75.1198382258
 40
9.2425233576
100
AcDbArc
 50
256.0548583776
 51
23.1061047522
  0
ARC
  5
2CD
100
AcDbEntity
  8
DTM_AXIS
100
AcDbCircle
 62
7
  6
CONTINUOUS
 10
143.3845840941
 20
126.3198570202
 40
8.0060420065
100
AcDbArc
 50
324.960211699
 51
351.1905136302
  0
ARC
  5
2CE
100
AcDbEntity
  8
DTM_AXIS
100
AcDbCircle
 62
7
  6
CONTINUOUS
 10
179.3905386278
 20
163.6354658794
 40
7.9981827478
100
AcDbArc
 50
280.8567945183
 51
307.1044287418
  0
ARC
  5
2CF
100
AcDbEntity
  8
DTM_AXIS
100
AcDbCircle
 62
7
  6
CONTINUOUS
 10
136.6063822951
 20
105.4378122131
 40
2.5012129567
100
AcDbArc
 50
100.9827698568
 51
181.0038308204
  0
ARC
  5
2D0
100
AcDbEntity
  8
DTM_AXIS
100
AcDbCircle
 62
7
  6
CONTINUOUS
 10
200.0101319252
 20
171.1682095464
 40
2.5006905131
100
AcDbArc
 50
91.0550220112
 51
171.088141583
  0
ARC
  5
2D1
100
AcDbEntity
  8
DTM_AXIS
100
AcDbCircle
 62
7
  6
CONTINUOUS
 10
133.3860493339
 20
100.1648790602
 40
2.0005261664
100
AcDbArc
 50
331.0134672407
 51
30.9860596571
  0
ARC
  5
2D2
100
AcDbEntity
  8
DTM_AXIS
100
AcDbCircle
 62
7
  6
CONTINUOUS
 10
205.1620178765
 20
174.5698133454
 40
1.9977547787
100
AcDbArc
 50
241.0165235633
 51
301.0491045598
  0
ARC
  5
2D3
100
AcDbEntity
  8
0
100
AcDbCircle
 62
7
  6
CONTINUOUS
 10
231.3071487528
 20
81.4528852782
 40
0.5002814579
100
AcDbArc
 50
287.052205251
 51
8.8787146934
  0
ARC
  5
2D4
100
AcDbEntity
  8
0
100
AcDbCircle
 62
7
  6
CONTINUOUS
 10
159.6951675946
 20
115.029553751
 40
0.5002814579
100
AcDbArc
 50
287.0522052533
 51
8.8787146912
  0
ARC
  5
2D5
100
AcDbEntity
  8
0
100
AcDbCircle
 62
7
  6
CONTINUOUS
 10
283.9209181815
 20
132.4151368616
 40
0.5001813413
100
AcDbArc
 50
271.0580552671
 51
1.0075532664
  0
ARC
  5
2D6
100
AcDbEntity
  8
0
100
AcDbCircle
 62
7
  6
CONTINUOUS
 10
213.8240150174
 20
59.7468652669
 40
0.5001813413
100
AcDbArc
 50
271.0580552671
 51
1.0075532664
  0
ARC
  5
2D7
100
AcDbEntity
  8
0
100
AcDbCircle
 62
7
  6
CONTINUOUS
 10
142.2120338591
 20
93.3235337397
 40
0.5001813413
100
AcDbArc
 50
271.0580552766
 51
1.007553258
  0
ARC
  5
2D8
100
AcDbEntity
  8
0
100
AcDbCircle
 62
7
  6
CONTINUOUS
 10
212.3089370233
 20
165.9918053344
 40
0.5001813413
100
AcDbArc
 50
271.0580552766
 51
1.007553258
  0
ARC
  5
2D9
100
AcDbEntity
  8
0
100
AcDbCircle
 62
7
  6
CONTINUOUS
 10
262.8603622132
 20
114.163192164
 40
0.5000380862
100
AcDbArc
 50
263.169672885
 51
345.0251712486
  0
ARC
  5
2DA
100
AcDbEntity
  8
0
100
AcDbCircle
 62
7
  6
CONTINUOUS
 10
191.2483810551
 20
147.7398606367
 40
0.5000380862
100
AcDbArc
 50
263.1696728774
 51
345.0251712578
  0
ARC
  5
2DB
100
AcDbEntity
  8
DTM_AXIS
100
AcDbCircle
 62
7
  6
CONTINUOUS
 10
225.5946895994
 20
78.8647988568
 40
0.300171976
100
AcDbArc
 50
107.0539747565
 51
203.0910573236
  0
ARC
  5
2DC
100
AcDbEntity
  8
DTM_AXIS
100
AcDbCircle
 62
7
  6
CONTINUOUS
 10
153.9826851626
 20
112.4414781487
 40
0.3001528129
100
AcDbArc
 50
107.0503321907
 51
203.0946998867
  0
ARC
  5
2DD
100
AcDbEntity
  8
DTM_AXIS
100
AcDbCircle
 62
7
  6
CONTINUOUS
 10
206.2282781067
 20
165.0814430111
 40
0.300118893
100
AcDbArc
 50
91.059152663
 51
196.0069789298
  0
ARC
  5
2DE
100
AcDbEntity
  8
DTM_AXIS
100
AcDbCircle
 62
7
  6
CONTINUOUS
 10
277.8402585961
 20
131.5047750321
 40
0.3001183526
100
AcDbArc
 50
91.0590267613
 51
196.0071047276
  0
ARC
  5
2DF
100
AcDbEntity
  8
DTM_AXIS
100
AcDbCircle
 62
7
  6
CONTINUOUS
 10
142.9056525075
 20
99.4360814153
 40
0.3000378728
100
AcDbArc
 50
76.0471881528
 51
181.0166268476
  0
ARC
  5
2E0
100
AcDbEntity
  8
DTM_AXIS
100
AcDbCircle
 62
7
  6
CONTINUOUS
 10
214.517633298
 20
65.8594134027
 40
0.3000376564
100
AcDbArc
 50
76.0470988426
 51
181.0167159352
  0
ARC
  5
2E1
100
AcDbEntity
  8
DTM_AXIS
100
AcDbCircle
 62
7
  6
CONTINUOUS
 10
265.2427125954
 20
119.9675495516
 40
0.2999685629
100
AcDbArc
 50
68.9441647432
 51
165.0298127669
  0
ARC
  5
2E2
100
AcDbEntity
  8
DTM_AXIS
100
AcDbCircle
 62
7
  6
CONTINUOUS
 10
193.630720068
 20
153.5442403539
 40
0.2999498463
100
AcDbArc
 50
68.9406054503
 51
165.0333722475
  0
ARC
  5
2E3
100
AcDbEntity
  8
DTM_AXIS
100
AcDbCircle
 62
7
  6
CONTINUOUS
 10
85.589479691
 20
109.2660507211
 40
37.0
100
AcDbArc
 50
99.8150150639
 51
170.1849849361
  0
ARC
  5
2E4
100
AcDbEntity
  8
0
100
AcDbCircle
 62
7
  6
CONTINUOUS
 10
85.589479691
 20
109.2660507211
 40
28.0
100
AcDbArc
 50
82.1167321876
 51
187.8832678124
  0
ARC
  5
2E5
100
AcDbEntity
  8
DTM_AXIS
100
AcDbCircle
 62
7
  6
CONTINUOUS
 10
84.3880064206
 20
163.2675239915
 40
12.0
100
AcDbArc
 50
306.0655463093
 51
350.0718081577
  0
ARC
  5
2E6
100
AcDbEntity
  8
DTM_AXIS
100
AcDbCircle
 62
7
  6
CONTINUOUS
 10
31.5880064206
 20
110.4675239915
 40
12.0
100
AcDbArc
 50
279.9281918423
 51
323.9344536907
  0
ARC
  5
2E7
100
AcDbEntity
  8
DTM_AXIS
100
AcDbCircle
 62
7
  6
CONTINUOUS
 10
42.7589263947
 20
99.2822617923
 40
9.24
100
AcDbArc
 50
254.9888931164
 51
22.1090540468
  0
ARC
  5
2E8
100
AcDbEntity
  8
DTM_AXIS
100
AcDbCircle
 62
7
  6
CONTINUOUS
 10
95.5732686198
 20
152.0966040174
 40
9.24
100
AcDbArc
 50
247.8909459532
 51
15.0111068836
  0
ARC
  5
2E9
100
AcDbEntity
  8
DTM_AXIS
100
AcDbCircle
 62
7
  6
CONTINUOUS
 10
77.9184317699
 20
153.607397383
 40
8.0
100
AcDbArc
 50
279.8150150638
 51
306.0655463093
  0
ARC
  5
2EA
100
AcDbEntity
  8
DTM_AXIS
100
AcDbCircle
 62
7
  6
CONTINUOUS
 10
41.2481330291
 20
116.9370986422
 40
8.0
100
AcDbArc
 50
323.9344536907
 51
350.1849849361
  0
ARC
  5
2EB
100
AcDbEntity
  8
DTM_AXIS
100
AcDbCircle
 62
7
  6
CONTINUOUS
 10
98.6708632777
 20
160.7675239915
 40
2.5
100
AcDbArc
 50
90.0
 51
170.0718081577
  0
ARC
  5
2EC
100
AcDbEntity
  8
DTM_AXIS
100
AcDbCircle
 62
7
  6
CONTINUOUS
 10
34.0880064206
 20
96.1846671344
 40
2.5
100
AcDbArc
 50
99.9281918423
 51
180.0
  0
ARC
  5
2ED
100
AcDbEntity
  8
DTM_AXIS
100
AcDbCircle
 62
7
  6
CONTINUOUS
 10
30.7786053439
 20
90.9675239915
 40
2.0
100
AcDbArc
 50
330.0
 51
30.0
  0
ARC
  5
2EE
100
AcDbEntity
  8
DTM_AXIS
100
AcDbCircle
 62
7
  6
CONTINUOUS
 10
103.8880064206
 20
164.0769250682
 40
2.0
100
AcDbArc
 50
240.0
 51
300.0
  0
ARC
  5
2EF
100
AcDbEntity
  8
0
100
AcDbCircle
 62
7
  6
CONTINUOUS
 10
39.4880064206
 20
83.9675239915
 40
0.5
100
AcDbArc
 50
270.0
 51
360.0
  0
ARC
  5
2F0
100
AcDbEntity
  8
0
100
AcDbCircle
 62
7
  6
CONTINUOUS
 10
57.3588172545
 20
105.3571252424
 40
0.5
100
AcDbArc
 50
286.0
 51
7.8832678124
  0
ARC
  5
2F1
100
AcDbEntity
  8
0
100
AcDbCircle
 62
7
  6
CONTINUOUS
 10
89.4984051697
 20
137.4967131576
 40
0.5
100
AcDbArc
 50
262.1167321876
 51
344.0
  0
ARC
  5
2F2
100
AcDbEntity
  8
0
100
AcDbCircle
 62
7
  6
CONTINUOUS
 10
110.8880064206
 20
155.3675239915
 40
0.5
100
AcDbArc
 50
270.0
 51
360.0
  0
ARC
  5
2F3
100
AcDbEntity
  8
DTM_AXIS
100
AcDbCircle
 62
7
  6
CONTINUOUS
 10
104.7877221837
 20
154.5675239915
 40
0.3
100
AcDbArc
 50
90.0
 51
195.0111068836
  0
ARC
  5
2F4
100
AcDbEntity
  8
DTM_AXIS
100
AcDbCircle
 62
7
  6
CONTINUOUS
 10
91.9826924165
 20
143.2580881619
 40
0.3
100
AcDbArc
 50
67.8909459533
 51
164.0
  0
ARC
  5
2F5
100
AcDbEntity
  8
DTM_AXIS
100
AcDbCircle
 62
7
  6
CONTINUOUS
 10
51.5974422502
 20
102.8728379956
 40
0.3
100
AcDbArc
 50
106.0
 51
202.1090540468
  0
ARC
  5
2F6
100
AcDbEntity
  8
DTM_AXIS
100
AcDbCircle
 62
7
  6
CONTINUOUS
 10
40.2880064206
 20
90.0678082284
 40
0.3
100
AcDbArc
 50
74.9888931164
 51
180.0
  0
SPLINE
  5
2F7
100
AcDbEntity
  8
0
100
AcDbSpline
 62
7
  6
CONTINUOUS
 70
0
 71
3
 72
23
 73
19
 74
0
 42
0.0000001
 43
0.0000001
 44
0.0000000001
 40
0.0
 40
0.0
 40
0.0
 40
0.0
 40
0.0625022146
 40
0.125007497
 40
0.1875177656
 40
0.2500302693
 40
0.3125443584
 40
0.3750586281
 40
0.4375717847
 40
0.5000826251
 40
0.5625900221
 40
0.6250930311
 40
0.6875909862
 40
0.7500834579
 40
0.8125701869
 40
0.8750518885
 40
0.9375273267
 40
1.0
 40
1.0
 40
1.0
 40
1.0
 10
231.8014364932
 20
81.5301005535
 30
0.0
 10
231.6353258436
 20
82.5932137112
 30
0.0
 10
231.4256024739
 20
84.7407219668
 30
0.0
 10
231.4839013571
 20
87.9752414187
 30
0.0
 10
231.9139072281
 20
91.1821970192
 30
0.0
 10
232.7100421561
 20
94.3184185565
 30
0.0
 10
233.8616635649
 20
97.3423414746
 30
0.0
 10
235.3534814719
 20
100.2137260274
 30
0.0
 10
237.1656556817
 20
102.8944060922
 30
0.0
 10
239.2740969895
 20
105.3487358404
 30
0.0
 10
241.6507740696
 20
107.5440815181
 30
0.0
 10
244.2640874693
 20
109.4512536527
 30
0.0
 10
247.0792877848
 20
111.0448966978
 30
0.0
 10
250.0589559123
 20
112.3038137596
 30
0.0
 10
253.163438405
 20
113.2112840681
 30
0.0
 10
256.3515926544
 20
113.7551871154
 30
0.0
 10
259.5804901464
 20
113.9284103478
 30
0.0
 10
261.7330715896
 20
113.795021988
 30
0.0
 10
262.8008941034
 20
113.6667129176
 30
0.0
  0
SPLINE
  5
2F8
100
AcDbEntity
  8
DTM_AXIS
100
AcDbSpline
 62
7
  6
CONTINUOUS
 70
0
 71
3
 72
21
 73
17
 74
0
 42
0.0000001
 43
0.0000001
 44
0.0000000001
 40
0.0
 40
0.0
 40
0.0
 40
0.0
 40
0.0625077673
 40
0.125018232
 40
0.1875330659
 40
0.2500535249
 40
0.3125803364
 40
0.3751139236
 40
0.4998998989
 40
0.6247047121
 40
0.6872603396
 40
0.7498156132
 40
0.8123687817
 40
0.8749180734
 40
0.9374621109
 40
1.0
 40
1.0
 40
1.0
 40
1.0
 10
265.3504803852
 20
120.2474785701
 30
0.0
 10
265.7483466764
 20
120.0940523104
 30
0.0
 10
266.5665444216
 20
119.8421170838
 30
0.0
 10
267.8334322993
 20
119.6378427083
 30
0.0
 10
269.116741433
 20
119.6106956045
 30
0.0
 10
270.3914721471
 20
119.7612557679
 30
0.0
 10
271.6334599216
 20
120.0868067132
 30
0.0
 10
273.2110171945
 20
120.744082914
 30
0.0
 10
274.9896064257
 20
121.9671540752
 30
0.0
 10
276.3639603206
 20
123.6317842526
 30
0.0
 10
277.1574202932
 20
125.1459546218
 30
0.0
 10
277.5910854301
 20
126.3550433467
 30
0.0
 10
277.853432879
 20
127.6121982759
 30
0.0
 10
277.9396280433
 20
128.8935789462
 30
0.0
 10
277.8480429359
 20
130.1742221737
 30
0.0
 10
277.6694178739
 20
131.0119263893
 30
0.0
 10
277.5517725954
 20
131.4220142873
 30
0.0
  0
SPLINE
  5
2F9
100
AcDbEntity
  8
0
100
AcDbSpline
 62
7
  6
CONTINUOUS
 70
0
 71
3
 72
23
 73
19
 74
0
 42
0.0000001
 43
0.0000001
 44
0.0000000001
 40
0.0
 40
0.0
 40
0.0
 40
0.0
 40
0.0625015735
 40
0.1250077753
 40
0.1875177001
 40
0.250030303
 40
0.3125443762
 40
0.3750586368
 40
0.4375717959
 40
0.5000826251
 40
0.5625900108
 40
0.6250930223
 40
0.6875909684
 40
0.7500834243
 40
0.8125702523
 40
0.8750516105
 40
0.9375279674
 40
1.0
 40
1.0
 40
1.0
 40
1.0
 10
160.189455335
 20
115.1067690262
 30
0.0
 10
160.0233463672
 20
116.169871421
 30
0.0
 10
159.813629016
 20
118.3173846916
 30
0.0
 10
159.8719065068
 20
121.5519041434
 30
0.0
 10
160.3019247166
 20
124.7588706022
 30
0.0
 10
161.0980512801
 20
127.8950897079
 30
0.0
 10
162.2496771399
 20
130.9190131677
 30
0.0
 10
163.7414967157
 20
133.790396766
 30
0.0
 10
165.5536741101
 20
136.4710748986
 30
0.0
 10
167.6621167908
 20
138.9254033878
 30
0.0
 10
170.038792564
 20
141.1207503926
 30
0.0
 10
172.6521039196
 20
143.027925642
 30
0.0
 10
175.4673032226
 20
144.6215703218
 30
0.0
 10
178.4469717315
 20
145.8804918531
 30
0.0
 10
181.5514520959
 20
146.7879537127
 30
0.0
 10
184.7396167501
 20
147.3318694822
 30
0.0
 10
187.968515004
 20
147.5050713258
 30
0.0
 10
190.121101242
 20
147.3716891617
 30
0.0
 10
191.1889129453
 20
147.2433813903
 30
0.0
  0
SPLINE
  5
2FA
100
AcDbEntity
  8
DTM_AXIS
100
AcDbSpline
 62
7
  6
CONTINUOUS
 70
0
 71
3
 72
21
 73
17
 74
0
 42
0.0000001
 43
0.0000001
 44
0.0000000001
 40
0.0
 40
0.0
 40
0.0
 40
0.0
 40
0.062507839
 40
0.1250182606
 40
0.1875330821
 40
0.2500535091
 40
0.3125803404
 40
0.3751139371
 40
0.4998998988
 40
0.6247046984
 40
0.6872603356
 40
0.7498156289
 40
0.8123687654
 40
0.8749180446
 40
0.9374620391
 40
1.0
 40
1.0
 40
1.0
 40
1.0
 10
193.738499227
 20
153.8241470429
 30
0.0
 10
194.1363659598
 20
153.6707206129
 30
0.0
 10
194.9545638237
 20
153.4187851316
 30
0.0
 10
196.2214519064
 20
153.2145115527
 30
0.0
 10
197.5047603733
 20
153.1873647332
 30
0.0
 10
198.7794908503
 20
153.3379249894
 30
0.0
 10
200.0214785788
 20
153.663475819
 30
0.0
 10
201.5990359974
 20
154.3207517477
 30
0.0
 10
203.377625391
 20
155.5438224112
 30
0.0
 10
204.7519788051
 20
157.208452794
 30
0.0
 10
205.54543852
 20
158.7226233321
 30
0.0
 10
205.9791035381
 20
159.9317120213
 30
0.0
 10
206.2414510588
 20
161.1888667062
 30
0.0
 10
206.3276464477
 20
162.4702466872
 30
0.0
 10
206.2360621514
 20
163.7508900495
 30
0.0
 10
206.0574368464
 20
164.5885944066
 30
0.0
 10
205.9397914372
 20
164.99868276
 30
0.0
  0
ENDSEC
  0
SECTION
  2
OBJECTS
  0
DICTIONARY
  5
C
100
AcDbDictionary
280
0
281
1
  3
ACAD_GROUP
350
D
  3
ACAD_MLINESTYLE
350
17
  3
ACAD_LAYOUT
350
1A
  3
ACAD_PLOTSETTINGS
350
19
  3
ACAD_PLOTSTYLENAME
350
E
  3
ACAD_TABLESTYLE
350
       2FB
  0
DICTIONARY
  5
D
102
{ACAD_REACTORS
330
C
102
}
100
AcDbDictionary
280
0
281
1
  0
ACDBDICTIONARYWDFLT
  5
E
102
{ACAD_REACTORS
330
C
102
}
100
AcDbDictionary
281
1
  3
Normal
350
F
100
AcDbDictionaryWithDefault
340
F
  0
DICTIONARY
  5
17
102
{ACAD_REACTORS
330
C
102
}
100
AcDbDictionary
280
0
281
1
  3
Standard
350
18
  0
DICTIONARY
  5
2FB
330
C
100
AcDbDictionary
281
1
  3
Standard
350
       2FE
  3
Standard1
350
       2FF
  0
DICTIONARY
  5
19
102
{ACAD_REACTORS
330
C
102
}
100
AcDbDictionary
281
1
  0
DICTIONARY
  5
1A
102
{ACAD_REACTORS
330
C
102
}
100
AcDbDictionary
281
1
  3
Model
350
2FC
  3
Layout1
350
2FD
  0
ACDBPLACEHOLDER
  5
F
102
{ACAD_REACTORS
330
E
102
}
  0
MLINESTYLE
  5
18
102
{ACAD_REACTORS
330
17
102
}
100
AcDbMlineStyle
  2
STANDARD
 70
0
  3

 62
256
 51
90.0
 52
90.0
 71
2
 49
0.5
 62
256
  6
BYLAYER
 49
-0.5
 62
256
  6
BYLAYER
  0
LAYOUT
  5
2FC
102
{ACAD_REACTORS
330
1A
102
}
100
AcDbPlotSettings
  1

  2
none_device
  4
ISO_A4_(297.00_x_210.00_MM)
  6

 40
0.0
 41
0.0
 42
0.0
 43
0.0
 44
297.0
 45
210.0
 46
0.0
 47
0.0
 48
0.0
 49
0.0
140
0.0
141
0.0
142
1.0
143
1.0
 70
1024
 72
1
 73
0
 74
0
  7

 75
0
147
1.0
148
0.0
149
0.0
100
AcDbLayout
  1
Model
 70
0
 71
0
 10
0.0
 20
0.0
 11
297.0
 21
210.0
 12
0.0
 22
0.0
 32
0.0
 14
0.0
 24
0.0
 34
0.0
 15
0.0
 25
0.0
 35
0.0
146
0.0
 13
0.0
 23
0.0
 33
0.0
 16
1.0
 26
0.0
 36
0.0
 17
0.0
 27
1.0
 37
0.0
 76
0
330
214
345
0
346
0
  0
LAYOUT
  5
2FD
102
{ACAD_REACTORS
330
1A
102
}
100
AcDbPlotSettings
  1

  2
none_device
  4
ISO_A4_(297.00_x_210.00_MM)
  6

 40
0.0
 41
0.0
 42
0.0
 43
0.0
 44
297.0
 45
210.0
 46
0.0
 47
0.0
 48
0.0
 49
0.0
140
0.0
141
0.0
142
1.0
143
1.0
 70
0
 72
1
 73
0
 74
0
  7

 75
0
147
1.0
148
0.0
149
0.0
100
AcDbLayout
  1
Layout1
 70
0
 71
1
 10
0.0
 20
0.0
 11
297.0
 21
210.0
 12
0.0
 22
0.0
 32
0.0
 14
0.0
 24
0.0
 34
0.0
 15
0.0
 25
0.0
 35
0.0
146
0.0
 13
0.0
 23
0.0
 33
0.0
 16
1.0
 26
0.0
 36
0.0
 17
0.0
 27
1.0
 37
0.0
 76
0
330
215
345
0
346
0
  0
TABLESTYLE
  5
2FE
102
{ACAD_REACTORS
330
2FB
330
284
102
}
330
2FB
100
AcDbTableStyle
  3
Standard
 70
0
 71
0
 40
0.06
 41
0.06
280
1
281
1
  7
Standard
140
0.18
170
1
 62
0
 63
7
283
0
  7
Standard
140
0.18
170
1
 62
0
 63
7
283
0
  7
Standard
140
0.18
170
1
 62
0
 63
7
283
0
  0
TABLESTYLE
  5
2FF
102
{ACAD_REACTORS
330
2FB
102
}
330
2FB
100
AcDbTableStyle
  3
Standard1
 70
1
 71
0
 40
0.06
 41
0.06
280
1
281
1
  7
Standard
140
0.18
170
1
 62
0
 63
7
283
0
  7
Standard
140
0.18
170
1
 62
0
 63
7
283
0
  7
Standard
140
0.18
170
1
 62
0
 63
7
283
0
  0
ENDSEC
  0
EOF
