999
DXF file: O:\ORAC_PRODUCTEN\ORAC_LIJN6\C-Type\C303\c303-prod-mm.dxf
999
Pro/ENGINEER 2018500 by Parametric Technology Corporation
  0
SECTION
  2
HEADER
  9
$ACADVER
  1
AC1024
  9
$DWGCODEPAGE
  3
ANSI_1250
  9
$EXTMAX
 10
297.0
 20
210.0
 30
0.0
  9
$EXTMIN
 10
0.0
 20
0.0
 30
0.0
  9
$LIMMIN
 10
0.0
 20
0.0
  9
$LIMMAX
 10
297.0
 20
210.0
  9
$VIEWCTR
 10
148.5
 20
105.0
  9
$VIEWSIZE
 40
210.0
  9
$CLAYER
  8
0
  9
$LTSCALE
 40
16.335
  9
$CELTYPE
  6
BYLAYER
  9
$DIMSCALE
 40
1.0
  9
$DIMASZ
 40
3.5
  9
$DIMEXO
 40
1.0
  9
$DIMDLI
 40
11.286
  9
$DIMEXE
 40
1.5
  9
$DIMCEN
 40
2.673
  9
$DIMLFAC
 40
1.0
  9
$DIMBLK
  1
_FILLED
  9
$DIMALT
 70
0
  9
$DIMALTF
 40
0.0393700787
  9
$DIMTXT
 40
2.5
  9
$DIMTOL
 70
1
  9
$DIMLIM
 70
0
  9
$DIMTFAC
 40
1.0
  9
$DIMTP
 40
0.001
  9
$DIMTM
 40
0.001
  9
$DIMGAP
 40
0.625
  9
$DIMDSEP
 70
44
  9
$AUNITS
 70
0
  9
$PDMODE
 70
3
  9
$PDSIZE
 40
8.0
  9
$HANDSEED
  5
301
  9
$TILEMODE
 70
1
  9
$MEASUREMENT
 70
1
  9
$INSUNITS
 70
4
  0
ENDSEC
  0
SECTION
  2
CLASSES
  0
CLASS
  1
ACDBDICTIONARYWDFLT
  2
AcDbDictionaryWithDefault
  3
AutoCAD 2000
 90
0
 91
1
280
0
281
0
  0
CLASS
  1
ACDBPLACEHOLDER
  2
AcDbPlaceHolder
  3
AutoCAD 2000
 90
0
 91
1
280
0
281
0
  0
CLASS
  1
LAYOUT
  2
AcDbLayout
  3
AutoCAD 2000
 90
0
 91
0
280
0
281
0
  0
CLASS
  1
TABLESTYLE
  2
AcDbTableStyle
  3
ObjectDBX Classes
 90
2047
 91
1
280
0
281
0
  0
CLASS
  1
ACAD_TABLE
  2
AcDbTable
  3
ObjectDBX Classes
 90
1025
 91
1
280
0
281
1
  0
ENDSEC
  0
SECTION
  2
TABLES
  0
TABLE
  2
VPORT
  5
8
100
AcDbSymbolTable
 70
2
  0
VPORT
  5
1F4
100
AcDbSymbolTableRecord
100
AcDbViewportTableRecord
  2
*ACTIVE
 70
0
 10
0.0
 20
0.0
 11
1.0
 21
1.0
 12
148.5
 22
105.0
 13
0.0
 23
0.0
 14
1.0
 24
1.0
 15
0.0
 25
0.0
 16
0.0
 26
0.0
 36
1.0
 17
0.0
 27
0.0
 37
0.0
 40
210.0
 41
1.4142857143
 42
50.0
 43
0.0
 44
0.0
 50
0.0
 51
0.0
 71
0
 72
100
 73
1
 74
1
 75
0
 76
0
 77
0
 78
0
  0
ENDTAB
  0
TABLE
  2
LTYPE
  5
5
100
AcDbSymbolTable
 70
6
  0
LTYPE
  5
14
100
AcDbSymbolTableRecord
100
AcDbLinetypeTableRecord
  2
BYBLOCK
 70
0
  3

 72
65
 73
0
 40
0.0
  0
LTYPE
  5
15
100
AcDbSymbolTableRecord
100
AcDbLinetypeTableRecord
  2
BYLAYER
 70
0
  3

 72
65
 73
0
 40
0.0
  0
LTYPE
  5
16
100
AcDbSymbolTableRecord
100
AcDbLinetypeTableRecord
  2
CONTINUOUS
 70
64
  3
Solid line
 72
65
 73
0
 40
0.0
  0
LTYPE
  5
1F5
100
AcDbSymbolTableRecord
100
AcDbLinetypeTableRecord
  2
CENTER
 70
64
  3
____ _ ____ _ ____ _ ____ _ ____ _ ____ _ ____
 72
65
 73
4
 40
0.6
 49
0.375
 74
0
 49
-0.075
 74
0
 49
0.075
 74
0
 49
-0.075
 74
0
  0
LTYPE
  5
1F6
100
AcDbSymbolTableRecord
100
AcDbLinetypeTableRecord
  2
HIDDEN
 70
64
  3
- - - - - - - - - - - - - - - - - - - -
 72
65
 73
2
 40
0.2
 49
0.1
 74
0
 49
-0.1
 74
0
  0
LTYPE
  5
1F7
100
AcDbSymbolTableRecord
100
AcDbLinetypeTableRecord
  2
PHANTOM
 70
64
  3
_____ _ _ _____ _ _ _____ _ _ _____
 72
65
 73
6
 40
0.8
 49
0.45
 74
0
 49
-0.05
 74
0
 49
0.1
 74
0
 49
-0.05
 74
0
 49
0.1
 74
0
 49
-0.05
 74
0
  0
LTYPE
  5
1F8
100
AcDbSymbolTableRecord
100
AcDbLinetypeTableRecord
  2
DOT
 70
64
  3
. . . . . . . . . . . . . . . . . . . .
 72
65
 73
2
 40
0.2
 49
0.1
 74
0
 49
-0.1
 74
0
  0
LTYPE
  5
1F9
100
AcDbSymbolTableRecord
100
AcDbLinetypeTableRecord
  2
DASHED
 70
64
  3
- - - - - - - - - - - - - - - - - - - -
 72
65
 73
2
 40
0.2
 49
0.1
 74
0
 49
-0.1
 74
0
  0
ENDTAB
  0
TABLE
  2
LAYER
  5
2
100
AcDbSymbolTable
 70
36
  0
LAYER
  5
10
100
AcDbSymbolTableRecord
100
AcDbLayerTableRecord
  2
0
 70
0
 62
7
  6
CONTINUOUS
370
-3
390
F
  0
LAYER
  5
1FA
100
AcDbSymbolTableRecord
100
AcDbLayerTableRecord
  2
DEFAULT_1
 70
0
 62
7
  6
CENTER
370
-3
390
F
  0
LAYER
  5
1FB
100
AcDbSymbolTableRecord
100
AcDbLayerTableRecord
  2
DEFAULT_2
 70
0
 62
8
  6
HIDDEN
370
-3
390
F
  0
LAYER
  5
1FC
100
AcDbSymbolTableRecord
100
AcDbLayerTableRecord
  2
DEFAULT_3
 70
0
 62
7
  6
PHANTOM
370
-3
390
F
  0
LAYER
  5
1FD
100
AcDbSymbolTableRecord
100
AcDbLayerTableRecord
  2
DTM_ALL
 70
0
 62
7
  6
CONTINUOUS
370
-3
390
F
  0
LAYER
  5
1FE
100
AcDbSymbolTableRecord
100
AcDbLayerTableRecord
  2
DTM_AXIS
 70
0
 62
7
  6
CONTINUOUS
370
-3
390
F
  0
LAYER
  5
1FF
100
AcDbSymbolTableRecord
100
AcDbLayerTableRecord
  2
DTM_CSYS
 70
0
 62
7
  6
CONTINUOUS
370
-3
390
F
  0
LAYER
  5
200
100
AcDbSymbolTableRecord
100
AcDbLayerTableRecord
  2
DTM_CURVE
 70
0
 62
7
  6
CONTINUOUS
370
-3
390
F
  0
LAYER
  5
201
100
AcDbSymbolTableRecord
100
AcDbLayerTableRecord
  2
DTM_MASTER
 70
0
 62
7
  6
CONTINUOUS
370
-3
390
F
  0
LAYER
  5
202
100
AcDbSymbolTableRecord
100
AcDbLayerTableRecord
  2
DTM_POINT
 70
0
 62
7
  6
CONTINUOUS
370
-3
390
F
  0
LAYER
  5
203
100
AcDbSymbolTableRecord
100
AcDbLayerTableRecord
  2
DTM_QUILT
 70
0
 62
7
  6
CONTINUOUS
370
-3
390
F
  0
LAYER
  5
204
100
AcDbSymbolTableRecord
100
AcDbLayerTableRecord
  2
GTOL
 70
0
 62
7
  6
CONTINUOUS
370
-3
390
F
  0
LAYER
  5
205
100
AcDbSymbolTableRecord
100
AcDbLayerTableRecord
  2
NOTES
 70
0
 62
7
  6
CONTINUOUS
370
-3
390
F
  0
ENDTAB
  0
TABLE
  2
STYLE
  5
3
100
AcDbSymbolTable
 70
1
  0
STYLE
  5
11
100
AcDbSymbolTableRecord
100
AcDbTextStyleTableRecord
  2
STANDARD
 70
0
 40
0.0
 41
1.0
 50
0.0
 71
0
 42
0.2
  3
cgtime.ttf
  4

  0
STYLE
  5
206
100
AcDbSymbolTableRecord
100
AcDbTextStyleTableRecord
  2
TEXTSTYLE_1
 70
0
 40
0.0
 41
0.8
 50
0.0
 71
0
 42
0.2
  3
gdt
  4

  0
STYLE
  5
207
100
AcDbSymbolTableRecord
100
AcDbTextStyleTableRecord
  2
TEXTSTYLE_2
 70
0
 40
0.0
 41
1.0
 50
0.0
 71
0
 42
0.2
  3
trium.ttf
  4

  0
STYLE
  5
208
100
AcDbSymbolTableRecord
100
AcDbTextStyleTableRecord
  2
TEXTSTYLE_3
 70
0
 40
0.0
 41
1.0
 50
0.0
 71
0
 42
0.2
  3
calibri.ttf
  4

  0
ENDTAB
  0
TABLE
  2
VIEW
  5
6
100
AcDbSymbolTable
 70
0
  0
ENDTAB
  0
TABLE
  2
UCS
  5
7
100
AcDbSymbolTable
 70
0
  0
ENDTAB
  0
TABLE
  2
APPID
  5
9
100
AcDbSymbolTable
 70
1
  0
APPID
  5
209
100
AcDbSymbolTableRecord
100
AcDbRegAppTableRecord
  2
ACAD
 70
0
  0
ENDTAB
  0
TABLE
  2
BLOCK_RECORD
  5
1
100
AcDbSymbolTable
 70
0
  0
BLOCK_RECORD
  5
20A
100
AcDbSymbolTableRecord
100
AcDbBlockTableRecord
  2
*Model_Space
  0
BLOCK_RECORD
  5
20B
100
AcDbSymbolTableRecord
100
AcDbBlockTableRecord
  2
*Paper_Space
  0
BLOCK_RECORD
  5
20C
100
AcDbSymbolTableRecord
100
AcDbBlockTableRecord
  2
_FILLED
  0
BLOCK_RECORD
  5
20D
100
AcDbSymbolTableRecord
100
AcDbBlockTableRecord
  2
*D0
  0
BLOCK_RECORD
  5
20E
100
AcDbSymbolTableRecord
100
AcDbBlockTableRecord
  2
*D1
  0
BLOCK_RECORD
  5
20F
100
AcDbSymbolTableRecord
100
AcDbBlockTableRecord
  2
*D2
  0
BLOCK_RECORD
  5
210
100
AcDbSymbolTableRecord
100
AcDbBlockTableRecord
  2
*D3
  0
BLOCK_RECORD
  5
211
100
AcDbSymbolTableRecord
100
AcDbBlockTableRecord
  2
*D4
  0
BLOCK_RECORD
  5
212
100
AcDbSymbolTableRecord
100
AcDbBlockTableRecord
  2
*D5
  0
BLOCK_RECORD
  5
213
100
AcDbSymbolTableRecord
100
AcDbBlockTableRecord
  2
*D6
  0
BLOCK_RECORD
  5
214
100
AcDbSymbolTableRecord
100
AcDbBlockTableRecord
  2
*D7
  0
BLOCK_RECORD
  5
215
100
AcDbSymbolTableRecord
100
AcDbBlockTableRecord
  2
*T1
  0
ENDTAB
  0
TABLE
  2
DIMSTYLE
  5
A
100
AcDbSymbolTable
 70
1
100
AcDbDimStyleTable
 71
0
  0
DIMSTYLE
105
216
100
AcDbSymbolTableRecord
100
AcDbDimStyleTableRecord
  2
STANDARD
 70
0
  3

  4

 40
1.0
 41
3.5
 42
1.0
 43
0.38
 44
1.5
 45
0.0
 46
0.0
 47
0.001
 48
0.001
140
2.5
141
0.09
142
0.0
143
25.4
144
1.0
145
0.0
146
1.0
147
0.625
 71
1.0
 72
0.0
 73
1
 74
1
 75
0
 76
0
 77
0
 78
8
 79
2
170
0
171
2
172
0
173
0
174
0
175
0
176
0
177
0
178
0
270
2
179
3
271
3
272
3
273
2
274
2
275
0
280
0
281
0
282
0
283
1
284
8
285
0
286
0
287
3
288
0
340
11
278
44
341
20C
342
20C
343
20C
344
20C
  0
DIMSTYLE
105
217
100
AcDbSymbolTableRecord
100
AcDbDimStyleTableRecord
  2
DIMSTYLE_1
 70
0
  3

  4

 40
1.0
 41
3.5
 42
1.0
 43
0.38
 44
1.5
 45
0.0
 46
0.0
 47
0.0
 48
0.0
140
2.5
141
0.09
142
0.0
143
25.4
144
1.0
145
0.0
146
1.0
147
1.25
 71
0.0
 72
0.0
 73
1
 74
1
 75
0
 76
0
 77
0
 78
8
 79
2
170
0
171
2
172
0
173
0
174
0
175
0
176
0
177
0
178
0
270
2
179
3
271
3
272
3
273
2
274
2
275
0
280
0
281
0
282
0
283
1
284
8
285
0
286
0
287
3
288
0
340
11
278
44
341
20C
342
20C
343
20C
344
20C
  0
DIMSTYLE
105
218
100
AcDbSymbolTableRecord
100
AcDbDimStyleTableRecord
  2
DIMSTYLE_2
 70
0
  3

  4

 40
1.0
 41
3.5
 42
1.0
 43
0.38
 44
1.5
 45
0.0
 46
0.0
 47
0.0
 48
0.0
140
2.5
141
0.09
142
0.0
143
25.4
144
1.0
145
0.0
146
1.0
147
1.25
 71
0.0
 72
0.0
 73
1
 74
1
 75
0
 76
0
 77
0
 78
8
 79
2
170
0
171
2
172
0
173
0
174
0
175
0
176
0
177
0
178
0
270
2
179
3
271
1
272
1
273
2
274
2
275
0
280
0
281
0
282
0
283
1
284
8
285
0
286
0
287
3
288
0
340
11
278
44
341
20C
342
20C
343
20C
344
20C
  0
DIMSTYLE
105
219
100
AcDbSymbolTableRecord
100
AcDbDimStyleTableRecord
  2
DIMSTYLE_3
 70
0
  3

  4

 40
1.0
 41
3.5
 42
1.0
 43
0.38
 44
1.5
 45
0.0
 46
0.0
 47
0.0
 48
0.0
140
2.5
141
0.09
142
0.0
143
25.4
144
1.0
145
0.0
146
1.0
147
1.25
 71
0.0
 72
0.0
 73
1
 74
1
 75
0
 76
0
 77
0
 78
8
 79
2
170
0
171
2
172
0
173
0
174
0
175
0
176
0
177
0
178
0
270
2
179
3
271
0
272
0
273
2
274
2
275
0
280
0
281
0
282
0
283
1
284
8
285
0
286
0
287
3
288
0
340
11
278
44
341
20C
342
20C
343
20C
344
20C
  0
ENDTAB
  0
ENDSEC
  0
SECTION
  2
BLOCKS
  0
BLOCK
  5
20
100
AcDbEntity
  8
0
100
AcDbBlockBegin
  2
*Model_Space
 70
0
 10
0.0
 20
0.0
 30
0.0
  3
*Model_Space
  1

  0
ENDBLK
  5
21
100
AcDbEntity
  8
0
100
AcDbBlockEnd
  0
BLOCK
  5
1C
100
AcDbEntity
  8
0
100
AcDbBlockBegin
  2
*Paper_Space
 70
0
 10
0.0
 20
0.0
 30
0.0
  3
*Paper_Space
  1

  0
ENDBLK
  5
1D
100
AcDbEntity
  8
0
100
AcDbBlockEnd
  0
BLOCK
  5
21A
100
AcDbEntity
  8
0
100
AcDbBlockBegin
  2
_FILLED
 70
64
 10
0.0
 20
0.0
  3
_FILLED
  1

  0
SOLID
  5
21B
100
AcDbEntity
  8
0
  6
BYBLOCK
 62
0
100
AcDbTrace
 10
0.0
 20
0.0
 11
-1.0
 21
0.2142857143
 12
-1.0
 22
-0.2142857143
 13
-1.0
 23
-0.2142857143
  0
ENDBLK
  5
21C
100
AcDbEntity
  8
0
  6
BYBLOCK
 62
0
100
AcDbBlockEnd
  0
BLOCK
  5
21D
100
AcDbEntity
  8
0
100
AcDbBlockBegin
 62
2
  6
CONTINUOUS
  2
*D0
 70
65
 10
0.0
 20
0.0
  3
*D0
  1

  0
TEXT
  5
21E
100
AcDbEntity
  8
0
100
AcDbText
 62
2
  6
CONTINUOUS
 10
18.1904599016
 20
97.4452106527
  7
STANDARD
 40
2.5
  1
144
 72
5
 11
23.6476583452
 21
97.4452106527
100
AcDbText
  0
TEXT
  5
21F
100
AcDbEntity
  8
0
100
AcDbText
 62
2
  6
CONTINUOUS
 10
23.6476583452
 20
97.4452106527
  7
STANDARD
 40
2.5
  1
mm
 72
5
 11
29.3188645709
 21
97.4452106527
100
AcDbText
  0
TEXT
  5
220
100
AcDbEntity
  8
0
100
AcDbText
 62
2
  6
CONTINUOUS
 10
18.9686700183
 20
93.6952106527
  7
STANDARD
 40
2.5
  1
5-5/8"
 72
5
 11
28.5406544541
 21
93.6952106527
100
AcDbText
  0
LINE
  5
221
100
AcDbEntity
  8
0
100
AcDbLine
 62
2
  6
CONTINUOUS
 10
85.2579924419
 20
169.0690157689
 11
22.2546622362
 21
169.0690157689
  0
LINE
  5
222
100
AcDbEntity
  8
0
100
AcDbLine
 62
2
  6
CONTINUOUS
 10
42.2579924419
 20
28.3214055366
 11
22.2546622362
 21
28.3214055366
  0
LINE
  5
223
100
AcDbEntity
  8
0
100
AcDbLine
 62
2
  6
CONTINUOUS
 10
23.7546622362
 20
169.0690157689
 11
23.7546622362
 21
101.1952106527
  0
LINE
  5
224
100
AcDbEntity
  8
0
100
AcDbLine
 62
2
  6
CONTINUOUS
 10
23.7546622362
 20
28.3214055366
 11
23.7546622362
 21
92.4452106527
  0
INSERT
  5
225
100
AcDbEntity
  8
0
100
AcDbBlockReference
 62
2
  6
CONTINUOUS
  2
_FILLED
 10
23.7546622362
 20
169.0690157689
 41
3.5
 42
3.5
 43
3.5
 50
90.0
  0
INSERT
  5
226
100
AcDbEntity
  8
0
100
AcDbBlockReference
 62
2
  6
CONTINUOUS
  2
_FILLED
 10
23.7546622362
 20
28.3214055366
 41
3.5
 42
3.5
 43
3.5
 50
270.0
  0
ENDBLK
  5
227
100
AcDbEntity
  8
0
  6
BYBLOCK
 62
0
100
AcDbBlockEnd
  0
BLOCK
  5
228
100
AcDbEntity
  8
0
100
AcDbBlockBegin
 62
2
  6
CONTINUOUS
  2
*D1
 70
65
 10
0.0
 20
0.0
  3
*D1
  1

  0
TEXT
  5
229
100
AcDbEntity
  8
0
100
AcDbText
 62
2
  6
CONTINUOUS
 10
70.1033231812
 20
182.6904770917
  7
STANDARD
 40
2.5
  1
65
 72
5
 11
73.741455477
 21
182.6904770917
100
AcDbText
  0
TEXT
  5
22A
100
AcDbEntity
  8
0
100
AcDbText
 62
2
  6
CONTINUOUS
 10
73.741455477
 20
182.6904770917
  7
STANDARD
 40
2.5
  1
mm
 72
5
 11
79.4126617026
 21
182.6904770917
100
AcDbText
  0
TEXT
  5
22B
100
AcDbEntity
  8
0
100
AcDbText
 62
2
  6
CONTINUOUS
 10
69.972000224
 20
178.9404770917
  7
STANDARD
 40
2.5
  1
2-1/2"
 72
5
 11
79.5439846598
 21
178.9404770917
100
AcDbText
  0
LINE
  5
22C
100
AcDbEntity
  8
0
100
AcDbLine
 62
2
  6
CONTINUOUS
 10
43.2579924419
 20
49.3214055366
 11
43.2579924419
 21
185.4404770917
  0
LINE
  5
22D
100
AcDbEntity
  8
0
100
AcDbLine
 62
2
  6
CONTINUOUS
 10
106.2579924419
 20
170.0690157689
 11
106.2579924419
 21
185.4404770917
  0
LINE
  5
22E
100
AcDbEntity
  8
0
100
AcDbLine
 62
2
  6
CONTINUOUS
 10
43.2579924419
 20
183.9404770917
 11
68.8533231812
 21
183.9404770917
  0
LINE
  5
22F
100
AcDbEntity
  8
0
100
AcDbLine
 62
2
  6
CONTINUOUS
 10
106.2579924419
 20
183.9404770917
 11
80.6626617026
 21
183.9404770917
  0
INSERT
  5
230
100
AcDbEntity
  8
0
100
AcDbBlockReference
 62
2
  6
CONTINUOUS
  2
_FILLED
 10
43.2579924419
 20
183.9404770917
 41
3.5
 42
3.5
 43
3.5
 50
180.0
  0
INSERT
  5
231
100
AcDbEntity
  8
0
100
AcDbBlockReference
 62
2
  6
CONTINUOUS
  2
_FILLED
 10
106.2579924419
 20
183.9404770917
 41
3.5
 42
3.5
 43
3.5
  0
ENDBLK
  5
232
100
AcDbEntity
  8
0
  6
BYBLOCK
 62
0
100
AcDbBlockEnd
  0
BLOCK
  5
233
100
AcDbEntity
  8
0
100
AcDbBlockBegin
 62
2
  6
CONTINUOUS
  2
*D2
 70
65
 10
0.0
 20
0.0
  3
*D2
  1

  0
TEXT
  5
234
100
AcDbEntity
  8
0
100
AcDbText
 62
2
  6
CONTINUOUS
 10
83.7320561025
 20
90.9377413167
  7
STANDARD
 40
2.5
  1
153
 72
5
 11
89.1892545461
 21
90.9377413167
100
AcDbText
  0
TEXT
  5
235
100
AcDbEntity
  8
0
100
AcDbText
 62
2
  6
CONTINUOUS
 10
89.1892545461
 20
90.9377413167
  7
STANDARD
 40
2.5
  1
mm
 72
5
 11
94.8604607718
 21
90.9377413167
100
AcDbText
  0
TEXT
  5
236
100
AcDbEntity
  8
0
100
AcDbText
 62
2
  6
CONTINUOUS
 10
87.5452856745
 20
87.1877413167
  7
STANDARD
 40
2.5
  1
6"
 72
5
 11
91.0472311998
 21
87.1877413167
100
AcDbText
  0
LINE
  5
237
100
AcDbEntity
  8
0
100
AcDbLine
 62
2
  6
CONTINUOUS
 10
107.1707285731
 20
168.6604661944
 11
122.165362634
 21
161.9487220712
  0
LINE
  5
238
100
AcDbEntity
  8
0
100
AcDbLine
 62
2
  6
CONTINUOUS
 10
44.1707285731
 20
27.9128559621
 11
59.165362634
 21
21.2011118389
  0
LINE
  5
239
100
AcDbEntity
  8
0
100
AcDbLine
 62
2
  6
CONTINUOUS
 10
120.7962584372
 20
162.5615464329
 11
90.4152827655
 21
94.6877413167
  0
LINE
  5
23A
100
AcDbEntity
  8
0
100
AcDbLine
 62
2
  6
CONTINUOUS
 10
57.7962584372
 20
21.8139362006
 11
86.4986976164
 21
85.9377413167
  0
INSERT
  5
23B
100
AcDbEntity
  8
0
100
AcDbBlockReference
 62
2
  6
CONTINUOUS
  2
_FILLED
 10
120.7962584372
 20
162.5615464329
 41
3.5
 42
3.5
 43
3.5
 50
65.8862461483
  0
INSERT
  5
23C
100
AcDbEntity
  8
0
100
AcDbBlockReference
 62
2
  6
CONTINUOUS
  2
_FILLED
 10
57.7962584372
 20
21.8139362006
 41
3.5
 42
3.5
 43
3.5
 50
245.8862461483
  0
ENDBLK
  5
23D
100
AcDbEntity
  8
0
  6
BYBLOCK
 62
0
100
AcDbBlockEnd
  0
BLOCK
  5
23E
100
AcDbEntity
  8
0
100
AcDbBlockBegin
 62
2
  6
CONTINUOUS
  2
*D3
 70
65
 10
0.0
 20
0.0
  3
*D3
  1

  0
TEXT
  5
23F
100
AcDbEntity
  8
0
100
AcDbText
 62
2
  6
CONTINUOUS
 10
23.8095772447
 20
15.9028909447
  7
STANDARD
 40
2.5
  1
6,5
 72
5
 11
28.6636628478
 21
15.9028909447
100
AcDbText
  0
TEXT
  5
240
100
AcDbEntity
  8
0
100
AcDbText
 62
2
  6
CONTINUOUS
 10
28.6636628478
 20
15.9028909447
  7
STANDARD
 40
2.5
  1
mm
 72
5
 11
34.3348690735
 21
15.9028909447
100
AcDbText
  0
TEXT
  5
241
100
AcDbEntity
  8
0
100
AcDbText
 62
2
  6
CONTINUOUS
 10
27.797904093
 20
12.1528909447
  7
STANDARD
 40
2.5
  1
1/4"
 72
5
 11
34.3348690735
 21
12.1528909447
100
AcDbText
  0
LINE
  5
242
100
AcDbEntity
  8
0
100
AcDbLine
 62
2
  6
CONTINUOUS
 10
43.2579924419
 20
27.3214055366
 11
43.2579924419
 21
15.6528909447
  0
LINE
  5
243
100
AcDbEntity
  8
0
100
AcDbLine
 62
2
  6
CONTINUOUS
 10
49.7579924419
 20
27.4916140268
 11
49.7579924419
 21
15.6528909447
  0
LINE
  5
244
100
AcDbEntity
  8
0
100
AcDbLine
 62
2
  6
CONTINUOUS
 10
43.2579924419
 20
17.1528909447
 11
35.5848690735
 21
17.1528909447
  0
LINE
  5
245
100
AcDbEntity
  8
0
100
AcDbLine
 62
2
  6
CONTINUOUS
 10
49.7579924419
 20
17.1528909447
 11
54.7579924419
 21
17.1528909447
  0
INSERT
  5
246
100
AcDbEntity
  8
0
100
AcDbBlockReference
 62
2
  6
CONTINUOUS
  2
_FILLED
 10
43.2579924419
 20
17.1528909447
 41
3.5
 42
3.5
 43
3.5
  0
INSERT
  5
247
100
AcDbEntity
  8
0
100
AcDbBlockReference
 62
2
  6
CONTINUOUS
  2
_FILLED
 10
49.7579924419
 20
17.1528909447
 41
3.5
 42
3.5
 43
3.5
 50
180.0
  0
ENDBLK
  5
248
100
AcDbEntity
  8
0
  6
BYBLOCK
 62
0
100
AcDbBlockEnd
  0
BLOCK
  5
249
100
AcDbEntity
  8
0
100
AcDbBlockBegin
 62
2
  6
CONTINUOUS
  2
*D4
 70
65
 10
0.0
 20
0.0
  3
*D4
  1

  0
TEXT
  5
24A
100
AcDbEntity
  8
0
100
AcDbText
 62
2
  6
CONTINUOUS
 10
131.4813185445
 20
177.1257053896
  7
STANDARD
 40
2.5
  1
7,5
 72
5
 11
136.3354041476
 21
177.1257053896
100
AcDbText
  0
LINE
  5
24B
100
AcDbEntity
  8
0
100
AcDbLine
 62
2
  6
CONTINUOUS
 10
107.2579924419
 20
161.5714055366
 11
126.9813185445
 21
161.5714055366
  0
LINE
  5
24C
100
AcDbEntity
  8
0
100
AcDbLine
 62
2
  6
CONTINUOUS
 10
107.2579924419
 20
169.0690157689
 11
126.9813185445
 21
169.0690157689
  0
LINE
  5
24D
100
AcDbEntity
  8
0
100
AcDbLine
 62
2
  6
CONTINUOUS
 10
125.4813185445
 20
161.5714055366
 11
125.4813185445
 21
156.5714055366
  0
LINE
  5
24E
100
AcDbEntity
  8
0
100
AcDbLine
 62
2
  6
CONTINUOUS
 10
125.4813185445
 20
169.0690157689
 11
125.4813185445
 21
178.3757053896
  0
LINE
  5
24F
100
AcDbEntity
  8
0
100
AcDbLine
 62
2
  6
CONTINUOUS
 10
125.4813185445
 20
178.3757053896
 11
130.2313185445
 21
178.3757053896
  0
INSERT
  5
250
100
AcDbEntity
  8
0
100
AcDbBlockReference
 62
2
  6
CONTINUOUS
  2
_FILLED
 10
125.4813185445
 20
161.5714055366
 41
3.5
 42
3.5
 43
3.5
 50
90.0
  0
INSERT
  5
251
100
AcDbEntity
  8
0
100
AcDbBlockReference
 62
2
  6
CONTINUOUS
  2
_FILLED
 10
125.4813185445
 20
169.0690157689
 41
3.5
 42
3.5
 43
3.5
 50
270.0
  0
ENDBLK
  5
252
100
AcDbEntity
  8
0
  6
BYBLOCK
 62
0
100
AcDbBlockEnd
  0
BLOCK
  5
253
100
AcDbEntity
  8
0
100
AcDbBlockBegin
 62
2
  6
CONTINUOUS
  2
*D5
 70
65
 10
0.0
 20
0.0
  3
*D5
  1

  0
TEXT
  5
254
100
AcDbEntity
  8
0
100
AcDbText
 62
2
  6
CONTINUOUS
 10
26.7798451183
 20
68.0812437184
  7
STANDARD
 40
2.5
  1
3
 72
5
 11
28.5989112662
 21
68.0812437184
100
AcDbText
  0
TEXT
  5
255
100
AcDbEntity
  8
0
100
AcDbText
 62
2
  6
CONTINUOUS
 10
28.5989112662
 20
68.0812437184
  7
STANDARD
 40
2.5
  1
mm
 72
5
 11
34.2701174919
 21
68.0812437184
100
AcDbText
  0
TEXT
  5
256
100
AcDbEntity
  8
0
100
AcDbText
 62
2
  6
CONTINUOUS
 10
27.7331525113
 20
64.3312437184
  7
STANDARD
 40
2.5
  1
1/8"
 72
5
 11
34.2701174919
 21
64.3312437184
100
AcDbText
  0
LINE
  5
257
100
AcDbEntity
  8
0
100
AcDbLine
 62
2
  6
CONTINUOUS
 10
43.2579924419
 20
49.3214055366
 11
43.2579924419
 21
70.8312437184
  0
LINE
  5
258
100
AcDbEntity
  8
0
100
AcDbLine
 62
2
  6
CONTINUOUS
 10
46.2579924419
 20
69.3312437184
 11
51.2579924419
 21
69.3312437184
  0
LINE
  5
259
100
AcDbEntity
  8
0
100
AcDbLine
 62
2
  6
CONTINUOUS
 10
43.2579924419
 20
69.3312437184
 11
35.5201174919
 21
69.3312437184
  0
INSERT
  5
25A
100
AcDbEntity
  8
0
100
AcDbBlockReference
 62
2
  6
CONTINUOUS
  2
_FILLED
 10
46.2579924419
 20
69.3312437184
 41
3.5
 42
3.5
 43
3.5
 50
180.0
  0
INSERT
  5
25B
100
AcDbEntity
  8
0
100
AcDbBlockReference
 62
2
  6
CONTINUOUS
  2
_FILLED
 10
43.2579924419
 20
69.3312437184
 41
3.5
 42
3.5
 43
3.5
  0
ENDBLK
  5
25C
100
AcDbEntity
  8
0
  6
BYBLOCK
 62
0
100
AcDbBlockEnd
  0
BLOCK
  5
25D
100
AcDbEntity
  8
0
100
AcDbBlockBegin
 62
2
  6
CONTINUOUS
  2
*D6
 70
65
 10
0.0
 20
0.0
  3
*D6
  1

  0
TEXT
  5
25E
100
AcDbEntity
  8
0
100
AcDbText
 62
2
  6
CONTINUOUS
 10
60.1033231812
 20
175.7344502562
  7
STANDARD
 40
2.5
  1
43
 72
5
 11
63.741455477
 21
175.7344502562
100
AcDbText
  0
TEXT
  5
25F
100
AcDbEntity
  8
0
100
AcDbText
 62
2
  6
CONTINUOUS
 10
63.741455477
 20
175.7344502562
  7
STANDARD
 40
2.5
  1
mm
 72
5
 11
69.4126617026
 21
175.7344502562
100
AcDbText
  0
TEXT
  5
260
100
AcDbEntity
  8
0
100
AcDbText
 62
2
  6
CONTINUOUS
 10
59.972000224
 20
171.9844502562
  7
STANDARD
 40
2.5
  1
1-3/4"
 72
5
 11
69.5439846598
 21
171.9844502562
100
AcDbText
  0
LINE
  5
261
100
AcDbEntity
  8
0
100
AcDbLine
 62
2
  6
CONTINUOUS
 10
43.2579924419
 20
49.3214055366
 11
43.2579924419
 21
178.4844502562
  0
LINE
  5
262
100
AcDbEntity
  8
0
100
AcDbLine
 62
2
  6
CONTINUOUS
 10
86.2579924419
 20
170.0690157689
 11
86.2579924419
 21
178.4844502562
  0
LINE
  5
263
100
AcDbEntity
  8
0
100
AcDbLine
 62
2
  6
CONTINUOUS
 10
43.2579924419
 20
176.9844502562
 11
58.8533231812
 21
176.9844502562
  0
LINE
  5
264
100
AcDbEntity
  8
0
100
AcDbLine
 62
2
  6
CONTINUOUS
 10
86.2579924419
 20
176.9844502562
 11
70.6626617026
 21
176.9844502562
  0
INSERT
  5
265
100
AcDbEntity
  8
0
100
AcDbBlockReference
 62
2
  6
CONTINUOUS
  2
_FILLED
 10
43.2579924419
 20
176.9844502562
 41
3.5
 42
3.5
 43
3.5
 50
180.0
  0
INSERT
  5
266
100
AcDbEntity
  8
0
100
AcDbBlockReference
 62
2
  6
CONTINUOUS
  2
_FILLED
 10
86.2579924419
 20
176.9844502562
 41
3.5
 42
3.5
 43
3.5
  0
ENDBLK
  5
267
100
AcDbEntity
  8
0
  6
BYBLOCK
 62
0
100
AcDbBlockEnd
  0
BLOCK
  5
268
100
AcDbEntity
  8
0
100
AcDbBlockBegin
 62
2
  6
CONTINUOUS
  2
*D7
 70
65
 10
0.0
 20
0.0
  3
*D7
  1

  0
TEXT
  5
269
100
AcDbEntity
  8
0
100
AcDbText
 62
2
  6
CONTINUOUS
 10
29.2283468331
 20
147.2178689124
  7
STANDARD
 40
2.5
  1
41
 72
5
 11
32.8664791288
 21
147.2178689124
100
AcDbText
  0
TEXT
  5
26A
100
AcDbEntity
  8
0
100
AcDbText
 62
2
  6
CONTINUOUS
 10
32.8664791288
 20
147.2178689124
  7
STANDARD
 40
2.5
  1
mm
 72
5
 11
38.5376853545
 21
147.2178689124
100
AcDbText
  0
TEXT
  5
26B
100
AcDbEntity
  8
0
100
AcDbText
 62
2
  6
CONTINUOUS
 10
29.0970238759
 20
143.4678689124
  7
STANDARD
 40
2.5
  1
1-5/8"
 72
5
 11
38.6690083117
 21
143.4678689124
100
AcDbText
  0
LINE
  5
26C
100
AcDbEntity
  8
0
100
AcDbLine
 62
2
  6
CONTINUOUS
 10
85.2579924419
 20
169.0690157689
 11
32.3830160938
 21
169.0690157689
  0
LINE
  5
26D
100
AcDbEntity
  8
0
100
AcDbLine
 62
2
  6
CONTINUOUS
 10
48.3882040312
 20
127.866722056
 11
32.3830160938
 21
127.866722056
  0
LINE
  5
26E
100
AcDbEntity
  8
0
100
AcDbLine
 62
2
  6
CONTINUOUS
 10
33.8830160938
 20
169.0690157689
 11
33.8830160938
 21
150.9678689124
  0
LINE
  5
26F
100
AcDbEntity
  8
0
100
AcDbLine
 62
2
  6
CONTINUOUS
 10
33.8830160938
 20
127.866722056
 11
33.8830160938
 21
142.2178689124
  0
INSERT
  5
270
100
AcDbEntity
  8
0
100
AcDbBlockReference
 62
2
  6
CONTINUOUS
  2
_FILLED
 10
33.8830160938
 20
169.0690157689
 41
3.5
 42
3.5
 43
3.5
 50
90.0
  0
INSERT
  5
271
100
AcDbEntity
  8
0
100
AcDbBlockReference
 62
2
  6
CONTINUOUS
  2
_FILLED
 10
33.8830160938
 20
127.866722056
 41
3.5
 42
3.5
 43
3.5
 50
270.0
  0
ENDBLK
  5
272
100
AcDbEntity
  8
0
  6
BYBLOCK
 62
0
100
AcDbBlockEnd
  0
BLOCK
  5
273
100
AcDbEntity
  8
0
100
AcDbBlockBegin
  2
*T1
 70
1
 10
0.0
 20
0.0
  3
*T1
  1

  0
LINE
  5
274
100
AcDbEntity
  8
0
100
AcDbLine
 62
7
  6
CONTINUOUS
 10
0.0
 20
0.0
 11
148.0
 21
0.0
  0
LINE
  5
275
100
AcDbEntity
  8
0
100
AcDbLine
 62
7
  6
CONTINUOUS
 10
0.0
 20
0.0
 11
0.0
 21
-43.0
  0
LINE
  5
276
100
AcDbEntity
  8
0
100
AcDbLine
 62
7
  6
CONTINUOUS
 10
45.0
 20
-20.0
 11
148.0
 21
-20.0
  0
LINE
  5
277
100
AcDbEntity
  8
0
100
AcDbLine
 62
7
  6
CONTINUOUS
 10
45.0
 20
-28.0
 11
148.0
 21
-28.0
  0
LINE
  5
278
100
AcDbEntity
  8
0
100
AcDbLine
 62
7
  6
CONTINUOUS
 10
0.0
 20
-43.0
 11
148.0
 21
-43.0
  0
LINE
  5
279
100
AcDbEntity
  8
0
100
AcDbLine
 62
7
  6
CONTINUOUS
 10
45.0
 20
0.0
 11
45.0
 21
-43.0
  0
LINE
  5
27A
100
AcDbEntity
  8
0
100
AcDbLine
 62
7
  6
CONTINUOUS
 10
143.0
 20
0.0
 11
143.0
 21
-20.0
  0
LINE
  5
27B
100
AcDbEntity
  8
0
100
AcDbLine
 62
7
  6
CONTINUOUS
 10
148.0
 20
0.0
 11
148.0
 21
-43.0
  0
TEXT
  5
27C
100
AcDbEntity
  8
0
100
AcDbText
 62
7
  6
CONTINUOUS
 10
8.9659749243
 20
-9.175
  7
STANDARD
 40
8.0
  1
O
 72
5
 11
17.370644185
 21
-9.175
100
AcDbText
  0
TEXT
  5
27D
100
AcDbEntity
  8
0
100
AcDbText
 62
7
  6
CONTINUOUS
 10
17.370644185
 20
-9.175
  7
STANDARD
 40
5.5
  1
RAC
 72
5
 11
33.9562472979
 21
-9.175
100
AcDbText
  0
TEXT
  5
27E
100
AcDbEntity
  8
0
100
AcDbText
 62
7
  6
CONTINUOUS
 10
33.9562472979
 20
-4.425
  7
TEXTSTYLE_2
 40
3.0
  1
®
 72
5
 11
36.0340250757
 21
-4.425
100
AcDbText
  0
TEXT
  5
27F
100
AcDbEntity
  8
0
100
AcDbText
 62
7
  6
CONTINUOUS
 10
9.5323389537
 20
-13.825
  7
TEXTSTYLE_2
 40
3.0
  1
D  E  C  O  R
 72
5
 11
34.3878945093
 21
-13.825
100
AcDbText
  0
TEXT
  5
280
100
AcDbEntity
  8
0
100
AcDbText
 62
7
  6
CONTINUOUS
 10
34.3878945093
 20
-13.825
  7
STANDARD
 40
2.5
  1
 
 72
5
 11
35.4676610463
 21
-13.825
100
AcDbText
  0
TEXT
  5
281
100
AcDbEntity
  8
0
100
AcDbText
 62
7
  6
CONTINUOUS
 10
52.8786764706
 20
-4.6
  7
TEXTSTYLE_3
 40
2.7
  1
Part name:
 72
5
 11
71.9375
 21
-4.6
100
AcDbText
  0
TEXT
  5
282
100
AcDbEntity
  8
0
100
AcDbText
 62
7
  6
CONTINUOUS
 10
49.6908613445
 20
-11.35
  7
TEXTSTYLE_3
 40
2.7
  1
Designed by:
 72
5
 11
71.9375
 21
-11.35
100
AcDbText
  0
TEXT
  5
283
100
AcDbEntity
  8
0
100
AcDbText
 62
7
  6
CONTINUOUS
 10
49.3732142857
 20
-18.1
  7
TEXTSTYLE_3
 40
2.7
  1
Designed on:
 72
5
 11
71.9375
 21
-18.1
100
AcDbText
  0
TEXT
  5
284
100
AcDbEntity
  8
0
100
AcDbText
 62
2
  6
CONTINUOUS
 10
74.0625
 20
-4.6
  7
TEXTSTYLE_3
 40
2.7
  1
C303
 72
5
 11
82.7977941176
 21
-4.6
100
AcDbText
  0
TEXT
  5
285
100
AcDbEntity
  8
0
100
AcDbText
 62
2
  6
CONTINUOUS
 10
74.0625
 20
-11.35
  7
TEXTSTYLE_3
 40
2.7
  1
ORAC
 72
5
 11
83.9209033613
 21
-11.35
100
AcDbText
  0
TEXT
  5
286
100
AcDbEntity
  8
0
100
AcDbText
 62
2
  6
CONTINUOUS
 10
74.0625
 20
-18.1
  7
TEXTSTYLE_3
 40
2.7
  1
25-Jun-2004 
 72
5
 11
96.399894958
 21
-18.1
100
AcDbText
  0
TEXT
  5
287
100
AcDbEntity
  8
0
100
AcDbText
 62
2
  6
CONTINUOUS
 10
146.5625
 20
-16.0
  7
TEXTSTYLE_3
 40
1.5
  1
Version: 1.0 
 50
90.0
 72
5
 11
146.5625
 21
-4.0
100
AcDbText
  0
TEXT
  5
288
100
AcDbEntity
  8
0
100
AcDbText
 62
7
  6
CONTINUOUS
 10
9.6586134454
 20
-22.75
  7
TEXTSTYLE_3
 40
2.5
  1
Biekorfstraat 32
 72
5
 11
35.3413865546
 21
-22.75
100
AcDbText
  0
TEXT
  5
289
100
AcDbEntity
  8
0
100
AcDbText
 62
7
  6
CONTINUOUS
 10
2.2584033613
 20
-26.5
  7
TEXTSTYLE_3
 40
2.5
  1
8400 Oostende - Belgium
 72
5
 11
42.7415966387
 21
-26.5
100
AcDbText
  0
TEXT
  5
28A
100
AcDbEntity
  8
0
100
AcDbText
 62
7
  6
CONTINUOUS
 10
4.2699579832
 20
-30.25
  7
TEXTSTYLE_3
 40
2.5
  1
Tel  +32 (0)59 80 32 52
 72
5
 11
40.7300420168
 21
-30.25
100
AcDbText
  0
TEXT
  5
28B
100
AcDbEntity
  8
0
100
AcDbText
 62
7
  6
CONTINUOUS
 10
5.7405462185
 20
-34.0
  7
TEXTSTYLE_3
 40
2.5
  1
www.oracdecor.com
 72
5
 11
39.2594537815
 21
-34.0
100
AcDbText
  0
TEXT
  5
28C
100
AcDbEntity
  8
0
100
AcDbText
 62
7
  6
CONTINUOUS
 10
5.5777310924
 20
-37.75
  7
TEXTSTYLE_3
 40
2.5
  1
info@oracdecor.com
 72
5
 11
39.4222689076
 21
-37.75
100
AcDbText
  0
TEXT
  5
28D
100
AcDbEntity
  8
0
100
AcDbText
 62
7
  6
CONTINUOUS
 10
46.0625
 20
-23.375
  7
TEXTSTYLE_3
 40
2.5
  1
Unless otherwise specified: all dimensions are in millimeters 
 72
5
 11
143.4259453782
 21
-23.375
100
AcDbText
  0
TEXT
  5
28E
100
AcDbEntity
  8
0
100
AcDbText
 62
7
  6
CONTINUOUS
 10
46.0625
 20
-27.125
  7
TEXTSTYLE_3
 40
2.5
  1
and inches, scale 1:1, length 2 meters
 72
5
 11
106.1675420168
 21
-27.125
100
AcDbText
  0
TEXT
  5
28F
100
AcDbEntity
  8
0
100
AcDbText
 62
7
  6
CONTINUOUS
 10
46.0625
 20
-31.81
  7
TEXTSTYLE_3
 40
1.8
  1
All information in this document is Orac's exclusive property.  It may in no case 
 72
5
 11
137.5070378151
 21
-31.81
100
AcDbText
  0
TEXT
  5
290
100
AcDbEntity
  8
0
100
AcDbText
 62
7
  6
CONTINUOUS
 10
46.0625
 20
-34.87
  7
TEXTSTYLE_3
 40
1.8
  1
be reproduced, even partly, be communicated to a third party or used for any 
 72
5
 11
136.3272058824
 21
-34.87
100
AcDbText
  0
TEXT
  5
291
100
AcDbEntity
  8
0
100
AcDbText
 62
7
  6
CONTINUOUS
 10
46.0625
 20
-37.93
  7
TEXTSTYLE_3
 40
1.8
  1
possible purpose without ORAC's express written permission. Further legal 
 72
5
 11
132.7952731092
 21
-37.93
100
AcDbText
  0
TEXT
  5
292
100
AcDbEntity
  8
0
100
AcDbText
 62
7
  6
CONTINUOUS
 10
46.0625
 20
-40.99
  7
TEXTSTYLE_3
 40
1.8
  1
information can be found at https://www.oracdecor.com/en/general-sales-conditions
 72
5
 11
145.349894958
 21
-40.99
100
AcDbText
  0
ENDBLK
  5
293
100
AcDbEntity
  8
0
  6
BYBLOCK
 62
0
100
AcDbBlockEnd
  0
ENDSEC
  0
SECTION
  2
ENTITIES
  0
DIMENSION
  5
294
100
AcDbEntity
  8
0
100
AcDbDimension
 62
2
  6
CONTINUOUS
  2
*D0
 10
23.7546622362
 20
28.3214055366
 11
23.7546622362
 21
96.8202106527
 70
160
 71
2
 72
2
 41
0.9
 42
140.7476102323
  1
<>mm\P5-5/8"
  3
DIMSTYLE_1
100
AcDbAlignedDimension
 13
86.2579924419
 23
169.0690157689
 14
43.2579924419
 24
28.3214055366
 50
270.0
100
AcDbRotatedDimension
  0
DIMENSION
  5
295
100
AcDbEntity
  8
0
100
AcDbDimension
 62
2
  6
CONTINUOUS
  2
*D1
 10
106.2579924419
 20
183.9404770917
 11
74.7579924419
 21
182.0654770917
 70
160
 71
2
 72
2
 41
0.9
 42
63.0
  1
<>mm\P2-1/2"
  3
DIMSTYLE_1
100
AcDbAlignedDimension
 13
43.2579924419
 23
48.3214055366
 14
106.2579924419
 24
169.0690157689
100
AcDbRotatedDimension
  0
DIMENSION
  5
296
100
AcDbEntity
  8
0
100
AcDbDimension
 62
2
  6
CONTINUOUS
  2
*D2
 10
57.7962584372
 20
21.8139362006
 11
89.2962584372
 21
90.3127413167
 70
160
 71
2
 72
2
 41
0.9
 42
154.2040524309
  1
<>mm\P6"
  3
DIMSTYLE_1
100
AcDbAlignedDimension
 13
106.2579924419
 23
169.0690157689
 14
43.2579924419
 24
28.3214055366
 50
245.8862461483
100
AcDbRotatedDimension
  0
DIMENSION
  5
297
100
AcDbEntity
  8
0
100
AcDbDimension
 62
2
  6
CONTINUOUS
  2
*D3
 10
49.7579924419
 20
17.1528909447
 11
29.0722231591
 21
15.2778909447
 70
160
 71
3
 72
2
 41
0.9
 42
6.5
  1
<>mm\P1/4"
  3
DIMSTYLE_1
100
AcDbAlignedDimension
 13
43.2579924419
 23
28.3214055366
 14
49.7579924419
 24
28.4916140268
100
AcDbRotatedDimension
  0
DIMENSION
  5
298
100
AcDbEntity
  8
0
100
AcDbDimension
 62
2
  6
CONTINUOUS
  2
*D4
 10
125.4813185445
 20
169.0690157689
 11
133.8464878693
 21
178.0838707581
 70
160
 71
1
 72
2
 41
0.9
 42
7.4976102323
  3
DIMSTYLE_2
100
AcDbAlignedDimension
 13
106.2579924419
 23
161.5714055366
 14
106.2579924419
 24
169.0690157689
 50
90.0
100
AcDbRotatedDimension
  0
DIMENSION
  5
299
100
AcDbEntity
  8
0
100
AcDbDimension
 62
2
  6
CONTINUOUS
  2
*D5
 10
43.2579924419
 20
69.3312437184
 11
30.5249813051
 21
67.4562437184
 70
160
 71
3
 72
2
 41
0.9
 42
3.0
  1
<>mm\P1/8"
  3
DIMSTYLE_1
100
AcDbAlignedDimension
 13
46.2579924419
 23
52.5640462237
 14
43.2579924419
 24
48.3214055366
 50
180.0
100
AcDbRotatedDimension
  0
DIMENSION
  5
29A
100
AcDbEntity
  8
0
100
AcDbDimension
 62
2
  6
CONTINUOUS
  2
*D6
 10
86.2579924419
 20
176.9844502562
 11
64.7579924419
 21
175.1094502562
 70
160
 71
2
 72
2
 41
0.9
 42
43.0
  1
<>mm\P1-3/4"
  3
DIMSTYLE_1
100
AcDbAlignedDimension
 13
43.2579924419
 23
48.3214055366
 14
86.2579924419
 24
169.0690157689
100
AcDbRotatedDimension
  0
DIMENSION
  5
29B
100
AcDbEntity
  8
0
100
AcDbDimension
 62
2
  6
CONTINUOUS
  2
*D7
 10
33.8830160938
 20
127.866722056
 11
33.8830160938
 21
146.5928689124
 70
160
 71
2
 72
2
 41
0.9
 42
41.2022937129
  1
<>mm\P1-5/8"
  3
DIMSTYLE_3
100
AcDbAlignedDimension
 13
86.2579924419
 23
169.0690157689
 14
49.3882040312
 24
127.866722056
 50
270.0
100
AcDbRotatedDimension
  0
ACAD_TABLE
  5
29C
100
AcDbEntity
  8
0
 62
2
  6
CONTINUOUS
100
AcDbBlockReference
  2
*T1
 10
144.0
 20
48.0
 30
0.0
100
AcDbTable
342
       2FF
343
215
 11
1.0
 21
0.0
 31
0.0
 90
22
 91
4
 92
4
 93
0
 94
0
 95
0
 96
0
141
15.0
141
5.0
141
8.0
141
15.0
142
45.0
142
28.0
142
70.0
142
5.0
171
1
172
0
173
0
174
0
175
1
176
1
 91
41
178
0
145
0.0
301
CELL_VALUE
 90
4
  1
\A1;O\H5.5;RAC\fCG Triumvirate;\H3.0;\S®^ ;\PD  E  C  O  R\fCG Times;\H2.5; 
304
ACVALUE_END
170
5
140
8.0
 64
7
171
1
172
0
173
0
174
0
175
1
176
2
 91
57
178
0
145
0.0
  7
TEXTSTYLE_3
301
CELL_VALUE
 90
4
  1
Part name:\PDesigned by:\PDesigned on:
304
ACVALUE_END
170
6
140
2.7
 64
7
171
1
172
0
173
0
174
0
175
1
176
2
 91
49
178
0
145
0.0
  7
TEXTSTYLE_3
301
CELL_VALUE
 90
4
  1
C303\PORAC\P25-Jun-2004 
304
ACVALUE_END
170
4
140
2.7
171
1
172
0
173
0
174
0
175
1
176
2
 91
49
178
0
145
0.0
  7
TEXTSTYLE_3
301
CELL_VALUE
 90
4
  1
Version: 1.0 
304
ACVALUE_END
170
6
140
1.5
171
1
172
0
173
0
174
0
175
1
176
3
 91
57
178
0
145
0.0
  7
TEXTSTYLE_3
301
CELL_VALUE
 90
4
  1
Biekorfstraat 32\P8400 Oostende - Belgium\PTel  +32 (0)59 80 32 52\Pwww.oracdecor.com\Pinfo@oracdecor.com
304
ACVALUE_END
170
5
140
2.5
 64
7
171
1
172
0
173
1
174
0
175
1
176
1
 91
1
178
0
145
0.0
170
1
171
1
172
0
173
1
174
0
175
1
176
1
 91
1
178
0
145
0.0
170
1
171
1
172
0
173
1
174
0
175
1
176
1
 91
1
178
0
145
0.0
170
1
171
1
172
0
173
1
174
0
175
1
176
1
 91
1
178
0
145
0.0
170
1
171
1
172
0
173
0
174
0
175
3
176
1
 91
57
178
0
145
0.0
  7
TEXTSTYLE_3
301
CELL_VALUE
 90
4
  1
Unless otherwise specified: all dimensions are in millimeters \Pand inches, scale 1:1, length 2 meters
304
ACVALUE_END
170
4
140
2.5
 64
7
171
1
172
0
173
1
174
0
175
1
176
1
 91
1
178
0
145
0.0
170
1
171
1
172
0
173
1
174
0
175
1
176
1
 91
1
178
0
145
0.0
170
1
171
1
172
0
173
1
174
0
175
1
176
1
 91
1
178
0
145
0.0
170
1
171
1
172
0
173
0
174
0
175
3
176
1
 91
57
178
0
145
0.0
  7
TEXTSTYLE_3
301
CELL_VALUE
 90
4
  2
All information in this document is Orac's exclusive property.  It may in no case \Pbe reproduced, even partly, be communicated to a third party or used for any \Ppossible purpose without ORAC's express written permission. Further legal \Pinformation
  1
 can be found at https://www.oracdecor.com/en/general-sales-conditions
304
ACVALUE_END
170
4
140
1.8
 64
7
171
1
172
0
173
1
174
0
175
1
176
1
 91
1
178
0
145
0.0
170
1
171
1
172
0
173
1
174
0
175
1
176
1
 91
1
178
0
145
0.0
170
1
  0
TEXT
  5
29D
100
AcDbEntity
  8
0
100
AcDbText
 62
2
  6
CONTINUOUS
 10
145.7444318223
 20
54.9933597113
  7
STANDARD
 40
3.5
  1
Please beware: 
 72
5
 11
178.4428754021
 21
54.9933597113
100
AcDbText
  0
TEXT
  5
29E
100
AcDbEntity
  8
0
100
AcDbText
 62
2
  6
CONTINUOUS
 10
145.7444318223
 20
49.7433597113
  7
STANDARD
 40
3.5
  1
Product is visualised in this drawing without ornamentation
 72
5
 11
269.6062995266
 21
49.7433597113
100
AcDbText
  0
TEXT
  5
29F
100
AcDbEntity
  8
0
100
AcDbText
 62
2
  6
CONTINUOUS
 10
205.2733523266
 20
70.4464233523
  7
STANDARD
 40
2.5
  1
SCALE  
 72
5
 11
219.0768542721
 21
70.4464233523
100
AcDbText
  0
TEXT
  5
2A0
100
AcDbEntity
  8
0
100
AcDbText
 62
2
  6
CONTINUOUS
 10
219.0768542721
 20
70.4464233523
  7
STANDARD
 40
2.5
  1
1:2
 72
5
 11
223.9309398752
 21
70.4464233523
100
AcDbText
  0
TEXT
  5
2A1
100
AcDbEntity
  8
0
100
AcDbText
 62
2
  6
CONTINUOUS
 10
69.9372112553
 20
9.844439325
  7
STANDARD
 40
2.5
  1
SCALE  
 72
5
 11
83.7407132009
 21
9.844439325
100
AcDbText
  0
TEXT
  5
2A2
100
AcDbEntity
  8
0
100
AcDbText
 62
2
  6
CONTINUOUS
 10
83.7407132009
 20
9.844439325
  7
STANDARD
 40
2.5
  1
1:1
 72
5
 11
88.594798804
 21
9.844439325
100
AcDbText
  0
LINE
  5
2A3
100
AcDbEntity
  8
0
100
AcDbLine
 62
5
  6
CONTINUOUS
 10
0.0
 20
0.0
 11
0.0
 21
210.0
  0
LINE
  5
2A4
100
AcDbEntity
  8
0
100
AcDbLine
 62
7
  6
CONTINUOUS
 10
5.0
 20
5.0
 11
5.0
 21
195.0
  0
LINE
  5
2A5
100
AcDbEntity
  8
0
100
AcDbLine
 62
5
  6
CONTINUOUS
 10
0.0
 20
0.0
 11
297.0
 21
0.0
  0
LINE
  5
2A6
100
AcDbEntity
  8
0
100
AcDbLine
 62
7
  6
CONTINUOUS
 10
5.0
 20
5.0
 11
292.0
 21
5.0
  0
LINE
  5
2A7
100
AcDbEntity
  8
0
100
AcDbLine
 62
4
  6
CONTINUOUS
 10
148.5
 20
195.0
 11
148.5
 21
205.0
  0
LINE
  5
2A8
100
AcDbEntity
  8
0
100
AcDbLine
 62
7
  6
CONTINUOUS
 10
5.0
 20
195.0
 11
292.0
 21
195.0
  0
LINE
  5
2A9
100
AcDbEntity
  8
0
100
AcDbLine
 62
5
  6
CONTINUOUS
 10
0.0
 20
210.0
 11
297.0
 21
210.0
  0
LINE
  5
2AA
100
AcDbEntity
  8
0
100
AcDbLine
 62
7
  6
CONTINUOUS
 10
292.0
 20
5.0
 11
292.0
 21
195.0
  0
LINE
  5
2AB
100
AcDbEntity
  8
0
100
AcDbLine
 62
5
  6
CONTINUOUS
 10
297.0
 20
0.0
 11
297.0
 21
210.0
  0
LINE
  5
2AC
100
AcDbEntity
  8
0
100
AcDbLine
 62
7
  6
CONTINUOUS
 10
222.9125832413
 20
75.6814233523
 11
226.1612828251
 21
75.7640097556
  0
LINE
  5
2AD
100
AcDbEntity
  8
0
100
AcDbLine
 62
7
  6
CONTINUOUS
 10
196.4972541045
 20
148.0629269724
 11
213.3825688881
 21
163.9940715231
  0
LINE
  5
2AE
100
AcDbEntity
  8
0
100
AcDbLine
 62
7
  6
CONTINUOUS
 10
222.9125832413
 20
75.6814233523
 11
193.361986964
 21
98.3053769592
  0
LINE
  5
2AF
100
AcDbEntity
  8
0
100
AcDbLine
 62
7
  6
CONTINUOUS
 10
226.1612828251
 20
75.7640097556
 11
196.6106865478
 21
98.3879633625
  0
LINE
  5
2B0
100
AcDbEntity
  8
0
100
AcDbLine
 62
7
  6
CONTINUOUS
 10
193.361986964
 20
98.3053769592
 11
193.3681074552
 21
102.5647044061
  0
LINE
  5
2B1
100
AcDbEntity
  8
0
100
AcDbLine
 62
7
  6
CONTINUOUS
 10
193.3705915579
 20
104.293422956
 11
193.3763529006
 21
108.3028144653
  0
LINE
  5
2B2
100
AcDbEntity
  8
0
100
AcDbLine
 62
7
  6
CONTINUOUS
 10
193.3705915579
 20
104.293422956
 11
193.8876774049
 21
103.8975417324
  0
LINE
  5
2B3
100
AcDbEntity
  8
0
100
AcDbLine
 62
7
  6
CONTINUOUS
 10
194.9276137287
 20
144.431672946
 11
194.8787437561
 21
110.4224392062
  0
LINE
  5
2B4
100
AcDbEntity
  8
0
100
AcDbLine
 62
7
  6
CONTINUOUS
 10
198.376139484
 20
109.6736220703
 11
198.4228287781
 21
142.1652939651
  0
LINE
  5
2B5
100
AcDbEntity
  8
0
100
AcDbLine
 62
7
  6
CONTINUOUS
 10
200.8721719302
 20
107.6722145431
 11
200.8750451176
 21
109.6717020443
  0
LINE
  5
2B6
100
AcDbEntity
  8
0
100
AcDbLine
 62
7
  6
CONTINUOUS
 10
200.9217344116
 20
142.1633739391
 11
200.9253258958
 21
144.6627333156
  0
LINE
  5
2B7
100
AcDbEntity
  8
0
100
AcDbLine
 62
7
  6
CONTINUOUS
 10
193.361986964
 20
98.3053769592
 11
196.6106865478
 21
98.3879633625
  0
LINE
  5
2B8
100
AcDbEntity
  8
DTM_AXIS
100
AcDbLine
 62
7
  6
CONTINUOUS
 10
231.452257261
 20
84.6349269155
 11
201.9016609837
 21
107.2588805224
  0
LINE
  5
2B9
100
AcDbEntity
  8
0
100
AcDbLine
 62
7
  6
CONTINUOUS
 10
230.4256413948
 20
87.0477484374
 11
200.8750451176
 21
109.6717020443
  0
LINE
  5
2BA
100
AcDbEntity
  8
0
100
AcDbLine
 62
7
  6
CONTINUOUS
 10
194.4380725097
 20
109.3623882455
 11
193.3763529006
 21
108.3028144653
  0
LINE
  5
2BB
100
AcDbEntity
  8
0
100
AcDbLine
 62
7
  6
CONTINUOUS
 10
200.8750451176
 20
109.6717020443
 11
198.376139484
 21
109.6736220703
  0
LINE
  5
2BC
100
AcDbEntity
  8
0
100
AcDbLine
 62
7
  6
CONTINUOUS
 10
214.9522092639
 20
167.6253255495
 11
214.953673975
 21
168.6446366068
  0
LINE
  5
2BD
100
AcDbEntity
  8
0
100
AcDbLine
 62
7
  6
CONTINUOUS
 10
218.9386362138
 20
159.3951294497
 11
218.9407940616
 21
160.8968030671
  0
LINE
  5
2BE
100
AcDbEntity
  8
0
100
AcDbLine
 62
7
  6
CONTINUOUS
 10
230.4759221731
 20
122.0387797087
 11
234.2245629559
 21
122.2323784815
  0
LINE
  5
2BF
100
AcDbEntity
  8
0
100
AcDbLine
 62
7
  6
CONTINUOUS
 10
227.9734250554
 20
119.5413403582
 11
230.4723306889
 21
119.5394203322
  0
LINE
  5
2C0
100
AcDbEntity
  8
0
100
AcDbLine
 62
7
  6
CONTINUOUS
 10
227.9734250554
 20
119.5413403582
 11
198.4228287781
 21
142.1652939651
  0
LINE
  5
2C1
100
AcDbEntity
  8
0
100
AcDbLine
 62
7
  6
CONTINUOUS
 10
224.9439109995
 20
164.8891120156
 11
224.9492965092
 21
168.6369565027
  0
LINE
  5
2C2
100
AcDbEntity
  8
0
100
AcDbLine
 62
7
  6
CONTINUOUS
 10
227.9294791274
 20
88.9588117135
 11
227.9734250554
 21
119.5413403582
  0
LINE
  5
2C3
100
AcDbEntity
  8
0
100
AcDbLine
 62
7
  6
CONTINUOUS
 10
230.4723306889
 20
119.5394203322
 11
200.9217344116
 21
142.1633739391
  0
LINE
  5
2C4
100
AcDbEntity
  8
0
100
AcDbLine
 62
7
  6
CONTINUOUS
 10
200.9253258958
 20
144.6627333156
 11
230.4759221731
 21
122.0387797087
  0
LINE
  5
2C5
100
AcDbEntity
  8
0
100
AcDbLine
 62
7
  6
CONTINUOUS
 10
230.4233062513
 20
85.4226924038
 11
230.4256413948
 21
87.0477484374
  0
LINE
  5
2C6
100
AcDbEntity
  8
0
100
AcDbLine
 62
7
  6
CONTINUOUS
 10
230.4723306889
 20
119.5394203322
 11
230.4759221731
 21
122.0387797087
  0
LINE
  5
2C7
100
AcDbEntity
  8
0
100
AcDbLine
 62
7
  6
CONTINUOUS
 10
237.9812586357
 20
128.0314821343
 11
239.4807149488
 21
128.1089216434
  0
LINE
  5
2C8
100
AcDbEntity
  8
0
100
AcDbLine
 62
7
  6
CONTINUOUS
 10
234.2245629559
 20
122.2323784815
 11
204.6739666787
 21
144.8563320884
  0
LINE
  5
2C9
100
AcDbEntity
  8
0
100
AcDbLine
 62
7
  6
CONTINUOUS
 10
237.9812586357
 20
128.0314821343
 11
208.4306623584
 21
150.6554357412
  0
LINE
  5
2CA
100
AcDbEntity
  8
0
100
AcDbLine
 62
7
  6
CONTINUOUS
 10
239.4807149488
 20
128.1089216434
 11
209.9301186716
 21
150.7328752503
  0
LINE
  5
2CB
100
AcDbEntity
  8
0
100
AcDbLine
 62
7
  6
CONTINUOUS
 10
198.4228287781
 20
142.1652939651
 11
200.9217344116
 21
142.1633739391
  0
LINE
  5
2CC
100
AcDbEntity
  8
0
100
AcDbLine
 62
7
  6
CONTINUOUS
 10
248.4892324911
 20
136.7711758428
 11
248.4913903389
 21
138.2728494602
  0
LINE
  5
2CD
100
AcDbEntity
  8
0
100
AcDbLine
 62
7
  6
CONTINUOUS
 10
200.9253258958
 20
144.6627333156
 11
204.6739666787
 21
144.8563320884
  0
LINE
  5
2CE
100
AcDbEntity
  8
0
100
AcDbLine
 62
7
  6
CONTINUOUS
 10
208.4306623584
 20
150.6554357412
 11
209.9301186716
 21
150.7328752503
  0
LINE
  5
2CF
100
AcDbEntity
  8
0
100
AcDbLine
 62
7
  6
CONTINUOUS
 10
248.4892324911
 20
136.7711758428
 11
218.9386362138
 21
159.3951294497
  0
LINE
  5
2D0
100
AcDbEntity
  8
0
100
AcDbLine
 62
7
  6
CONTINUOUS
 10
248.4913903389
 20
138.2728494602
 11
218.9407940616
 21
160.8968030671
  0
LINE
  5
2D1
100
AcDbEntity
  8
0
100
AcDbLine
 62
7
  6
CONTINUOUS
 10
254.4945072768
 20
142.2651584087
 11
254.4998927865
 21
146.0130028958
  0
LINE
  5
2D2
100
AcDbEntity
  8
0
100
AcDbLine
 62
7
  6
CONTINUOUS
 10
254.4945072768
 20
142.2651584087
 11
224.9439109995
 21
164.8891120156
  0
LINE
  5
2D3
100
AcDbEntity
  8
0
100
AcDbLine
 62
7
  6
CONTINUOUS
 10
254.4998927865
 20
146.0130028958
 11
224.9492965092
 21
168.6369565027
  0
LINE
  5
2D4
100
AcDbEntity
  8
0
100
AcDbLine
 62
7
  6
CONTINUOUS
 10
214.953673975
 20
168.6446366068
 11
224.9492965092
 21
168.6369565027
  0
LINE
  5
2D5
100
AcDbEntity
  8
0
100
AcDbLine
 62
7
  6
CONTINUOUS
 10
43.2579924419
 20
28.3214055366
 11
49.7579924419
 21
28.4916140268
  0
LINE
  5
2D6
100
AcDbEntity
  8
0
100
AcDbLine
 62
7
  6
CONTINUOUS
 10
58.2579924419
 20
51.0714055366
 11
53.2579924419
 21
51.0714055366
  0
LINE
  5
2D7
100
AcDbEntity
  8
0
100
AcDbLine
 62
7
  6
CONTINUOUS
 10
49.3882040312
 20
127.866722056
 11
83.1277808527
 21
159.7630969303
  0
LINE
  5
2D8
100
AcDbEntity
  8
0
100
AcDbLine
 62
7
  6
CONTINUOUS
 10
43.2579924419
 20
28.3214055366
 11
43.2579924419
 21
36.84224389
  0
LINE
  5
2D9
100
AcDbEntity
  8
0
100
AcDbLine
 62
7
  6
CONTINUOUS
 10
43.2579924419
 20
40.3005671831
 11
43.2579924419
 21
48.3214055366
  0
LINE
  5
2DA
100
AcDbEntity
  8
0
100
AcDbLine
 62
7
  6
CONTINUOUS
 10
46.2579924419
 20
120.5999478616
 11
46.2579924419
 21
52.5640462237
  0
LINE
  5
2DB
100
AcDbEntity
  8
0
100
AcDbLine
 62
7
  6
CONTINUOUS
 10
53.2579924419
 20
51.0714055366
 11
53.2579924419
 21
116.0714055366
  0
LINE
  5
2DC
100
AcDbEntity
  8
0
100
AcDbLine
 62
7
  6
CONTINUOUS
 10
58.2579924419
 20
47.0714055366
 11
58.2579924419
 21
51.0714055366
  0
LINE
  5
2DD
100
AcDbEntity
  8
0
100
AcDbLine
 62
7
  6
CONTINUOUS
 10
58.2579924419
 20
116.0714055366
 11
58.2579924419
 21
121.0714055366
  0
LINE
  5
2DE
100
AcDbEntity
  8
0
100
AcDbLine
 62
7
  6
CONTINUOUS
 10
86.2579924419
 20
167.0298711247
 11
86.2579924419
 21
169.0690157689
  0
LINE
  5
2DF
100
AcDbEntity
  8
0
100
AcDbLine
 62
7
  6
CONTINUOUS
 10
45.3793127855
 20
50.4427258801
 11
43.2579924419
 21
48.3214055366
  0
LINE
  5
2E0
100
AcDbEntity
  8
0
100
AcDbLine
 62
7
  6
CONTINUOUS
 10
94.2579924419
 20
150.5714055366
 11
94.2579924419
 21
153.5755225746
  0
LINE
  5
2E1
100
AcDbEntity
  8
0
100
AcDbLine
 62
7
  6
CONTINUOUS
 10
53.2579924419
 20
116.0714055366
 11
58.2579924419
 21
116.0714055366
  0
LINE
  5
2E2
100
AcDbEntity
  8
0
100
AcDbLine
 62
7
  6
CONTINUOUS
 10
58.2579924419
 20
121.0714055366
 11
65.7579924419
 21
121.4644638812
  0
LINE
  5
2E3
100
AcDbEntity
  8
0
100
AcDbLine
 62
7
  6
CONTINUOUS
 10
106.2579924419
 20
161.5714055366
 11
106.2579924419
 21
169.0690157689
  0
LINE
  5
2E4
100
AcDbEntity
  8
0
100
AcDbLine
 62
7
  6
CONTINUOUS
 10
73.2579924419
 20
133.0714055366
 11
76.2579924419
 21
133.2286288744
  0
LINE
  5
2E5
100
AcDbEntity
  8
0
100
AcDbLine
 62
7
  6
CONTINUOUS
 10
86.2579924419
 20
169.0690157689
 11
106.2579924419
 21
169.0690157689
  0
ARC
  5
2E6
100
AcDbEntity
  8
0
100
AcDbCircle
 62
7
  6
CONTINUOUS
 10
199.9302012391
 20
144.4241118028
 40
5.0026026133
100
AcDbArc
 50
133.3325176
 51
179.9134005627
  0
ARC
  5
2E7
100
AcDbEntity
  8
0
100
AcDbCircle
 62
7
  6
CONTINUOUS
 10
209.9496217535
 20
167.6328866927
 40
5.0026026133
100
AcDbArc
 50
313.3325176
 51
359.9134005627
  0
ARC
  5
2E8
100
AcDbEntity
  8
0
100
AcDbCircle
 62
7
  6
CONTINUOUS
 10
193.3779747325
 20
110.4246996285
 40
1.5007707259
100
AcDbArc
 50
314.940242331
 51
359.9137025362
  0
ARC
  5
2E9
100
AcDbEntity
  8
0
100
AcDbCircle
 62
7
  6
CONTINUOUS
 10
193.1189926682
 20
103.4296547439
 40
0.9000485375
100
AcDbArc
 50
286.0669565341
 51
52.5211202665
  0
ARC
  5
2EA
100
AcDbEntity
  8
0
100
AcDbCircle
 62
7
  6
CONTINUOUS
 10
56.2579924419
 20
120.5999478616
 40
10.0
100
AcDbArc
 50
133.3914311949
 51
180.0
  0
ARC
  5
2EB
100
AcDbEntity
  8
0
100
AcDbCircle
 62
7
  6
CONTINUOUS
 10
76.2579924419
 20
167.0298711247
 40
10.0
100
AcDbArc
 50
313.3914311949
 51
360.0
  0
ARC
  5
2EC
100
AcDbEntity
  8
0
100
AcDbCircle
 62
7
  6
CONTINUOUS
 10
43.2579924419
 20
52.5640462237
 40
3.0
100
AcDbArc
 50
315.0
 51
360.0
  0
ARC
  5
2ED
100
AcDbEntity
  8
0
100
AcDbCircle
 62
7
  6
CONTINUOUS
 10
42.7579924419
 20
38.5714055366
 40
1.8
100
AcDbArc
 50
286.1276202132
 51
73.8723797868
  0
SPLINE
  5
2EE
100
AcDbEntity
  8
0
100
AcDbSpline
 62
7
  6
CONTINUOUS
 70
0
 71
3
 72
9
 73
5
 74
0
 42
0.0000001
 43
0.0000001
 44
0.0000000001
 40
0.0
 40
0.0
 40
0.0
 40
0.0
 40
0.498316096
 40
1.0
 40
1.0
 40
1.0
 40
1.0
 10
201.9016609765
 20
107.258880528
 30
0.0
 10
201.753880569
 20
107.3720212924
 30
0.0
 10
201.4273591237
 20
107.5631162683
 30
0.0
 10
201.0587734519
 20
107.6551982431
 30
0.0
 10
200.8721719302
 20
107.6722145431
 30
0.0
  0
SPLINE
  5
2EF
100
AcDbEntity
  8
0
100
AcDbSpline
 62
7
  6
CONTINUOUS
 70
0
 71
3
 72
25
 73
21
 74
0
 42
0.0000001
 43
0.0000001
 44
0.0000000001
 40
0.0
 40
0.0
 40
0.0
 40
0.0
 40
0.062092411
 40
0.1245869631
 40
0.1556240391
 40
0.186467595
 40
0.2482173974
 40
0.3108660218
 40
0.3424894555
 40
0.3741572684
 40
0.4374612064
 40
0.5001510345
 40
0.5614558816
 40
0.6218732366
 40
0.6839281695
 40
0.7474058454
 40
0.8106990489
 40
0.8739337837
 40
0.9372833001
 40
1.0
 40
1.0
 40
1.0
 40
1.0
 10
226.1612828251
 20
75.7640097556
 30
0.0
 10
226.1780967009
 20
76.0168946386
 30
0.0
 10
226.2524879521
 20
76.5224976461
 30
0.0
 10
226.4530556062
 20
77.12953684
 30
0.0
 10
226.685921316
 20
77.5817876108
 30
0.0
 10
226.9691159892
 20
78.0008168739
 30
0.0
 10
227.41218305
 20
78.4608297247
 30
0.0
 10
227.9329566651
 20
78.8322580168
 30
0.0
 10
228.3818087036
 20
79.0834551671
 30
0.0
 10
228.8490502479
 20
79.3049578974
 30
0.0
 10
229.449509464
 20
79.5375061779
 30
0.0
 10
230.1656225149
 20
79.8049295341
 30
0.0
 10
230.8509746372
 20
80.1197491415
 30
0.0
 10
231.4751216782
 20
80.547395817
 30
0.0
 10
231.9729563371
 20
81.1322987155
 30
0.0
 10
232.3152876189
 20
81.8315465897
 30
0.0
 10
232.4611033862
 20
82.6057394254
 30
0.0
 10
232.3477800389
 20
83.3862693908
 30
0.0
 10
232.0117748788
 20
84.0935231677
 30
0.0
 10
231.6555182406
 20
84.4793101932
 30
0.0
 10
231.4522572537
 20
84.634926921
 30
0.0
  0
SPLINE
  5
2F0
100
AcDbEntity
  8
0
100
AcDbSpline
 62
7
  6
CONTINUOUS
 70
0
 71
3
 72
26
 73
22
 74
0
 42
0.0000001
 43
0.0000001
 44
0.0000000001
 40
0.0
 40
0.0
 40
0.0
 40
0.0
 40
0.0663440117
 40
0.1284805732
 40
0.188855468
 40
0.2493277316
 40
0.3107887118
 40
0.37286744
 40
0.4352178841
 40
0.4664993778
 40
0.4978840367
 40
0.5609422664
 40
0.6233853327
 40
0.6538666431
 40
0.6836964413
 40
0.7129521817
 40
0.7419307254
 40
0.8003780381
 40
0.8616913692
 40
0.92779628
 40
1.0
 40
1.0
 40
1.0
 40
1.0
 10
234.2245629559
 20
122.2323784815
 30
0.0
 10
234.216243896
 20
122.3956277388
 30
0.0
 10
234.2241570371
 20
122.7137563402
 30
0.0
 10
234.3132089118
 20
123.1725052253
 30
0.0
 10
234.4679565775
 20
123.5976974141
 30
0.0
 10
234.6762522346
 20
123.9967255565
 30
0.0
 10
234.9262689731
 20
124.375896764
 30
0.0
 10
235.220192493
 20
124.728505699
 30
0.0
 10
235.5015236494
 20
124.9911493257
 30
0.0
 10
235.7475714946
 20
125.1768568423
 30
0.0
 10
236.0087132055
 20
125.3440744211
 30
0.0
 10
236.353627542
 20
125.5196467482
 30
0.0
 10
236.7005625281
 20
125.6849007835
 30
0.0
 10
236.966003444
 20
125.830185843
 30
0.0
 10
237.1523438582
 20
125.9488319566
 30
0.0
 10
237.323423703
 20
126.0831018549
 30
0.0
 10
237.5260717808
 20
126.2879626917
 30
0.0
 10
237.733613719
 20
126.5945490847
 30
0.0
 10
237.899652329
 20
127.0248715585
 30
0.0
 10
237.9857460229
 20
127.5116456742
 30
0.0
 10
237.9903124607
 20
127.8538141975
 30
0.0
 10
237.9812586357
 20
128.0314821343
 30
0.0
  0
SPLINE
  5
2F1
100
AcDbEntity
  8
0
100
AcDbSpline
 62
7
  6
CONTINUOUS
 70
0
 71
3
 72
18
 73
14
 74
0
 42
0.0000001
 43
0.0000001
 44
0.0000000001
 40
0.0
 40
0.0
 40
0.0
 40
0.0
 40
0.125024166
 40
0.2499869684
 40
0.3125262196
 40
0.3750573995
 40
0.4375814607
 40
0.5001008734
 40
0.5626196547
 40
0.6251412566
 40
0.7500181125
 40
0.8749855691
 40
1.0
 40
1.0
 40
1.0
 40
1.0
 10
239.4807149488
 20
128.1089216434
 30
0.0
 10
239.4815729402
 20
128.7060087432
 30
0.0
 10
239.5465152958
 20
129.9012155035
 30
0.0
 10
239.8465021956
 20
131.3720370026
 30
0.0
 10
240.2616253746
 20
132.494118238
 30
0.0
 10
240.6707956755
 20
133.2938381954
 30
0.0
 10
241.1826956292
 20
134.0324938902
 30
0.0
 10
241.7944225533
 20
134.6911031539
 30
0.0
 10
242.4941095803
 20
135.2552102698
 30
0.0
 10
243.519063098
 20
135.8729393635
 30
0.0
 10
244.9282563121
 20
136.4005930255
 30
0.0
 10
246.6968021193
 20
136.7157269826
 30
0.0
 10
247.892191444
 20
136.7716345773
 30
0.0
 10
248.4892324911
 20
136.7711758428
 30
0.0
  0
SPLINE
  5
2F2
100
AcDbEntity
  8
0
100
AcDbSpline
 62
7
  6
CONTINUOUS
 70
0
 71
3
 72
22
 73
18
 74
0
 42
0.0000001
 43
0.0000001
 44
0.0000000001
 40
0.0
 40
0.0
 40
0.0
 40
0.0
 40
0.0690675999
 40
0.132928084
 40
0.1934789083
 40
0.2526780835
 40
0.3124702592
 40
0.3740793328
 40
0.4372976807
 40
0.5012925602
 40
0.5651500854
 40
0.6279040757
 40
0.7473884083
 40
0.8052141323
 40
0.8647795341
 40
0.9288697167
 40
1.0
 40
1.0
 40
1.0
 40
1.0
 10
248.4913903389
 20
138.2728494602
 30
0.0
 10
248.6671528275
 20
138.2727144137
 30
0.0
 10
249.0063870692
 20
138.298458589
 30
0.0
 10
249.485240725
 20
138.4249775494
 30
0.0
 10
249.9073149859
 20
138.6329003211
 30
0.0
 10
250.2692664778
 20
138.9173460927
 30
0.0
 10
250.5677682489
 20
139.2695828443
 30
0.0
 10
250.8271952333
 20
139.6617192597
 30
0.0
 10
251.0733963498
 20
140.0743466191
 30
0.0
 10
251.332125027
 20
140.4862059754
 30
0.0
 10
251.6184791444
 20
140.8785117119
 30
0.0
 10
252.0267797313
 20
141.3533739348
 30
0.0
 10
252.4962905456
 20
141.7574459614
 30
0.0
 10
253.0362106137
 20
142.0313513505
 30
0.0
 10
253.4782573138
 20
142.171497853
 30
0.0
 10
253.9689740362
 20
142.2509661116
 30
0.0
 10
254.3134956936
 20
142.2652974883
 30
0.0
 10
254.4945072768
 20
142.2651584087
 30
0.0
  0
SPLINE
  5
2F3
100
AcDbEntity
  8
0
100
AcDbSpline
 62
7
  6
CONTINUOUS
 70
0
 71
3
 72
26
 73
22
 74
0
 42
0.0000001
 43
0.0000001
 44
0.0000000001
 40
0.0
 40
0.0
 40
0.0
 40
0.0
 40
0.0663440117
 40
0.1284805732
 40
0.188855468
 40
0.2493277316
 40
0.3107887118
 40
0.37286744
 40
0.4352178841
 40
0.4664993778
 40
0.4978840367
 40
0.5609422664
 40
0.6233853327
 40
0.6538666431
 40
0.6836964413
 40
0.7129521817
 40
0.7419307254
 40
0.8003780381
 40
0.8616913692
 40
0.92779628
 40
1.0
 40
1.0
 40
1.0
 40
1.0
 10
204.6739666787
 20
144.8563320884
 30
0.0
 10
204.6656476187
 20
145.0195813457
 30
0.0
 10
204.6735607599
 20
145.3377099472
 30
0.0
 10
204.7626126345
 20
145.7964588323
 30
0.0
 10
204.9173603003
 20
146.221651021
 30
0.0
 10
205.1256559573
 20
146.6206791634
 30
0.0
 10
205.3756726958
 20
146.999850371
 30
0.0
 10
205.6695962158
 20
147.352459306
 30
0.0
 10
205.9509273722
 20
147.6151029327
 30
0.0
 10
206.1969752173
 20
147.8008104492
 30
0.0
 10
206.4581169283
 20
147.968028028
 30
0.0
 10
206.8030312647
 20
148.1436003552
 30
0.0
 10
207.1499662508
 20
148.3088543905
 30
0.0
 10
207.4154071667
 20
148.45413945
 30
0.0
 10
207.6017475809
 20
148.5727855636
 30
0.0
 10
207.7728274257
 20
148.7070554619
 30
0.0
 10
207.9754755035
 20
148.9119162986
 30
0.0
 10
208.1830174417
 20
149.2185026917
 30
0.0
 10
208.3490560517
 20
149.6488251654
 30
0.0
 10
208.4351497456
 20
150.1355992811
 30
0.0
 10
208.4397161835
 20
150.4777678045
 30
0.0
 10
208.4306623584
 20
150.6554357412
 30
0.0
  0
SPLINE
  5
2F4
100
AcDbEntity
  8
0
100
AcDbSpline
 62
7
  6
CONTINUOUS
 70
0
 71
3
 72
18
 73
14
 74
0
 42
0.0000001
 43
0.0000001
 44
0.0000000001
 40
0.0
 40
0.0
 40
0.0
 40
0.0
 40
0.125024166
 40
0.2499869684
 40
0.3125262196
 40
0.3750573995
 40
0.4375814607
 40
0.5001008734
 40
0.5626196547
 40
0.6251412566
 40
0.7500181125
 40
0.8749855691
 40
1.0
 40
1.0
 40
1.0
 40
1.0
 10
209.9301186716
 20
150.7328752503
 30
0.0
 10
209.930976663
 20
151.3299623501
 30
0.0
 10
209.9959190186
 20
152.5251691104
 30
0.0
 10
210.2959059184
 20
153.9959906096
 30
0.0
 10
210.7110290973
 20
155.118071845
 30
0.0
 10
211.1201993982
 20
155.9177918024
 30
0.0
 10
211.6320993519
 20
156.6564474972
 30
0.0
 10
212.2438262761
 20
157.3150567608
 30
0.0
 10
212.943513303
 20
157.8791638767
 30
0.0
 10
213.9684668207
 20
158.4968929704
 30
0.0
 10
215.3776600349
 20
159.0245466324
 30
0.0
 10
217.146205842
 20
159.3396805895
 30
0.0
 10
218.3415951667
 20
159.3955881843
 30
0.0
 10
218.9386362138
 20
159.3951294497
 30
0.0
  0
SPLINE
  5
2F5
100
AcDbEntity
  8
0
100
AcDbSpline
 62
7
  6
CONTINUOUS
 70
0
 71
3
 72
25
 73
21
 74
0
 42
0.0000001
 43
0.0000001
 44
0.0000000001
 40
0.0
 40
0.0
 40
0.0
 40
0.0
 40
0.062092411
 40
0.1245869631
 40
0.1556240391
 40
0.186467595
 40
0.2482173974
 40
0.3108660218
 40
0.3424894555
 40
0.3741572684
 40
0.4374612064
 40
0.5001510345
 40
0.5614558816
 40
0.6218732366
 40
0.6839281695
 40
0.7474058454
 40
0.8106990489
 40
0.8739337837
 40
0.9372833001
 40
1.0
 40
1.0
 40
1.0
 40
1.0
 10
196.6106865478
 20
98.3879633625
 30
0.0
 10
196.6275004236
 20
98.6408482456
 30
0.0
 10
196.7018916748
 20
99.146451253
 30
0.0
 10
196.9024593289
 20
99.7534904469
 30
0.0
 10
197.1353250387
 20
100.2057412177
 30
0.0
 10
197.4185197119
 20
100.6247704808
 30
0.0
 10
197.8615867728
 20
101.0847833316
 30
0.0
 10
198.3823603878
 20
101.4562116237
 30
0.0
 10
198.8312124263
 20
101.707408774
 30
0.0
 10
199.2984539707
 20
101.9289115044
 30
0.0
 10
199.8989131868
 20
102.1614597848
 30
0.0
 10
200.6150262376
 20
102.428883141
 30
0.0
 10
201.3003783599
 20
102.7437027484
 30
0.0
 10
201.9245254009
 20
103.171349424
 30
0.0
 10
202.4223600598
 20
103.7562523225
 30
0.0
 10
202.7646913417
 20
104.4555001966
 30
0.0
 10
202.9105071089
 20
105.2296930324
 30
0.0
 10
202.7971837616
 20
106.0102229978
 30
0.0
 10
202.4611786015
 20
106.7174767747
 30
0.0
 10
202.1049219633
 20
107.1032638002
 30
0.0
 10
201.9016609765
 20
107.258880528
 30
0.0
  0
SPLINE
  5
2F6
100
AcDbEntity
  8
0
100
AcDbSpline
 62
7
  6
CONTINUOUS
 70
0
 71
3
 72
22
 73
18
 74
0
 42
0.0000001
 43
0.0000001
 44
0.0000000001
 40
0.0
 40
0.0
 40
0.0
 40
0.0
 40
0.0690675999
 40
0.132928084
 40
0.1934789083
 40
0.2526780835
 40
0.3124702592
 40
0.3740793328
 40
0.4372976807
 40
0.5012925602
 40
0.5651500854
 40
0.6279040757
 40
0.7473884083
 40
0.8052141323
 40
0.8647795341
 40
0.9288697167
 40
1.0
 40
1.0
 40
1.0
 40
1.0
 10
218.9407940616
 20
160.8968030671
 30
0.0
 10
219.1165565503
 20
160.8966680206
 30
0.0
 10
219.4557907919
 20
160.9224121959
 30
0.0
 10
219.9346444477
 20
161.0489311563
 30
0.0
 10
220.3567187086
 20
161.256853928
 30
0.0
 10
220.7186702006
 20
161.5412996997
 30
0.0
 10
221.0171719716
 20
161.8935364512
 30
0.0
 10
221.2765989561
 20
162.2856728667
 30
0.0
 10
221.5228000725
 20
162.698300226
 30
0.0
 10
221.7815287498
 20
163.1101595823
 30
0.0
 10
222.0678828672
 20
163.5024653188
 30
0.0
 10
222.476183454
 20
163.9773275418
 30
0.0
 10
222.9456942684
 20
164.3813995683
 30
0.0
 10
223.4856143365
 20
164.6553049574
 30
0.0
 10
223.9276610365
 20
164.7954514599
 30
0.0
 10
224.4183777589
 20
164.8749197185
 30
0.0
 10
224.7628994163
 20
164.8892510953
 30
0.0
 10
224.9439109995
 20
164.8891120156
 30
0.0
  0
SPLINE
  5
2F7
100
AcDbEntity
  8
0
100
AcDbSpline
 62
7
  6
CONTINUOUS
 70
0
 71
3
 72
8
 73
4
 74
0
 42
0.0000001
 43
0.0000001
 44
0.0000000001
 40
0.0
 40
0.0
 40
0.0
 40
0.0
 40
1.0
 40
1.0
 40
1.0
 40
1.0
 10
193.6665940952
 20
104.1438477668
 30
0.0
 10
193.5788171721
 20
104.2110515574
 30
0.0
 10
193.4767634746
 20
104.2626226022
 30
0.0
 10
193.3705915579
 20
104.293422956
 30
0.0
  0
SPLINE
  5
2F8
100
AcDbEntity
  8
0
100
AcDbSpline
 62
7
  6
CONTINUOUS
 70
0
 71
3
 72
11
 73
7
 74
0
 42
0.0000001
 43
0.0000001
 44
0.0000000001
 40
0.0
 40
0.0
 40
0.0
 40
0.0
 40
0.2470450793
 40
0.4775069179
 40
0.7268135588
 40
1.0
 40
1.0
 40
1.0
 40
1.0
 10
94.2579924419
 20
153.5755225746
 30
0.0
 10
95.7139895604
 20
153.5755225746
 30
0.0
 10
97.9940712994
 20
154.4694538341
 30
0.0
 10
99.675937265
 20
157.8612643954
 30
0.0
 10
102.2263451727
 20
160.9327239775
 30
0.0
 10
104.5793131757
 20
161.5714055366
 30
0.0
 10
106.2579924419
 20
161.5714055366
 30
0.0
  0
SPLINE
  5
2F9
100
AcDbEntity
  8
0
100
AcDbSpline
 62
7
  6
CONTINUOUS
 70
0
 71
3
 72
13
 73
9
 74
0
 42
0.0000001
 43
0.0000001
 44
0.0000000001
 40
0.0
 40
0.0
 40
0.0
 40
0.0
 40
0.151222262
 40
0.3217631283
 40
0.5827336041
 40
0.7491708776
 40
0.9036504849
 40
1.0
 40
1.0
 40
1.0
 40
1.0
 10
49.7579924419
 20
28.4916140268
 30
0.0
 10
49.8438455222
 20
29.8112168981
 30
0.0
 10
50.6286587116
 20
32.7262977816
 30
0.0
 10
54.8899728281
 20
35.9839992373
 30
0.0
 10
60.4314787368
 20
36.959502424
 30
0.0
 10
62.9330129905
 20
42.2117882651
 30
0.0
 10
61.2153105977
 20
45.9862968595
 30
0.0
 10
59.1319924758
 20
46.9924012061
 30
0.0
 10
58.2579924419
 20
47.0714055366
 30
0.0
  0
SPLINE
  5
2FA
100
AcDbEntity
  8
0
100
AcDbSpline
 62
7
  6
CONTINUOUS
 70
0
 71
3
 72
9
 73
5
 74
0
 42
0.0000001
 43
0.0000001
 44
0.0000000001
 40
0.0
 40
0.0
 40
0.0
 40
0.0
 40
0.5
 40
1.0
 40
1.0
 40
1.0
 40
1.0
 10
76.2579924419
 20
133.2286288744
 30
0.0
 10
76.2579924419
 20
139.1190916514
 30
0.0
 10
79.3713484943
 20
147.7866611531
 30
0.0
 10
88.3675296649
 20
150.5714055366
 30
0.0
 10
94.2579924419
 20
150.5714055366
 30
0.0
  0
SPLINE
  5
2FB
100
AcDbEntity
  8
0
100
AcDbSpline
 62
7
  6
CONTINUOUS
 70
0
 71
3
 72
11
 73
7
 74
0
 42
0.0000001
 43
0.0000001
 44
0.0000000001
 40
0.0
 40
0.0
 40
0.0
 40
0.0
 40
0.2447491706
 40
0.4855978246
 40
0.7128686584
 40
1.0
 40
1.0
 40
1.0
 40
1.0
 10
65.7579924419
 20
121.4644638812
 30
0.0
 10
65.6878427839
 20
122.802999095
 30
0.0
 10
66.3947556964
 20
124.976282489
 30
0.0
 10
68.7558837856
 20
127.7248116982
 30
0.0
 10
72.5177126987
 20
128.8930663623
 30
0.0
 10
73.3476079169
 20
131.3614404088
 30
0.0
 10
73.2579924419
 20
133.0714055366
 30
0.0
  0
ENDSEC
  0
SECTION
  2
OBJECTS
  0
DICTIONARY
  5
C
100
AcDbDictionary
280
0
281
1
  3
ACAD_GROUP
350
D
  3
ACAD_MLINESTYLE
350
17
  3
ACAD_LAYOUT
350
1A
  3
ACAD_PLOTSETTINGS
350
19
  3
ACAD_PLOTSTYLENAME
350
E
  3
ACAD_TABLESTYLE
350
       2FC
  0
DICTIONARY
  5
D
102
{ACAD_REACTORS
330
C
102
}
100
AcDbDictionary
280
0
281
1
  0
ACDBDICTIONARYWDFLT
  5
E
102
{ACAD_REACTORS
330
C
102
}
100
AcDbDictionary
281
1
  3
Normal
350
F
100
AcDbDictionaryWithDefault
340
F
  0
DICTIONARY
  5
17
102
{ACAD_REACTORS
330
C
102
}
100
AcDbDictionary
280
0
281
1
  3
Standard
350
18
  0
DICTIONARY
  5
2FC
330
C
100
AcDbDictionary
281
1
  3
Standard
350
       2FF
  3
Standard1
350
       300
  0
DICTIONARY
  5
19
102
{ACAD_REACTORS
330
C
102
}
100
AcDbDictionary
281
1
  0
DICTIONARY
  5
1A
102
{ACAD_REACTORS
330
C
102
}
100
AcDbDictionary
281
1
  3
Model
350
2FD
  3
Layout1
350
2FE
  0
ACDBPLACEHOLDER
  5
F
102
{ACAD_REACTORS
330
E
102
}
  0
MLINESTYLE
  5
18
102
{ACAD_REACTORS
330
17
102
}
100
AcDbMlineStyle
  2
STANDARD
 70
0
  3

 62
256
 51
90.0
 52
90.0
 71
2
 49
0.5
 62
256
  6
BYLAYER
 49
-0.5
 62
256
  6
BYLAYER
  0
LAYOUT
  5
2FD
102
{ACAD_REACTORS
330
1A
102
}
100
AcDbPlotSettings
  1

  2
none_device
  4
ISO_A4_(297.00_x_210.00_MM)
  6

 40
0.0
 41
0.0
 42
0.0
 43
0.0
 44
297.0
 45
210.0
 46
0.0
 47
0.0
 48
0.0
 49
0.0
140
0.0
141
0.0
142
1.0
143
1.0
 70
1024
 72
1
 73
0
 74
0
  7

 75
0
147
1.0
148
0.0
149
0.0
100
AcDbLayout
  1
Model
 70
0
 71
0
 10
0.0
 20
0.0
 11
297.0
 21
210.0
 12
0.0
 22
0.0
 32
0.0
 14
0.0
 24
0.0
 34
0.0
 15
0.0
 25
0.0
 35
0.0
146
0.0
 13
0.0
 23
0.0
 33
0.0
 16
1.0
 26
0.0
 36
0.0
 17
0.0
 27
1.0
 37
0.0
 76
0
330
20A
345
0
346
0
  0
LAYOUT
  5
2FE
102
{ACAD_REACTORS
330
1A
102
}
100
AcDbPlotSettings
  1

  2
none_device
  4
ISO_A4_(297.00_x_210.00_MM)
  6

 40
0.0
 41
0.0
 42
0.0
 43
0.0
 44
297.0
 45
210.0
 46
0.0
 47
0.0
 48
0.0
 49
0.0
140
0.0
141
0.0
142
1.0
143
1.0
 70
0
 72
1
 73
0
 74
0
  7

 75
0
147
1.0
148
0.0
149
0.0
100
AcDbLayout
  1
Layout1
 70
0
 71
1
 10
0.0
 20
0.0
 11
297.0
 21
210.0
 12
0.0
 22
0.0
 32
0.0
 14
0.0
 24
0.0
 34
0.0
 15
0.0
 25
0.0
 35
0.0
146
0.0
 13
0.0
 23
0.0
 33
0.0
 16
1.0
 26
0.0
 36
0.0
 17
0.0
 27
1.0
 37
0.0
 76
0
330
20B
345
0
346
0
  0
TABLESTYLE
  5
2FF
102
{ACAD_REACTORS
330
2FC
330
29C
102
}
330
2FC
100
AcDbTableStyle
  3
Standard
 70
0
 71
0
 40
0.06
 41
0.06
280
1
281
1
  7
Standard
140
0.18
170
1
 62
0
 63
7
283
0
  7
Standard
140
0.18
170
1
 62
0
 63
7
283
0
  7
Standard
140
0.18
170
1
 62
0
 63
7
283
0
  0
TABLESTYLE
  5
300
102
{ACAD_REACTORS
330
2FC
102
}
330
2FC
100
AcDbTableStyle
  3
Standard1
 70
1
 71
0
 40
0.06
 41
0.06
280
1
281
1
  7
Standard
140
0.18
170
1
 62
0
 63
7
283
0
  7
Standard
140
0.18
170
1
 62
0
 63
7
283
0
  7
Standard
140
0.18
170
1
 62
0
 63
7
283
0
  0
ENDSEC
  0
EOF
