999
DXF file: O:\ORAC_PRODUCTEN\ORAC_LIJN6\C-Type\C217\c217-prod-mm.dxf
999
Pro/ENGINEER 2018500 by Parametric Technology Corporation
  0
SECTION
  2
HEADER
  9
$ACADVER
  1
AC1024
  9
$DWGCODEPAGE
  3
ANSI_1250
  9
$EXTMAX
 10
297.0
 20
210.0
 30
0.0
  9
$EXTMIN
 10
0.0
 20
0.0
 30
0.0
  9
$LIMMIN
 10
0.0
 20
0.0
  9
$LIMMAX
 10
297.0
 20
210.0
  9
$VIEWCTR
 10
148.5
 20
105.0
  9
$VIEWSIZE
 40
210.0
  9
$CLAYER
  8
0
  9
$LTSCALE
 40
16.335
  9
$CELTYPE
  6
BYLAYER
  9
$DIMSCALE
 40
1.0
  9
$DIMASZ
 40
3.5
  9
$DIMEXO
 40
1.0
  9
$DIMDLI
 40
11.286
  9
$DIMEXE
 40
1.5
  9
$DIMCEN
 40
2.673
  9
$DIMLFAC
 40
1.0
  9
$DIMBLK
  1
_FILLED
  9
$DIMALT
 70
0
  9
$DIMALTF
 40
0.0393700787
  9
$DIMTXT
 40
2.5
  9
$DIMTOL
 70
1
  9
$DIMLIM
 70
0
  9
$DIMTFAC
 40
1.0
  9
$DIMTP
 40
0.001
  9
$DIMTM
 40
0.001
  9
$DIMGAP
 40
0.625
  9
$DIMDSEP
 70
44
  9
$AUNITS
 70
0
  9
$PDMODE
 70
3
  9
$PDSIZE
 40
8.0
  9
$HANDSEED
  5
2F2
  9
$TILEMODE
 70
1
  9
$MEASUREMENT
 70
1
  9
$INSUNITS
 70
4
  0
ENDSEC
  0
SECTION
  2
CLASSES
  0
CLASS
  1
ACDBDICTIONARYWDFLT
  2
AcDbDictionaryWithDefault
  3
AutoCAD 2000
 90
0
 91
1
280
0
281
0
  0
CLASS
  1
ACDBPLACEHOLDER
  2
AcDbPlaceHolder
  3
AutoCAD 2000
 90
0
 91
1
280
0
281
0
  0
CLASS
  1
LAYOUT
  2
AcDbLayout
  3
AutoCAD 2000
 90
0
 91
0
280
0
281
0
  0
CLASS
  1
TABLESTYLE
  2
AcDbTableStyle
  3
ObjectDBX Classes
 90
2047
 91
1
280
0
281
0
  0
CLASS
  1
ACAD_TABLE
  2
AcDbTable
  3
ObjectDBX Classes
 90
1025
 91
1
280
0
281
1
  0
ENDSEC
  0
SECTION
  2
TABLES
  0
TABLE
  2
VPORT
  5
8
100
AcDbSymbolTable
 70
2
  0
VPORT
  5
1F4
100
AcDbSymbolTableRecord
100
AcDbViewportTableRecord
  2
*ACTIVE
 70
0
 10
0.0
 20
0.0
 11
1.0
 21
1.0
 12
148.5
 22
105.0
 13
0.0
 23
0.0
 14
1.0
 24
1.0
 15
0.0
 25
0.0
 16
0.0
 26
0.0
 36
1.0
 17
0.0
 27
0.0
 37
0.0
 40
210.0
 41
1.4142857143
 42
50.0
 43
0.0
 44
0.0
 50
0.0
 51
0.0
 71
0
 72
100
 73
1
 74
1
 75
0
 76
0
 77
0
 78
0
  0
ENDTAB
  0
TABLE
  2
LTYPE
  5
5
100
AcDbSymbolTable
 70
6
  0
LTYPE
  5
14
100
AcDbSymbolTableRecord
100
AcDbLinetypeTableRecord
  2
BYBLOCK
 70
0
  3

 72
65
 73
0
 40
0.0
  0
LTYPE
  5
15
100
AcDbSymbolTableRecord
100
AcDbLinetypeTableRecord
  2
BYLAYER
 70
0
  3

 72
65
 73
0
 40
0.0
  0
LTYPE
  5
16
100
AcDbSymbolTableRecord
100
AcDbLinetypeTableRecord
  2
CONTINUOUS
 70
64
  3
Solid line
 72
65
 73
0
 40
0.0
  0
LTYPE
  5
1F5
100
AcDbSymbolTableRecord
100
AcDbLinetypeTableRecord
  2
CENTER
 70
64
  3
____ _ ____ _ ____ _ ____ _ ____ _ ____ _ ____
 72
65
 73
4
 40
0.6
 49
0.375
 74
0
 49
-0.075
 74
0
 49
0.075
 74
0
 49
-0.075
 74
0
  0
LTYPE
  5
1F6
100
AcDbSymbolTableRecord
100
AcDbLinetypeTableRecord
  2
HIDDEN
 70
64
  3
- - - - - - - - - - - - - - - - - - - -
 72
65
 73
2
 40
0.2
 49
0.1
 74
0
 49
-0.1
 74
0
  0
LTYPE
  5
1F7
100
AcDbSymbolTableRecord
100
AcDbLinetypeTableRecord
  2
PHANTOM
 70
64
  3
_____ _ _ _____ _ _ _____ _ _ _____
 72
65
 73
6
 40
0.8
 49
0.45
 74
0
 49
-0.05
 74
0
 49
0.1
 74
0
 49
-0.05
 74
0
 49
0.1
 74
0
 49
-0.05
 74
0
  0
LTYPE
  5
1F8
100
AcDbSymbolTableRecord
100
AcDbLinetypeTableRecord
  2
DOT
 70
64
  3
. . . . . . . . . . . . . . . . . . . .
 72
65
 73
2
 40
0.2
 49
0.1
 74
0
 49
-0.1
 74
0
  0
LTYPE
  5
1F9
100
AcDbSymbolTableRecord
100
AcDbLinetypeTableRecord
  2
DASHED
 70
64
  3
- - - - - - - - - - - - - - - - - - - -
 72
65
 73
2
 40
0.2
 49
0.1
 74
0
 49
-0.1
 74
0
  0
ENDTAB
  0
TABLE
  2
LAYER
  5
2
100
AcDbSymbolTable
 70
36
  0
LAYER
  5
10
100
AcDbSymbolTableRecord
100
AcDbLayerTableRecord
  2
0
 70
0
 62
7
  6
CONTINUOUS
370
-3
390
F
  0
LAYER
  5
1FA
100
AcDbSymbolTableRecord
100
AcDbLayerTableRecord
  2
DEFAULT_1
 70
0
 62
7
  6
CENTER
370
-3
390
F
  0
LAYER
  5
1FB
100
AcDbSymbolTableRecord
100
AcDbLayerTableRecord
  2
DEFAULT_2
 70
0
 62
8
  6
HIDDEN
370
-3
390
F
  0
LAYER
  5
1FC
100
AcDbSymbolTableRecord
100
AcDbLayerTableRecord
  2
DEFAULT_3
 70
0
 62
7
  6
PHANTOM
370
-3
390
F
  0
LAYER
  5
1FD
100
AcDbSymbolTableRecord
100
AcDbLayerTableRecord
  2
CURVES
 70
0
 62
7
  6
CONTINUOUS
370
-3
390
F
  0
LAYER
  5
1FE
100
AcDbSymbolTableRecord
100
AcDbLayerTableRecord
  2
DTM_ALL
 70
0
 62
7
  6
CONTINUOUS
370
-3
390
F
  0
LAYER
  5
1FF
100
AcDbSymbolTableRecord
100
AcDbLayerTableRecord
  2
DTM_AXIS
 70
0
 62
7
  6
CONTINUOUS
370
-3
390
F
  0
LAYER
  5
200
100
AcDbSymbolTableRecord
100
AcDbLayerTableRecord
  2
DTM_CSYS
 70
0
 62
7
  6
CONTINUOUS
370
-3
390
F
  0
LAYER
  5
201
100
AcDbSymbolTableRecord
100
AcDbLayerTableRecord
  2
DTM_CURVE
 70
0
 62
7
  6
CONTINUOUS
370
-3
390
F
  0
LAYER
  5
202
100
AcDbSymbolTableRecord
100
AcDbLayerTableRecord
  2
DTM_MASTER
 70
0
 62
7
  6
CONTINUOUS
370
-3
390
F
  0
LAYER
  5
203
100
AcDbSymbolTableRecord
100
AcDbLayerTableRecord
  2
DTM_POINT
 70
0
 62
7
  6
CONTINUOUS
370
-3
390
F
  0
LAYER
  5
204
100
AcDbSymbolTableRecord
100
AcDbLayerTableRecord
  2
DTM_QUILT
 70
0
 62
7
  6
CONTINUOUS
370
-3
390
F
  0
LAYER
  5
205
100
AcDbSymbolTableRecord
100
AcDbLayerTableRecord
  2
GTOL
 70
0
 62
7
  6
CONTINUOUS
370
-3
390
F
  0
LAYER
  5
206
100
AcDbSymbolTableRecord
100
AcDbLayerTableRecord
  2
NOTES
 70
0
 62
7
  6
CONTINUOUS
370
-3
390
F
  0
LAYER
  5
207
100
AcDbSymbolTableRecord
100
AcDbLayerTableRecord
  2
SURFACES
 70
0
 62
7
  6
CONTINUOUS
370
-3
390
F
  0
ENDTAB
  0
TABLE
  2
STYLE
  5
3
100
AcDbSymbolTable
 70
1
  0
STYLE
  5
11
100
AcDbSymbolTableRecord
100
AcDbTextStyleTableRecord
  2
STANDARD
 70
0
 40
0.0
 41
1.0
 50
0.0
 71
0
 42
0.2
  3
cgtime.ttf
  4

  0
STYLE
  5
208
100
AcDbSymbolTableRecord
100
AcDbTextStyleTableRecord
  2
TEXTSTYLE_1
 70
0
 40
0.0
 41
0.8
 50
0.0
 71
0
 42
0.2
  3
gdt
  4

  0
STYLE
  5
209
100
AcDbSymbolTableRecord
100
AcDbTextStyleTableRecord
  2
TEXTSTYLE_2
 70
0
 40
0.0
 41
1.0
 50
0.0
 71
0
 42
0.2
  3
trium.ttf
  4

  0
STYLE
  5
20A
100
AcDbSymbolTableRecord
100
AcDbTextStyleTableRecord
  2
TEXTSTYLE_3
 70
0
 40
0.0
 41
1.0
 50
0.0
 71
0
 42
0.2
  3
calibri.ttf
  4

  0
ENDTAB
  0
TABLE
  2
VIEW
  5
6
100
AcDbSymbolTable
 70
0
  0
ENDTAB
  0
TABLE
  2
UCS
  5
7
100
AcDbSymbolTable
 70
0
  0
ENDTAB
  0
TABLE
  2
APPID
  5
9
100
AcDbSymbolTable
 70
1
  0
APPID
  5
20B
100
AcDbSymbolTableRecord
100
AcDbRegAppTableRecord
  2
ACAD
 70
0
  0
ENDTAB
  0
TABLE
  2
BLOCK_RECORD
  5
1
100
AcDbSymbolTable
 70
0
  0
BLOCK_RECORD
  5
20C
100
AcDbSymbolTableRecord
100
AcDbBlockTableRecord
  2
*Model_Space
  0
BLOCK_RECORD
  5
20D
100
AcDbSymbolTableRecord
100
AcDbBlockTableRecord
  2
*Paper_Space
  0
BLOCK_RECORD
  5
20E
100
AcDbSymbolTableRecord
100
AcDbBlockTableRecord
  2
_FILLED
  0
BLOCK_RECORD
  5
20F
100
AcDbSymbolTableRecord
100
AcDbBlockTableRecord
  2
*D0
  0
BLOCK_RECORD
  5
210
100
AcDbSymbolTableRecord
100
AcDbBlockTableRecord
  2
*D1
  0
BLOCK_RECORD
  5
211
100
AcDbSymbolTableRecord
100
AcDbBlockTableRecord
  2
*D2
  0
BLOCK_RECORD
  5
212
100
AcDbSymbolTableRecord
100
AcDbBlockTableRecord
  2
*D3
  0
BLOCK_RECORD
  5
213
100
AcDbSymbolTableRecord
100
AcDbBlockTableRecord
  2
*D4
  0
BLOCK_RECORD
  5
214
100
AcDbSymbolTableRecord
100
AcDbBlockTableRecord
  2
*T1
  0
ENDTAB
  0
TABLE
  2
DIMSTYLE
  5
A
100
AcDbSymbolTable
 70
1
100
AcDbDimStyleTable
 71
0
  0
DIMSTYLE
105
215
100
AcDbSymbolTableRecord
100
AcDbDimStyleTableRecord
  2
STANDARD
 70
0
  3

  4

 40
1.0
 41
3.5
 42
1.0
 43
0.38
 44
1.5
 45
0.0
 46
0.0
 47
0.001
 48
0.001
140
2.5
141
0.09
142
0.0
143
25.4
144
1.0
145
0.0
146
1.0
147
0.625
 71
1.0
 72
0.0
 73
1
 74
1
 75
0
 76
0
 77
0
 78
8
 79
2
170
0
171
2
172
0
173
0
174
0
175
0
176
0
177
0
178
0
270
2
179
3
271
3
272
3
273
2
274
2
275
0
280
0
281
0
282
0
283
1
284
8
285
0
286
0
287
3
288
0
340
11
278
44
341
20E
342
20E
343
20E
344
20E
  0
DIMSTYLE
105
216
100
AcDbSymbolTableRecord
100
AcDbDimStyleTableRecord
  2
DIMSTYLE_1
 70
0
  3

  4

 40
1.0
 41
3.5
 42
1.0
 43
0.38
 44
1.5
 45
0.0
 46
0.0
 47
0.0
 48
0.0
140
2.5
141
0.09
142
0.0
143
25.4
144
1.0
145
0.0
146
1.0
147
1.25
 71
0.0
 72
0.0
 73
1
 74
1
 75
0
 76
0
 77
0
 78
8
 79
2
170
0
171
2
172
0
173
0
174
0
175
0
176
0
177
0
178
0
270
2
179
3
271
0
272
0
273
2
274
2
275
0
280
0
281
0
282
0
283
1
284
8
285
0
286
0
287
3
288
0
340
11
278
44
341
20E
342
20E
343
20E
344
20E
  0
DIMSTYLE
105
217
100
AcDbSymbolTableRecord
100
AcDbDimStyleTableRecord
  2
DIMSTYLE_2
 70
0
  3

  4

 40
1.0
 41
3.5
 42
1.0
 43
0.38
 44
1.5
 45
0.0
 46
0.0
 47
0.0
 48
0.0
140
2.5
141
0.09
142
0.0
143
25.4
144
1.0
145
0.0
146
1.0
147
1.25
 71
0.0
 72
0.0
 73
1
 74
1
 75
0
 76
0
 77
0
 78
8
 79
2
170
0
171
2
172
0
173
0
174
0
175
0
176
0
177
0
178
0
270
2
179
3
271
3
272
3
273
2
274
2
275
0
280
0
281
0
282
0
283
1
284
8
285
0
286
0
287
3
288
0
340
11
278
44
341
20E
342
20E
343
20E
344
20E
  0
DIMSTYLE
105
218
100
AcDbSymbolTableRecord
100
AcDbDimStyleTableRecord
  2
DIMSTYLE_3
 70
0
  3

  4

 40
1.0
 41
3.5
 42
1.0
 43
0.38
 44
1.5
 45
0.0
 46
0.0
 47
0.0
 48
0.0
140
2.5
141
0.09
142
0.0
143
25.4
144
1.0
145
0.0
146
1.0
147
1.25
 71
0.0
 72
0.0
 73
1
 74
1
 75
0
 76
0
 77
0
 78
8
 79
2
170
0
171
2
172
0
173
0
174
0
175
0
176
0
177
0
178
0
270
2
179
3
271
1
272
1
273
2
274
2
275
0
280
0
281
0
282
0
283
1
284
8
285
0
286
0
287
3
288
0
340
11
278
44
341
20E
342
20E
343
20E
344
20E
  0
ENDTAB
  0
ENDSEC
  0
SECTION
  2
BLOCKS
  0
BLOCK
  5
20
100
AcDbEntity
  8
0
100
AcDbBlockBegin
  2
*Model_Space
 70
0
 10
0.0
 20
0.0
 30
0.0
  3
*Model_Space
  1

  0
ENDBLK
  5
21
100
AcDbEntity
  8
0
100
AcDbBlockEnd
  0
BLOCK
  5
1C
100
AcDbEntity
  8
0
100
AcDbBlockBegin
  2
*Paper_Space
 70
0
 10
0.0
 20
0.0
 30
0.0
  3
*Paper_Space
  1

  0
ENDBLK
  5
1D
100
AcDbEntity
  8
0
100
AcDbBlockEnd
  0
BLOCK
  5
219
100
AcDbEntity
  8
0
100
AcDbBlockBegin
  2
_FILLED
 70
64
 10
0.0
 20
0.0
  3
_FILLED
  1

  0
SOLID
  5
21A
100
AcDbEntity
  8
0
  6
BYBLOCK
 62
0
100
AcDbTrace
 10
0.0
 20
0.0
 11
-1.0
 21
0.2142857143
 12
-1.0
 22
-0.2142857143
 13
-1.0
 23
-0.2142857143
  0
ENDBLK
  5
21B
100
AcDbEntity
  8
0
  6
BYBLOCK
 62
0
100
AcDbBlockEnd
  0
BLOCK
  5
21C
100
AcDbEntity
  8
0
100
AcDbBlockBegin
 62
2
  6
CONTINUOUS
  2
*D0
 70
65
 10
0.0
 20
0.0
  3
*D0
  1

  0
TEXT
  5
21D
100
AcDbEntity
  8
0
100
AcDbText
 62
2
  6
CONTINUOUS
 10
76.7499818019
 20
188.200103587
  7
STANDARD
 40
2.5
  1
103
 72
5
 11
82.2071802455
 21
188.200103587
100
AcDbText
  0
TEXT
  5
21E
100
AcDbEntity
  8
0
100
AcDbText
 62
2
  6
CONTINUOUS
 10
82.2071802455
 20
188.200103587
  7
STANDARD
 40
2.5
  1
mm
 72
5
 11
87.8783864712
 21
188.200103587
100
AcDbText
  0
TEXT
  5
21F
100
AcDbEntity
  8
0
100
AcDbText
 62
2
  6
CONTINUOUS
 10
80.5632113739
 20
184.450103587
  7
STANDARD
 40
2.5
  1
4"
 72
5
 11
84.0651568992
 21
184.450103587
100
AcDbText
  0
LINE
  5
220
100
AcDbEntity
  8
0
100
AcDbLine
 62
2
  6
CONTINUOUS
 10
30.6213794812
 20
48.4660335749
 11
30.6213794812
 21
190.950103587
  0
LINE
  5
221
100
AcDbEntity
  8
0
100
AcDbLine
 62
2
  6
CONTINUOUS
 10
134.006988792
 20
179.6134003452
 11
134.006988792
 21
190.950103587
  0
LINE
  5
222
100
AcDbEntity
  8
0
100
AcDbLine
 62
2
  6
CONTINUOUS
 10
30.6213794812
 20
189.450103587
 11
75.4999818019
 21
189.450103587
  0
LINE
  5
223
100
AcDbEntity
  8
0
100
AcDbLine
 62
2
  6
CONTINUOUS
 10
134.006988792
 20
189.450103587
 11
89.1283864712
 21
189.450103587
  0
INSERT
  5
224
100
AcDbEntity
  8
0
100
AcDbBlockReference
 62
2
  6
CONTINUOUS
  2
_FILLED
 10
30.6213794812
 20
189.450103587
 41
3.5
 42
3.5
 43
3.5
 50
180.0
  0
INSERT
  5
225
100
AcDbEntity
  8
0
100
AcDbBlockReference
 62
2
  6
CONTINUOUS
  2
_FILLED
 10
134.006988792
 20
189.450103587
 41
3.5
 42
3.5
 43
3.5
 50
360.0
  0
ENDBLK
  5
226
100
AcDbEntity
  8
0
  6
BYBLOCK
 62
0
100
AcDbBlockEnd
  0
BLOCK
  5
227
100
AcDbEntity
  8
0
100
AcDbBlockBegin
 62
2
  6
CONTINUOUS
  2
*D1
 70
65
 10
0.0
 20
0.0
  3
*D1
  1

  0
TEXT
  5
228
100
AcDbEntity
  8
0
100
AcDbText
 62
2
  6
CONTINUOUS
 10
90.947168334
 20
89.9505354154
  7
STANDARD
 40
2.5
  1
183
 72
5
 11
96.4043667776
 21
89.9505354154
100
AcDbText
  0
TEXT
  5
229
100
AcDbEntity
  8
0
100
AcDbText
 62
2
  6
CONTINUOUS
 10
96.4043667776
 20
89.9505354154
  7
STANDARD
 40
2.5
  1
mm
 72
5
 11
102.0755730033
 21
89.9505354154
100
AcDbText
  0
TEXT
  5
22A
100
AcDbEntity
  8
0
100
AcDbText
 62
2
  6
CONTINUOUS
 10
91.7253784507
 20
86.2005354154
  7
STANDARD
 40
2.5
  1
7-1/4"
 72
5
 11
101.2973628865
 21
86.2005354154
100
AcDbText
  0
LINE
  5
22B
100
AcDbEntity
  8
0
100
AcDbLine
 62
2
  6
CONTINUOUS
 10
31.4549566473
 20
22.051926987
 11
46.0689317625
 21
12.3673957058
  0
LINE
  5
22C
100
AcDbEntity
  8
0
100
AcDbLine
 62
2
  6
CONTINUOUS
 10
134.8405659581
 20
178.0609973147
 11
149.4545410733
 21
168.3764660336
  0
LINE
  5
22D
100
AcDbEntity
  8
0
100
AcDbLine
 62
2
  6
CONTINUOUS
 10
44.8185660132
 20
13.1960002515
 11
92.3695598314
 21
84.9505354154
  0
LINE
  5
22E
100
AcDbEntity
  8
0
100
AcDbLine
 62
2
  6
CONTINUOUS
 10
148.204175324
 20
169.2050705793
 11
98.1680950035
 21
93.7005354154
  0
INSERT
  5
22F
100
AcDbEntity
  8
0
100
AcDbBlockReference
 62
2
  6
CONTINUOUS
  2
_FILLED
 10
44.8185660132
 20
13.1960002515
 41
3.5
 42
3.5
 43
3.5
 50
236.4679723986
  0
INSERT
  5
230
100
AcDbEntity
  8
0
100
AcDbBlockReference
 62
2
  6
CONTINUOUS
  2
_FILLED
 10
148.204175324
 20
169.2050705793
 41
3.5
 42
3.5
 43
3.5
 50
56.4679723986
  0
ENDBLK
  5
231
100
AcDbEntity
  8
0
  6
BYBLOCK
 62
0
100
AcDbBlockEnd
  0
BLOCK
  5
232
100
AcDbEntity
  8
0
100
AcDbBlockBegin
 62
2
  6
CONTINUOUS
  2
*D2
 70
65
 10
0.0
 20
0.0
  3
*D2
  1

  0
TEXT
  5
233
100
AcDbEntity
  8
0
100
AcDbText
 62
2
  6
CONTINUOUS
 10
11.2855608646
 20
99.3588651813
  7
STANDARD
 40
2.5
  1
156
 72
5
 11
16.7427593082
 21
99.3588651813
100
AcDbText
  0
TEXT
  5
234
100
AcDbEntity
  8
0
100
AcDbText
 62
2
  6
CONTINUOUS
 10
16.7427593082
 20
99.3588651813
  7
STANDARD
 40
2.5
  1
mm
 72
5
 11
22.4139655339
 21
99.3588651813
100
AcDbText
  0
TEXT
  5
235
100
AcDbEntity
  8
0
100
AcDbText
 62
2
  6
CONTINUOUS
 10
12.0637709813
 20
95.6088651813
  7
STANDARD
 40
2.5
  1
6-1/8"
 72
5
 11
21.6357554171
 21
95.6088651813
100
AcDbText
  0
LINE
  5
236
100
AcDbEntity
  8
0
100
AcDbLine
 62
2
  6
CONTINUOUS
 10
29.6213794812
 20
22.6043300174
 11
15.3497631992
 21
22.6043300174
  0
LINE
  5
237
100
AcDbEntity
  8
0
100
AcDbLine
 62
2
  6
CONTINUOUS
 10
107.851088792
 20
178.6134003452
 11
15.3497631992
 21
178.6134003452
  0
LINE
  5
238
100
AcDbEntity
  8
0
100
AcDbLine
 62
2
  6
CONTINUOUS
 10
16.8497631992
 20
22.6043300174
 11
16.8497631992
 21
94.3588651813
  0
LINE
  5
239
100
AcDbEntity
  8
0
100
AcDbLine
 62
2
  6
CONTINUOUS
 10
16.8497631992
 20
178.6134003452
 11
16.8497631992
 21
103.1088651813
  0
INSERT
  5
23A
100
AcDbEntity
  8
0
100
AcDbBlockReference
 62
2
  6
CONTINUOUS
  2
_FILLED
 10
16.8497631992
 20
22.6043300174
 41
3.5
 42
3.5
 43
3.5
 50
270.0
  0
INSERT
  5
23B
100
AcDbEntity
  8
0
100
AcDbBlockReference
 62
2
  6
CONTINUOUS
  2
_FILLED
 10
16.8497631992
 20
178.6134003452
 41
3.5
 42
3.5
 43
3.5
 50
90.0
  0
ENDBLK
  5
23C
100
AcDbEntity
  8
0
  6
BYBLOCK
 62
0
100
AcDbBlockEnd
  0
BLOCK
  5
23D
100
AcDbEntity
  8
0
100
AcDbBlockBegin
 62
2
  6
CONTINUOUS
  2
*D3
 70
65
 10
0.0
 20
0.0
  3
*D3
  1

  0
TEXT
  5
23E
100
AcDbEntity
  8
0
100
AcDbText
 62
2
  6
CONTINUOUS
 10
150.294440649
 20
174.8819740931
  7
STANDARD
 40
2.5
  1
10
 72
5
 11
153.9325729447
 21
174.8819740931
100
AcDbText
  0
TEXT
  5
23F
100
AcDbEntity
  8
0
100
AcDbText
 62
2
  6
CONTINUOUS
 10
153.9325729447
 20
174.8819740931
  7
STANDARD
 40
2.5
  1
mm
 72
5
 11
159.6037791704
 21
174.8819740931
100
AcDbText
  0
TEXT
  5
240
100
AcDbEntity
  8
0
100
AcDbText
 62
2
  6
CONTINUOUS
 10
151.6806274194
 20
171.1319740931
  7
STANDARD
 40
2.5
  1
3/8"
 72
5
 11
158.2175924
 21
171.1319740931
100
AcDbText
  0
LINE
  5
241
100
AcDbEntity
  8
0
100
AcDbLine
 62
2
  6
CONTINUOUS
 10
135.006988792
 20
178.6134003452
 11
156.4491099097
 21
178.6134003452
  0
LINE
  5
242
100
AcDbEntity
  8
0
100
AcDbLine
 62
2
  6
CONTINUOUS
 10
135.006988792
 20
168.6125170577
 11
156.4491099097
 21
168.6125170577
  0
LINE
  5
243
100
AcDbEntity
  8
0
100
AcDbLine
 62
2
  6
CONTINUOUS
 10
154.9491099097
 20
178.6134003452
 11
154.9491099097
 21
183.6134003452
  0
LINE
  5
244
100
AcDbEntity
  8
0
100
AcDbLine
 62
2
  6
CONTINUOUS
 10
154.9491099097
 20
168.6125170577
 11
154.9491099097
 21
163.6125170577
  0
INSERT
  5
245
100
AcDbEntity
  8
0
100
AcDbBlockReference
 62
2
  6
CONTINUOUS
  2
_FILLED
 10
154.9491099097
 20
178.6134003452
 41
3.5
 42
3.5
 43
3.5
 50
270.0
  0
INSERT
  5
246
100
AcDbEntity
  8
0
100
AcDbBlockReference
 62
2
  6
CONTINUOUS
  2
_FILLED
 10
154.9491099097
 20
168.6125170577
 41
3.5
 42
3.5
 43
3.5
 50
90.0
  0
ENDBLK
  5
247
100
AcDbEntity
  8
0
  6
BYBLOCK
 62
0
100
AcDbBlockEnd
  0
BLOCK
  5
248
100
AcDbEntity
  8
0
100
AcDbBlockBegin
 62
2
  6
CONTINUOUS
  2
*D4
 70
65
 10
0.0
 20
0.0
  3
*D4
  1

  0
TEXT
  5
249
100
AcDbEntity
  8
0
100
AcDbText
 62
2
  6
CONTINUOUS
 10
12.2618292463
 20
12.0900174149
  7
STANDARD
 40
2.5
  1
8,1
 72
5
 11
17.1159148494
 21
12.0900174149
100
AcDbText
  0
TEXT
  5
24A
100
AcDbEntity
  8
0
100
AcDbText
 62
2
  6
CONTINUOUS
 10
17.1159148494
 20
12.0900174149
  7
STANDARD
 40
2.5
  1
mm
 72
5
 11
22.7871210751
 21
12.0900174149
100
AcDbText
  0
TEXT
  5
24B
100
AcDbEntity
  8
0
100
AcDbText
 62
2
  6
CONTINUOUS
 10
16.2501560945
 20
8.3400174149
  7
STANDARD
 40
2.5
  1
1/4"
 72
5
 11
22.7871210751
 21
8.3400174149
100
AcDbText
  0
LINE
  5
24C
100
AcDbEntity
  8
0
100
AcDbLine
 62
2
  6
CONTINUOUS
 10
30.6213794812
 20
21.6043300174
 11
30.6213794812
 21
11.8400174149
  0
LINE
  5
24D
100
AcDbEntity
  8
0
100
AcDbLine
 62
2
  6
CONTINUOUS
 10
38.7372300903
 20
21.9398889705
 11
38.7372300903
 21
11.8400174149
  0
LINE
  5
24E
100
AcDbEntity
  8
0
100
AcDbLine
 62
2
  6
CONTINUOUS
 10
30.6213794812
 20
13.3400174149
 11
24.0371210751
 21
13.3400174149
  0
LINE
  5
24F
100
AcDbEntity
  8
0
100
AcDbLine
 62
2
  6
CONTINUOUS
 10
38.7372300903
 20
13.3400174149
 11
43.7372300903
 21
13.3400174149
  0
INSERT
  5
250
100
AcDbEntity
  8
0
100
AcDbBlockReference
 62
2
  6
CONTINUOUS
  2
_FILLED
 10
30.6213794812
 20
13.3400174149
 41
3.5
 42
3.5
 43
3.5
  0
INSERT
  5
251
100
AcDbEntity
  8
0
100
AcDbBlockReference
 62
2
  6
CONTINUOUS
  2
_FILLED
 10
38.7372300903
 20
13.3400174149
 41
3.5
 42
3.5
 43
3.5
 50
180.0
  0
ENDBLK
  5
252
100
AcDbEntity
  8
0
  6
BYBLOCK
 62
0
100
AcDbBlockEnd
  0
BLOCK
  5
253
100
AcDbEntity
  8
0
100
AcDbBlockBegin
  2
*T1
 70
1
 10
0.0
 20
0.0
  3
*T1
  1

  0
LINE
  5
254
100
AcDbEntity
  8
0
100
AcDbLine
 62
7
  6
CONTINUOUS
 10
0.0
 20
0.0
 11
148.0
 21
0.0
  0
LINE
  5
255
100
AcDbEntity
  8
0
100
AcDbLine
 62
7
  6
CONTINUOUS
 10
0.0
 20
0.0
 11
0.0
 21
-43.0
  0
LINE
  5
256
100
AcDbEntity
  8
0
100
AcDbLine
 62
7
  6
CONTINUOUS
 10
45.0
 20
-20.0
 11
148.0
 21
-20.0
  0
LINE
  5
257
100
AcDbEntity
  8
0
100
AcDbLine
 62
7
  6
CONTINUOUS
 10
45.0
 20
-28.0
 11
148.0
 21
-28.0
  0
LINE
  5
258
100
AcDbEntity
  8
0
100
AcDbLine
 62
7
  6
CONTINUOUS
 10
0.0
 20
-43.0
 11
148.0
 21
-43.0
  0
LINE
  5
259
100
AcDbEntity
  8
0
100
AcDbLine
 62
7
  6
CONTINUOUS
 10
45.0
 20
0.0
 11
45.0
 21
-43.0
  0
LINE
  5
25A
100
AcDbEntity
  8
0
100
AcDbLine
 62
7
  6
CONTINUOUS
 10
143.0
 20
0.0
 11
143.0
 21
-20.0
  0
LINE
  5
25B
100
AcDbEntity
  8
0
100
AcDbLine
 62
7
  6
CONTINUOUS
 10
148.0
 20
0.0
 11
148.0
 21
-43.0
  0
TEXT
  5
25C
100
AcDbEntity
  8
0
100
AcDbText
 62
7
  6
CONTINUOUS
 10
8.9659749243
 20
-9.175
  7
STANDARD
 40
8.0
  1
O
 72
5
 11
17.370644185
 21
-9.175
100
AcDbText
  0
TEXT
  5
25D
100
AcDbEntity
  8
0
100
AcDbText
 62
7
  6
CONTINUOUS
 10
17.370644185
 20
-9.175
  7
STANDARD
 40
5.5
  1
RAC
 72
5
 11
33.9562472979
 21
-9.175
100
AcDbText
  0
TEXT
  5
25E
100
AcDbEntity
  8
0
100
AcDbText
 62
7
  6
CONTINUOUS
 10
33.9562472979
 20
-4.425
  7
TEXTSTYLE_2
 40
3.0
  1
®
 72
5
 11
36.0340250757
 21
-4.425
100
AcDbText
  0
TEXT
  5
25F
100
AcDbEntity
  8
0
100
AcDbText
 62
7
  6
CONTINUOUS
 10
9.5323389537
 20
-13.825
  7
TEXTSTYLE_2
 40
3.0
  1
D  E  C  O  R
 72
5
 11
34.3878945093
 21
-13.825
100
AcDbText
  0
TEXT
  5
260
100
AcDbEntity
  8
0
100
AcDbText
 62
7
  6
CONTINUOUS
 10
34.3878945093
 20
-13.825
  7
STANDARD
 40
2.5
  1
 
 72
5
 11
35.4676610463
 21
-13.825
100
AcDbText
  0
TEXT
  5
261
100
AcDbEntity
  8
0
100
AcDbText
 62
7
  6
CONTINUOUS
 10
52.8786764706
 20
-4.6
  7
TEXTSTYLE_3
 40
2.7
  1
Part name:
 72
5
 11
71.9375
 21
-4.6
100
AcDbText
  0
TEXT
  5
262
100
AcDbEntity
  8
0
100
AcDbText
 62
7
  6
CONTINUOUS
 10
49.6908613445
 20
-11.35
  7
TEXTSTYLE_3
 40
2.7
  1
Designed by:
 72
5
 11
71.9375
 21
-11.35
100
AcDbText
  0
TEXT
  5
263
100
AcDbEntity
  8
0
100
AcDbText
 62
7
  6
CONTINUOUS
 10
49.3732142857
 20
-18.1
  7
TEXTSTYLE_3
 40
2.7
  1
Designed on:
 72
5
 11
71.9375
 21
-18.1
100
AcDbText
  0
TEXT
  5
264
100
AcDbEntity
  8
0
100
AcDbText
 62
2
  6
CONTINUOUS
 10
74.0625
 20
-4.6
  7
TEXTSTYLE_3
 40
2.7
  1
C217
 72
5
 11
82.7977941176
 21
-4.6
100
AcDbText
  0
TEXT
  5
265
100
AcDbEntity
  8
0
100
AcDbText
 62
2
  6
CONTINUOUS
 10
74.0625
 20
-11.35
  7
TEXTSTYLE_3
 40
2.7
  1
ORAC
 72
5
 11
83.9209033613
 21
-11.35
100
AcDbText
  0
TEXT
  5
266
100
AcDbEntity
  8
0
100
AcDbText
 62
2
  6
CONTINUOUS
 10
74.0625
 20
-18.1
  7
TEXTSTYLE_3
 40
2.7
  1
29-Jul-1977
 72
5
 11
94.1763655462
 21
-18.1
100
AcDbText
  0
TEXT
  5
267
100
AcDbEntity
  8
0
100
AcDbText
 62
2
  6
CONTINUOUS
 10
94.1763655462
 20
-18.1
  7
TEXTSTYLE_3
 40
2.7
  1
 
 72
5
 11
95.1406512605
 21
-18.1
100
AcDbText
  0
TEXT
  5
268
100
AcDbEntity
  8
0
100
AcDbText
 62
2
  6
CONTINUOUS
 10
146.5625
 20
-16.0
  7
TEXTSTYLE_3
 40
1.5
  1
Version: 
 50
90.0
 72
5
 11
146.5625
 21
-7.5294117647
100
AcDbText
  0
TEXT
  5
269
100
AcDbEntity
  8
0
100
AcDbText
 62
2
  6
CONTINUOUS
 10
146.5625
 20
-7.5294117647
  7
TEXTSTYLE_3
 40
1.5
  1
1.0
 50
90.0
 72
5
 11
146.5625
 21
-4.5357142857
100
AcDbText
  0
TEXT
  5
26A
100
AcDbEntity
  8
0
100
AcDbText
 62
2
  6
CONTINUOUS
 10
146.5625
 20
-4.5357142857
  7
TEXTSTYLE_3
 40
1.5
  1
 
 50
90.0
 72
5
 11
146.5625
 21
-4.0
100
AcDbText
  0
TEXT
  5
26B
100
AcDbEntity
  8
0
100
AcDbText
 62
7
  6
CONTINUOUS
 10
9.6586134454
 20
-22.75
  7
TEXTSTYLE_3
 40
2.5
  1
Biekorfstraat 32
 72
5
 11
35.3413865546
 21
-22.75
100
AcDbText
  0
TEXT
  5
26C
100
AcDbEntity
  8
0
100
AcDbText
 62
7
  6
CONTINUOUS
 10
2.2584033613
 20
-26.5
  7
TEXTSTYLE_3
 40
2.5
  1
8400 Oostende - Belgium
 72
5
 11
42.7415966387
 21
-26.5
100
AcDbText
  0
TEXT
  5
26D
100
AcDbEntity
  8
0
100
AcDbText
 62
7
  6
CONTINUOUS
 10
4.2699579832
 20
-30.25
  7
TEXTSTYLE_3
 40
2.5
  1
Tel  +32 (0)59 80 32 52
 72
5
 11
40.7300420168
 21
-30.25
100
AcDbText
  0
TEXT
  5
26E
100
AcDbEntity
  8
0
100
AcDbText
 62
7
  6
CONTINUOUS
 10
5.7405462185
 20
-34.0
  7
TEXTSTYLE_3
 40
2.5
  1
www.oracdecor.com
 72
5
 11
39.2594537815
 21
-34.0
100
AcDbText
  0
TEXT
  5
26F
100
AcDbEntity
  8
0
100
AcDbText
 62
7
  6
CONTINUOUS
 10
5.5777310924
 20
-37.75
  7
TEXTSTYLE_3
 40
2.5
  1
info@oracdecor.com
 72
5
 11
39.4222689076
 21
-37.75
100
AcDbText
  0
TEXT
  5
270
100
AcDbEntity
  8
0
100
AcDbText
 62
7
  6
CONTINUOUS
 10
46.0625
 20
-23.375
  7
TEXTSTYLE_3
 40
2.5
  1
Unless otherwise specified: all dimensions are in millimeters 
 72
5
 11
143.4259453782
 21
-23.375
100
AcDbText
  0
TEXT
  5
271
100
AcDbEntity
  8
0
100
AcDbText
 62
7
  6
CONTINUOUS
 10
46.0625
 20
-27.125
  7
TEXTSTYLE_3
 40
2.5
  1
and inches, scale 1:1, length 2 meters
 72
5
 11
106.1675420168
 21
-27.125
100
AcDbText
  0
TEXT
  5
272
100
AcDbEntity
  8
0
100
AcDbText
 62
7
  6
CONTINUOUS
 10
46.0625
 20
-31.81
  7
TEXTSTYLE_3
 40
1.8
  1
All information in this document is Orac's exclusive property.  It may in no case 
 72
5
 11
137.5070378151
 21
-31.81
100
AcDbText
  0
TEXT
  5
273
100
AcDbEntity
  8
0
100
AcDbText
 62
7
  6
CONTINUOUS
 10
46.0625
 20
-34.87
  7
TEXTSTYLE_3
 40
1.8
  1
be reproduced, even partly, be communicated to a third party or used for any 
 72
5
 11
136.3272058824
 21
-34.87
100
AcDbText
  0
TEXT
  5
274
100
AcDbEntity
  8
0
100
AcDbText
 62
7
  6
CONTINUOUS
 10
46.0625
 20
-37.93
  7
TEXTSTYLE_3
 40
1.8
  1
possible purpose without ORAC's express written permission. Further legal 
 72
5
 11
132.7952731092
 21
-37.93
100
AcDbText
  0
TEXT
  5
275
100
AcDbEntity
  8
0
100
AcDbText
 62
7
  6
CONTINUOUS
 10
46.0625
 20
-40.99
  7
TEXTSTYLE_3
 40
1.8
  1
information can be found at https://www.oracdecor.com/en/general-sales-conditions
 72
5
 11
145.349894958
 21
-40.99
100
AcDbText
  0
ENDBLK
  5
276
100
AcDbEntity
  8
0
  6
BYBLOCK
 62
0
100
AcDbBlockEnd
  0
ENDSEC
  0
SECTION
  2
ENTITIES
  0
DIMENSION
  5
277
100
AcDbEntity
  8
0
100
AcDbDimension
 62
2
  6
CONTINUOUS
  2
*D0
 10
134.006988792
 20
189.450103587
 11
82.3141841366
 21
187.575103587
 70
160
 71
2
 72
2
 41
0.9
 42
103.3856093108
  1
<>mm\P4"
  3
DIMSTYLE_1
100
AcDbAlignedDimension
 13
30.6213794812
 23
47.4660335749
 14
134.006988792
 24
178.6134003452
 50
360.0
100
AcDbRotatedDimension
  0
DIMENSION
  5
278
100
AcDbEntity
  8
0
100
AcDbDimension
 62
2
  6
CONTINUOUS
  2
*D1
 10
148.204175324
 20
169.2050705793
 11
96.5113706686
 21
89.3255354154
 70
160
 71
2
 72
2
 41
0.9
 42
187.1561226279
  1
<>mm\P7-1/4"
  3
DIMSTYLE_2
100
AcDbAlignedDimension
 13
30.6213794812
 23
22.6043300174
 14
134.006988792
 24
178.6134003452
 50
56.4679723986
100
AcDbRotatedDimension
  0
DIMENSION
  5
279
100
AcDbEntity
  8
0
100
AcDbDimension
 62
2
  6
CONTINUOUS
  2
*D2
 10
16.8497631992
 20
178.6134003452
 11
16.8497631992
 21
98.7338651813
 70
160
 71
2
 72
2
 41
0.9
 42
156.0090703278
  1
<>mm\P6-1/8"
  3
DIMSTYLE_1
100
AcDbAlignedDimension
 13
30.6213794812
 23
22.6043300174
 14
108.851088792
 24
178.6134003452
 50
90.0
100
AcDbRotatedDimension
  0
DIMENSION
  5
27A
100
AcDbEntity
  8
0
100
AcDbDimension
 62
2
  6
CONTINUOUS
  2
*D3
 10
154.9491099097
 20
168.6125170577
 11
154.9491099097
 21
174.2569740931
 70
160
 71
2
 72
2
 41
0.9
 42
10.0008832875
  1
<>mm\P3/8"
  3
DIMSTYLE_3
100
AcDbAlignedDimension
 13
134.006988792
 23
178.6134003452
 14
134.006988792
 24
168.6125170577
 50
270.0
100
AcDbRotatedDimension
  0
DIMENSION
  5
27B
100
AcDbEntity
  8
0
100
AcDbDimension
 62
2
  6
CONTINUOUS
  2
*D4
 10
38.7372300903
 20
13.3400174149
 11
17.5244751607
 21
11.4650174149
 70
160
 71
3
 72
2
 41
0.9
 42
8.1158506091
  1
<>mm\P1/4"
  3
DIMSTYLE_3
100
AcDbAlignedDimension
 13
30.6213794812
 23
22.6043300174
 14
38.7372300903
 24
22.9398889705
100
AcDbRotatedDimension
  0
ACAD_TABLE
  5
27C
100
AcDbEntity
  8
0
 62
2
  6
CONTINUOUS
100
AcDbBlockReference
  2
*T1
 10
144.0
 20
48.0
 30
0.0
100
AcDbTable
342
       2F0
343
214
 11
1.0
 21
0.0
 31
0.0
 90
22
 91
4
 92
4
 93
0
 94
0
 95
0
 96
0
141
15.0
141
5.0
141
8.0
141
15.0
142
45.0
142
28.0
142
70.0
142
5.0
171
1
172
0
173
0
174
0
175
1
176
1
 91
41
178
0
145
0.0
301
CELL_VALUE
 90
4
  1
\A1;O\H5.5;RAC\fCG Triumvirate;\H3.0;\S®^ ;\PD  E  C  O  R\fCG Times;\H2.5; 
304
ACVALUE_END
170
5
140
8.0
 64
7
171
1
172
0
173
0
174
0
175
1
176
2
 91
57
178
0
145
0.0
  7
TEXTSTYLE_3
301
CELL_VALUE
 90
4
  1
Part name:\PDesigned by:\PDesigned on:
304
ACVALUE_END
170
6
140
2.7
 64
7
171
1
172
0
173
0
174
0
175
1
176
2
 91
49
178
0
145
0.0
  7
TEXTSTYLE_3
301
CELL_VALUE
 90
4
  1
C217\PORAC\P29-Jul-1977 
304
ACVALUE_END
170
4
140
2.7
171
1
172
0
173
0
174
0
175
1
176
2
 91
49
178
0
145
0.0
  7
TEXTSTYLE_3
301
CELL_VALUE
 90
4
  1
Version: 1.0 
304
ACVALUE_END
170
6
140
1.5
171
1
172
0
173
0
174
0
175
1
176
3
 91
57
178
0
145
0.0
  7
TEXTSTYLE_3
301
CELL_VALUE
 90
4
  1
Biekorfstraat 32\P8400 Oostende - Belgium\PTel  +32 (0)59 80 32 52\Pwww.oracdecor.com\Pinfo@oracdecor.com
304
ACVALUE_END
170
5
140
2.5
 64
7
171
1
172
0
173
1
174
0
175
1
176
1
 91
1
178
0
145
0.0
170
1
171
1
172
0
173
1
174
0
175
1
176
1
 91
1
178
0
145
0.0
170
1
171
1
172
0
173
1
174
0
175
1
176
1
 91
1
178
0
145
0.0
170
1
171
1
172
0
173
1
174
0
175
1
176
1
 91
1
178
0
145
0.0
170
1
171
1
172
0
173
0
174
0
175
3
176
1
 91
57
178
0
145
0.0
  7
TEXTSTYLE_3
301
CELL_VALUE
 90
4
  1
Unless otherwise specified: all dimensions are in millimeters \Pand inches, scale 1:1, length 2 meters
304
ACVALUE_END
170
4
140
2.5
 64
7
171
1
172
0
173
1
174
0
175
1
176
1
 91
1
178
0
145
0.0
170
1
171
1
172
0
173
1
174
0
175
1
176
1
 91
1
178
0
145
0.0
170
1
171
1
172
0
173
1
174
0
175
1
176
1
 91
1
178
0
145
0.0
170
1
171
1
172
0
173
0
174
0
175
3
176
1
 91
57
178
0
145
0.0
  7
TEXTSTYLE_3
301
CELL_VALUE
 90
4
  2
All information in this document is Orac's exclusive property.  It may in no case \Pbe reproduced, even partly, be communicated to a third party or used for any \Ppossible purpose without ORAC's express written permission. Further legal \Pinformation
  1
 can be found at https://www.oracdecor.com/en/general-sales-conditions
304
ACVALUE_END
170
4
140
1.8
 64
7
171
1
172
0
173
1
174
0
175
1
176
1
 91
1
178
0
145
0.0
170
1
171
1
172
0
173
1
174
0
175
1
176
1
 91
1
178
0
145
0.0
170
1
  0
TEXT
  5
27D
100
AcDbEntity
  8
0
100
AcDbText
 62
2
  6
CONTINUOUS
 10
205.2891585649
 20
57.6731415224
  7
STANDARD
 40
2.5
  1
SCALE  
 72
5
 11
219.0926605104
 21
57.6731415224
100
AcDbText
  0
TEXT
  5
27E
100
AcDbEntity
  8
0
100
AcDbText
 62
2
  6
CONTINUOUS
 10
219.0926605104
 20
57.6731415224
  7
STANDARD
 40
2.5
  1
1:2
 72
5
 11
223.9467461135
 21
57.6731415224
100
AcDbText
  0
LINE
  5
27F
100
AcDbEntity
  8
0
100
AcDbLine
 62
5
  6
CONTINUOUS
 10
0.0
 20
0.0
 11
0.0
 21
210.0
  0
LINE
  5
280
100
AcDbEntity
  8
0
100
AcDbLine
 62
7
  6
CONTINUOUS
 10
5.0
 20
5.0
 11
5.0
 21
195.0
  0
LINE
  5
281
100
AcDbEntity
  8
0
100
AcDbLine
 62
5
  6
CONTINUOUS
 10
0.0
 20
0.0
 11
297.0
 21
0.0
  0
LINE
  5
282
100
AcDbEntity
  8
0
100
AcDbLine
 62
7
  6
CONTINUOUS
 10
5.0
 20
5.0
 11
292.0
 21
5.0
  0
LINE
  5
283
100
AcDbEntity
  8
0
100
AcDbLine
 62
4
  6
CONTINUOUS
 10
148.5
 20
195.0
 11
148.5
 21
205.0
  0
LINE
  5
284
100
AcDbEntity
  8
0
100
AcDbLine
 62
7
  6
CONTINUOUS
 10
5.0
 20
195.0
 11
292.0
 21
195.0
  0
LINE
  5
285
100
AcDbEntity
  8
0
100
AcDbLine
 62
5
  6
CONTINUOUS
 10
0.0
 20
210.0
 11
297.0
 21
210.0
  0
LINE
  5
286
100
AcDbEntity
  8
0
100
AcDbLine
 62
7
  6
CONTINUOUS
 10
292.0
 20
5.0
 11
292.0
 21
195.0
  0
LINE
  5
287
100
AcDbEntity
  8
0
100
AcDbLine
 62
5
  6
CONTINUOUS
 10
297.0
 20
0.0
 11
297.0
 21
210.0
  0
LINE
  5
288
100
AcDbEntity
  8
0
100
AcDbLine
 62
7
  6
CONTINUOUS
 10
226.1712146194
 20
67.0771688102
 11
222.1183447364
 21
66.8931415224
  0
LINE
  5
289
100
AcDbEntity
  8
0
100
AcDbLine
 62
7
  6
CONTINUOUS
 10
174.3203518816
 20
112.2619259747
 11
174.3331274936
 21
107.0498358077
  0
LINE
  5
28A
100
AcDbEntity
  8
0
100
AcDbLine
 62
7
  6
CONTINUOUS
 10
174.3393801172
 20
104.4989413377
 11
174.3508049702
 21
99.83792283
  0
LINE
  5
28B
100
AcDbEntity
  8
0
100
AcDbLine
 62
7
  6
CONTINUOUS
 10
180.9718072196
 20
142.2562159318
 11
188.6610954856
 21
153.9187889078
  0
LINE
  5
28C
100
AcDbEntity
  8
0
100
AcDbLine
 62
7
  6
CONTINUOUS
 10
231.2385656101
 20
75.966604842
 11
229.6122703072
 21
76.00638034
  0
LINE
  5
28D
100
AcDbEntity
  8
0
100
AcDbLine
 62
7
  6
CONTINUOUS
 10
174.3508049702
 20
99.83792283
 11
222.1183447364
 21
66.8931415224
  0
LINE
  5
28E
100
AcDbEntity
  8
0
100
AcDbLine
 62
7
  6
CONTINUOUS
 10
178.4036748532
 20
100.0219501178
 11
226.1712146194
 21
67.0771688102
  0
LINE
  5
28F
100
AcDbEntity
  8
0
100
AcDbLine
 62
7
  6
CONTINUOUS
 10
174.3331274936
 20
107.0498358077
 11
175.3545926392
 21
106.1019882481
  0
LINE
  5
290
100
AcDbEntity
  8
0
100
AcDbLine
 62
7
  6
CONTINUOUS
 10
183.5918121687
 20
111.6243826407
 11
183.4710258439
 21
108.9113861496
  0
LINE
  5
291
100
AcDbEntity
  8
0
100
AcDbLine
 62
7
  6
CONTINUOUS
 10
185.2557703707
 20
118.8237337577
 11
185.2190093154
 21
117.9980391734
  0
LINE
  5
292
100
AcDbEntity
  8
0
100
AcDbLine
 62
7
  6
CONTINUOUS
 10
181.8447305409
 20
108.9511616475
 11
229.6122703072
 21
76.00638034
  0
LINE
  5
293
100
AcDbEntity
  8
0
100
AcDbLine
 62
7
  6
CONTINUOUS
 10
183.4710258439
 20
108.9113861496
 11
231.2385656101
 21
75.966604842
  0
LINE
  5
294
100
AcDbEntity
  8
0
100
AcDbLine
 62
7
  6
CONTINUOUS
 10
183.5918121687
 20
111.6243826407
 11
231.359351935
 21
78.6796013332
  0
LINE
  5
295
100
AcDbEntity
  8
0
100
AcDbLine
 62
7
  6
CONTINUOUS
 10
180.9639917034
 20
141.1265359396
 11
180.9059558033
 21
141.2458900659
  0
LINE
  5
296
100
AcDbEntity
  8
0
100
AcDbLine
 62
7
  6
CONTINUOUS
 10
213.4270645042
 20
177.9577832674
 11
210.0460170795
 21
165.5227723682
  0
LINE
  5
297
100
AcDbEntity
  8
0
100
AcDbLine
 62
7
  6
CONTINUOUS
 10
185.2190093154
 20
117.9980391734
 11
232.9865490816
 21
85.0532578659
  0
LINE
  5
298
100
AcDbEntity
  8
0
100
AcDbLine
 62
7
  6
CONTINUOUS
 10
185.2557703707
 20
118.8237337577
 11
233.023310137
 21
85.8789524501
  0
LINE
  5
299
100
AcDbEntity
  8
0
100
AcDbLine
 62
7
  6
CONTINUOUS
 10
178.4036748532
 20
100.0219501178
 11
174.3508049702
 21
99.83792283
  0
LINE
  5
29A
100
AcDbEntity
  8
0
100
AcDbLine
 62
7
  6
CONTINUOUS
 10
183.3992972352
 20
124.6119222354
 11
231.1668370015
 21
91.6671409278
  0
LINE
  5
29B
100
AcDbEntity
  8
0
100
AcDbLine
 62
7
  6
CONTINUOUS
 10
174.7859138604
 20
104.5192169438
 11
174.3393801172
 21
104.4989413377
  0
LINE
  5
29C
100
AcDbEntity
  8
0
100
AcDbLine
 62
7
  6
CONTINUOUS
 10
183.4710258439
 20
108.9113861496
 11
181.8447305409
 21
108.9511616475
  0
LINE
  5
29D
100
AcDbEntity
  8
0
100
AcDbLine
 62
7
  6
CONTINUOUS
 10
214.7861098145
 20
161.8740013913
 11
214.8946428947
 21
159.9790518143
  0
LINE
  5
29E
100
AcDbEntity
  8
0
100
AcDbLine
 62
7
  6
CONTINUOUS
 10
177.2872004302
 20
113.4332382302
 11
174.3917047574
 21
112.3046429646
  0
LINE
  5
29F
100
AcDbEntity
  8
0
100
AcDbLine
 62
7
  6
CONTINUOUS
 10
221.6980430532
 20
177.9911265859
 11
221.6984883225
 21
177.8094692431
  0
LINE
  5
2A0
100
AcDbEntity
  8
0
100
AcDbLine
 62
7
  6
CONTINUOUS
 10
223.9008289458
 20
173.0724702458
 11
223.6994209571
 21
170.4742759567
  0
LINE
  5
2A1
100
AcDbEntity
  8
0
100
AcDbLine
 62
7
  6
CONTINUOUS
 10
225.7933505021
 20
178.0076362576
 11
225.8056005792
 21
173.0099495493
  0
LINE
  5
2A2
100
AcDbEntity
  8
0
100
AcDbLine
 62
7
  6
CONTINUOUS
 10
231.359351935
 20
78.6796013332
 11
231.2385656101
 21
75.966604842
  0
LINE
  5
2A3
100
AcDbEntity
  8
0
100
AcDbLine
 62
7
  6
CONTINUOUS
 10
233.023310137
 20
85.8789524501
 11
232.9865490816
 21
85.0532578659
  0
LINE
  5
2A4
100
AcDbEntity
  8
0
100
AcDbLine
 62
7
  6
CONTINUOUS
 10
273.5731403454
 20
140.0651682418
 11
271.668368712
 21
140.1276889382
  0
LINE
  5
2A5
100
AcDbEntity
  8
0
100
AcDbLine
 62
7
  6
CONTINUOUS
 10
189.5571761668
 20
154.3674541599
 11
189.6936253853
 21
154.3585228965
  0
LINE
  5
2A6
100
AcDbEntity
  8
0
100
AcDbLine
 62
7
  6
CONTINUOUS
 10
214.8946428947
 20
159.9790518143
 11
262.662182661
 21
127.0342705067
  0
LINE
  5
2A7
100
AcDbEntity
  8
0
100
AcDbLine
 62
7
  6
CONTINUOUS
 10
214.7861098145
 20
161.8740013913
 11
262.5536495808
 21
128.9292200837
  0
LINE
  5
2A8
100
AcDbEntity
  8
0
100
AcDbLine
 62
7
  6
CONTINUOUS
 10
262.5536495808
 20
128.9292200837
 11
262.662182661
 21
127.0342705067
  0
LINE
  5
2A9
100
AcDbEntity
  8
0
100
AcDbLine
 62
7
  6
CONTINUOUS
 10
223.6994209571
 20
170.4742759567
 11
271.4669607233
 21
137.5294946491
  0
LINE
  5
2AA
100
AcDbEntity
  8
0
100
AcDbLine
 62
7
  6
CONTINUOUS
 10
223.9008289458
 20
173.0724702458
 11
271.668368712
 21
140.1276889382
  0
LINE
  5
2AB
100
AcDbEntity
  8
0
100
AcDbLine
 62
7
  6
CONTINUOUS
 10
225.8056005792
 20
173.0099495493
 11
273.5731403454
 21
140.0651682418
  0
LINE
  5
2AC
100
AcDbEntity
  8
0
100
AcDbLine
 62
7
  6
CONTINUOUS
 10
273.5608902684
 20
145.0628549501
 11
273.5731403454
 21
140.0651682418
  0
LINE
  5
2AD
100
AcDbEntity
  8
0
100
AcDbLine
 62
7
  6
CONTINUOUS
 10
271.668368712
 20
140.1276889382
 11
271.4669607233
 21
137.5294946491
  0
LINE
  5
2AE
100
AcDbEntity
  8
0
100
AcDbLine
 62
7
  6
CONTINUOUS
 10
220.3519676445
 20
177.0149283473
 11
218.6907096893
 21
177.9790029329
  0
LINE
  5
2AF
100
AcDbEntity
  8
0
100
AcDbLine
 62
7
  6
CONTINUOUS
 10
225.7933505021
 20
178.0076362576
 11
273.5608902684
 21
145.0628549501
  0
LINE
  5
2B0
100
AcDbEntity
  8
0
100
AcDbLine
 62
7
  6
CONTINUOUS
 10
225.8056005792
 20
173.0099495493
 11
223.9008289458
 21
173.0724702458
  0
LINE
  5
2B1
100
AcDbEntity
  8
0
100
AcDbLine
 62
7
  6
CONTINUOUS
 10
225.7933505021
 20
178.0076362576
 11
221.6980430532
 21
177.9911265859
  0
LINE
  5
2B2
100
AcDbEntity
  8
0
100
AcDbLine
 62
7
  6
CONTINUOUS
 10
218.6907096893
 20
177.9790029329
 11
213.4270645042
 21
177.9577832674
  0
LINE
  5
2B3
100
AcDbEntity
  8
0
100
AcDbLine
 62
7
  6
CONTINUOUS
 10
30.6213794812
 20
37.0361069935
 11
32.6619785151
 21
35.131145377
  0
LINE
  5
2B4
100
AcDbEntity
  8
0
100
AcDbLine
 62
7
  6
CONTINUOUS
 10
38.7372300903
 20
22.9398889705
 11
30.6213794812
 21
22.6043300174
  0
LINE
  5
2B5
100
AcDbEntity
  8
0
100
AcDbLine
 62
7
  6
CONTINUOUS
 10
31.5155609516
 20
31.9684766689
 11
30.6213794812
 21
31.9315057323
  0
LINE
  5
2B6
100
AcDbEntity
  8
0
100
AcDbLine
 62
7
  6
CONTINUOUS
 10
48.9270726949
 20
40.6875069382
 11
45.6709825431
 21
40.780220472
  0
LINE
  5
2B7
100
AcDbEntity
  8
0
100
AcDbLine
 62
7
  6
CONTINUOUS
 10
30.6213794812
 20
47.4660335749
 11
30.6213794812
 21
37.0361069935
  0
LINE
  5
2B8
100
AcDbEntity
  8
0
100
AcDbLine
 62
7
  6
CONTINUOUS
 10
30.6213794812
 20
31.9315057323
 11
30.6213794812
 21
22.6043300174
  0
LINE
  5
2B9
100
AcDbEntity
  8
0
100
AcDbLine
 62
7
  6
CONTINUOUS
 10
49.1822347852
 20
46.1154629163
 11
48.9270726949
 21
40.6875069382
  0
LINE
  5
2BA
100
AcDbEntity
  8
0
100
AcDbLine
 62
7
  6
CONTINUOUS
 10
44.0866095159
 20
107.4334307283
 11
59.5398936049
 21
130.7091736821
  0
LINE
  5
2BB
100
AcDbEntity
  8
0
100
AcDbLine
 62
7
  6
CONTINUOUS
 10
44.0654164076
 20
105.1729106759
 11
43.9497985308
 21
105.4122163353
  0
LINE
  5
2BC
100
AcDbEntity
  8
0
100
AcDbLine
 62
7
  6
CONTINUOUS
 10
52.5492649763
 20
60.5085366616
 11
52.4716069488
 21
58.8565500595
  0
LINE
  5
2BD
100
AcDbEntity
  8
0
100
AcDbLine
 62
7
  6
CONTINUOUS
 10
109.2460773225
 20
178.6134003452
 11
102.4152717284
 21
153.7571902464
  0
LINE
  5
2BE
100
AcDbEntity
  8
0
100
AcDbLine
 62
7
  6
CONTINUOUS
 10
36.5675655679
 20
49.7859924403
 11
30.7644569876
 21
47.5509381946
  0
LINE
  5
2BF
100
AcDbEntity
  8
0
100
AcDbLine
 62
7
  6
CONTINUOUS
 10
61.3362927508
 20
131.5997611964
 11
61.6094573515
 21
131.5807882514
  0
LINE
  5
2C0
100
AcDbEntity
  8
0
100
AcDbLine
 62
7
  6
CONTINUOUS
 10
111.8883184675
 20
146.4174589692
 11
112.0963310411
 21
142.624632587
  0
LINE
  5
2C1
100
AcDbEntity
  8
0
100
AcDbLine
 62
7
  6
CONTINUOUS
 10
125.806988792
 20
178.6134003452
 11
125.806988792
 21
178.2498853852
  0
LINE
  5
2C2
100
AcDbEntity
  8
0
100
AcDbLine
 62
7
  6
CONTINUOUS
 10
130.1934249429
 20
168.7529921089
 11
129.7773997957
 21
163.5554152147
  0
LINE
  5
2C3
100
AcDbEntity
  8
0
100
AcDbLine
 62
7
  6
CONTINUOUS
 10
134.006988792
 20
178.6134003452
 11
134.006988792
 21
168.6125170577
  0
LINE
  5
2C4
100
AcDbEntity
  8
0
100
AcDbLine
 62
7
  6
CONTINUOUS
 10
134.006988792
 20
168.6125170577
 11
130.1934249429
 21
168.7529921089
  0
LINE
  5
2C5
100
AcDbEntity
  8
0
100
AcDbLine
 62
7
  6
CONTINUOUS
 10
134.006988792
 20
178.6134003452
 11
125.806988792
 21
178.6134003452
  0
LINE
  5
2C6
100
AcDbEntity
  8
0
100
AcDbLine
 62
7
  6
CONTINUOUS
 10
119.785430242
 20
178.6134003452
 11
109.2460773225
 21
178.6134003452
  0
LINE
  5
2C7
100
AcDbEntity
  8
0
100
AcDbLine
 62
7
  6
CONTINUOUS
 10
123.106988792
 20
176.6708058409
 11
119.785430242
 21
178.6134003452
  0
SPLINE
  5
2C8
100
AcDbEntity
  8
0
100
AcDbSpline
 62
7
  6
CONTINUOUS
 70
0
 71
3
 72
25
 73
21
 74
0
 42
0.0000001
 43
0.0000001
 44
0.0000000001
 40
0.0
 40
0.0
 40
0.0
 40
0.0
 40
0.0768610247
 40
0.1402387778
 40
0.1688331646
 40
0.196307431
 40
0.2233137715
 40
0.2503801817
 40
0.3059849707
 40
0.3644221278
 40
0.4251252476
 40
0.4865608888
 40
0.5470036543
 40
0.6052859937
 40
0.6612651255
 40
0.7165139163
 40
0.7739695142
 40
0.8375466814
 40
0.9115331841
 40
1.0
 40
1.0
 40
1.0
 40
1.0
 10
262.5536495808
 20
128.9292200837
 30
0.0
 10
262.9091134481
 20
128.9247788642
 30
0.0
 10
263.561426769
 20
128.9665783544
 30
0.0
 10
264.3160100081
 20
129.2043790395
 30
0.0
 10
264.7939886546
 20
129.4852367192
 30
0.0
 10
265.0941956184
 20
129.7272388713
 30
0.0
 10
265.352033306
 20
130.0041264523
 30
0.0
 10
265.6473340463
 20
130.4181100038
 30
0.0
 10
265.931896563
 20
131.0103171353
 30
0.0
 10
266.1728283049
 20
131.7831000646
 30
0.0
 10
266.3587670015
 20
132.5976533073
 30
0.0
 10
266.5291400906
 20
133.4246812571
 30
0.0
 10
266.7232488768
 20
134.2353894671
 30
0.0
 10
266.9767006276
 20
135.0044587591
 30
0.0
 10
267.3303822008
 20
135.7085667561
 30
0.0
 10
267.8151018773
 20
136.3278259562
 30
0.0
 10
268.4588234244
 20
136.8407948451
 30
0.0
 10
269.2829805394
 20
137.2254054583
 30
0.0
 10
270.3056601938
 20
137.4677199686
 30
0.0
 10
271.057854587
 20
137.5222764074
 30
0.0
 10
271.4669607233
 20
137.5294946491
 30
0.0
  0
SPLINE
  5
2C9
100
AcDbEntity
  8
0
100
AcDbSpline
 62
7
  6
CONTINUOUS
 70
0
 71
3
 72
20
 73
16
 74
0
 42
0.0000001
 43
0.0000001
 44
0.0000000001
 40
0.0
 40
0.0
 40
0.0
 40
0.0
 40
0.1372287824
 40
0.2625353365
 40
0.3219037918
 40
0.3797383553
 40
0.4366097132
 40
0.4931126117
 40
0.5498512706
 40
0.6074315959
 40
0.6664371947
 40
0.7274118242
 40
0.7908496516
 40
0.857190802
 40
1.0
 40
1.0
 40
1.0
 40
1.0
 10
231.1668370015
 20
91.6671409278
 30
0.0
 10
231.1909271559
 20
94.0628204354
 30
0.0
 10
231.5208298182
 20
98.6517988252
 30
0.0
 10
232.8110392944
 20
104.1528621368
 30
0.0
 10
234.3518369535
 20
108.1027939469
 30
0.0
 10
235.7305440188
 20
110.8169503932
 30
0.0
 10
237.352093326
 20
113.3342494535
 30
0.0
 10
239.2152052093
 20
115.6540340614
 30
0.0
 10
241.318505034
 20
117.7758277529
 30
0.0
 10
243.6613175266
 20
119.6990275595
 30
0.0
 10
246.2429700838
 20
121.4235817705
 30
0.0
 10
249.0628839414
 20
122.949800015
 30
0.0
 10
252.1209613641
 20
124.2783459267
 30
0.0
 10
256.625695939
 20
125.8245550329
 30
0.0
 10
260.2027438145
 20
126.6252028231
 30
0.0
 10
262.662182661
 20
127.0342705067
 30
0.0
  0
SPLINE
  5
2CA
100
AcDbEntity
  8
0
100
AcDbSpline
 62
7
  6
CONTINUOUS
 70
0
 71
3
 72
13
 73
9
 74
0
 42
0.0000001
 43
0.0000001
 44
0.0000000001
 40
0.0
 40
0.0
 40
0.0
 40
0.0
 40
0.1267720684
 40
0.2474084102
 40
0.3670792544
 40
0.4881246071
 40
0.7378377751
 40
1.0
 40
1.0
 40
1.0
 40
1.0
 10
233.023310137
 20
85.8789524501
 30
0.0
 10
232.8138487755
 20
86.0420392933
 30
0.0
 10
232.4400288091
 20
86.4086134452
 30
0.0
 10
232.0169281808
 20
87.0552052579
 30
0.0
 10
231.7041031203
 20
87.7467882766
 30
0.0
 10
231.4001646455
 20
88.7297954294
 30
0.0
 10
231.1917562274
 20
90.0449657419
 30
0.0
 10
231.1613169664
 20
91.1181932262
 30
0.0
 10
231.1668370015
 20
91.6671409278
 30
0.0
  0
SPLINE
  5
2CB
100
AcDbEntity
  8
0
100
AcDbSpline
 62
7
  6
CONTINUOUS
 70
0
 71
3
 72
21
 73
17
 74
0
 42
0.0000001
 43
0.0000001
 44
0.0000000001
 40
0.0
 40
0.0
 40
0.0
 40
0.0
 40
0.1269750983
 40
0.1830477396
 40
0.2361169699
 40
0.2877689177
 40
0.3394505719
 40
0.4471548805
 40
0.5047857754
 40
0.5645661928
 40
0.6262386138
 40
0.6900663153
 40
0.757020786
 40
0.829110191
 40
0.9090689331
 40
1.0
 40
1.0
 40
1.0
 40
1.0
 10
231.359351935
 20
78.6796013332
 30
0.0
 10
231.7390596385
 20
78.6739838636
 30
0.0
 10
232.2938703619
 20
78.7248318325
 30
0.0
 10
232.9629089539
 20
78.9596239915
 30
0.0
 10
233.3847693765
 20
79.1958105174
 30
0.0
 10
233.7474006823
 20
79.4952199016
 30
0.0
 10
234.1588895257
 20
79.9774589275
 30
0.0
 10
234.4521499297
 20
80.5681887865
 30
0.0
 10
234.6374780818
 20
81.2163351854
 30
0.0
 10
234.715959289
 20
81.7480940801
 30
0.0
 10
234.7156899044
 20
82.3043800144
 30
0.0
 10
234.6217055604
 20
82.8750727919
 30
0.0
 10
234.4175476664
 20
83.4500838076
 30
0.0
 10
234.0842121423
 20
84.0184686527
 30
0.0
 10
233.605063634
 20
84.5697300994
 30
0.0
 10
233.2079668792
 20
84.8953607324
 30
0.0
 10
232.9865490816
 20
85.0532578659
 30
0.0
  0
SPLINE
  5
2CC
100
AcDbEntity
  8
0
100
AcDbSpline
 62
7
  6
CONTINUOUS
 70
0
 71
3
 72
20
 73
16
 74
0
 42
0.0000001
 43
0.0000001
 44
0.0000000001
 40
0.0
 40
0.0
 40
0.0
 40
0.0
 40
0.0679774924
 40
0.1309232046
 40
0.1912316956
 40
0.2507926613
 40
0.3108775346
 40
0.3720467986
 40
0.4967242772
 40
0.62158333
 40
0.7443976034
 40
0.805285162
 40
0.8668866325
 40
0.9309578442
 40
1.0
 40
1.0
 40
1.0
 40
1.0
 10
226.1712146194
 20
67.0771688102
 30
0.0
 10
226.1289383138
 20
67.2977108525
 30
0.0
 10
226.0809691597
 20
67.7301173322
 30
0.0
 10
226.125311128
 20
68.3636379902
 30
0.0
 10
226.2750423151
 20
68.9518216416
 30
0.0
 10
226.5144312364
 20
69.4984766126
 30
0.0
 10
226.8275327298
 20
70.0086451508
 30
0.0
 10
227.3103782494
 20
70.662469457
 30
0.0
 10
227.9648312115
 20
71.4537936301
 30
0.0
 10
228.6760663957
 20
72.4582169305
 30
0.0
 10
229.1918727951
 20
73.3419288995
 30
0.0
 10
229.4916591592
 20
74.0968167209
 30
0.0
 10
229.6405244122
 20
74.6972479222
 30
0.0
 10
229.6927233139
 20
75.3413434746
 30
0.0
 10
229.6514878366
 20
75.7817028386
 30
0.0
 10
229.6122703072
 20
76.00638034
 30
0.0
  0
SPLINE
  5
2CD
100
AcDbEntity
  8
0
100
AcDbSpline
 62
7
  6
CONTINUOUS
 70
0
 71
3
 72
11
 73
7
 74
0
 42
0.0000001
 43
0.0000001
 44
0.0000000001
 40
0.0
 40
0.0
 40
0.0
 40
0.0
 40
0.2639507723
 40
0.5166881938
 40
0.7610738278
 40
1.0
 40
1.0
 40
1.0
 40
1.0
 10
208.2598435918
 20
163.7412809035
 30
0.0
 10
206.5389124944
 20
163.2907068443
 30
0.0
 10
203.2075382064
 20
162.253629384
 30
0.0
 10
198.4914210571
 20
160.2090544492
 30
0.0
 10
194.1985011691
 20
157.698139685
 30
0.0
 10
191.6194708507
 20
155.6887042457
 30
0.0
 10
190.4221875548
 20
154.6118954715
 30
0.0
  0
SPLINE
  5
2CE
100
AcDbEntity
  8
0
100
AcDbSpline
 62
7
  6
CONTINUOUS
 70
0
 71
3
 72
11
 73
7
 74
0
 42
0.0000001
 43
0.0000001
 44
0.0000000001
 40
0.0
 40
0.0
 40
0.0
 40
0.0
 40
0.2313153665
 40
0.4732052267
 40
0.7286712554
 40
1.0
 40
1.0
 40
1.0
 40
1.0
 10
181.0085000854
 20
140.3386141657
 30
0.0
 10
180.3790550194
 20
138.5531395939
 30
0.0
 10
179.3577606681
 20
134.8025256433
 30
0.0
 10
178.5353321872
 20
128.8825160124
 30
0.0
 10
178.3608636099
 20
122.5829300962
 30
0.0
 10
178.6460342015
 20
118.2747730468
 30
0.0
 10
178.877160548
 20
116.0661707633
 30
0.0
  0
SPLINE
  5
2CF
100
AcDbEntity
  8
0
100
AcDbSpline
 62
7
  6
CONTINUOUS
 70
0
 71
3
 72
13
 73
9
 74
0
 42
0.0000001
 43
0.0000001
 44
0.0000000001
 40
0.0
 40
0.0
 40
0.0
 40
0.0
 40
0.1267720684
 40
0.2474084102
 40
0.3670792544
 40
0.4881246071
 40
0.7378377751
 40
1.0
 40
1.0
 40
1.0
 40
1.0
 10
185.2557703707
 20
118.8237337577
 30
0.0
 10
185.0463090092
 20
118.9868206009
 30
0.0
 10
184.6724890428
 20
119.3533947527
 30
0.0
 10
184.2493884146
 20
119.9999865655
 30
0.0
 10
183.936563354
 20
120.6915695842
 30
0.0
 10
183.6326248793
 20
121.674576737
 30
0.0
 10
183.4242164612
 20
122.9897470495
 30
0.0
 10
183.3937772001
 20
124.0629745338
 30
0.0
 10
183.3992972352
 20
124.6119222354
 30
0.0
  0
SPLINE
  5
2D0
100
AcDbEntity
  8
0
100
AcDbSpline
 62
7
  6
CONTINUOUS
 70
0
 71
3
 72
21
 73
17
 74
0
 42
0.0000001
 43
0.0000001
 44
0.0000000001
 40
0.0
 40
0.0
 40
0.0
 40
0.0
 40
0.1269750983
 40
0.1830477396
 40
0.2361169699
 40
0.2877689177
 40
0.3394505719
 40
0.4471548805
 40
0.5047857754
 40
0.5645661928
 40
0.6262386138
 40
0.6900663153
 40
0.757020786
 40
0.829110191
 40
0.9090689331
 40
1.0
 40
1.0
 40
1.0
 40
1.0
 10
183.5918121687
 20
111.6243826407
 30
0.0
 10
183.9715198723
 20
111.6187651712
 30
0.0
 10
184.5263305956
 20
111.6696131401
 30
0.0
 10
185.1953691877
 20
111.904405299
 30
0.0
 10
185.6172296103
 20
112.140591825
 30
0.0
 10
185.9798609161
 20
112.4400012092
 30
0.0
 10
186.3913497595
 20
112.9222402351
 30
0.0
 10
186.6846101634
 20
113.5129700941
 30
0.0
 10
186.8699383156
 20
114.161116493
 30
0.0
 10
186.9484195227
 20
114.6928753877
 30
0.0
 10
186.9481501382
 20
115.249161322
 30
0.0
 10
186.8541657942
 20
115.8198540995
 30
0.0
 10
186.6500079001
 20
116.3948651152
 30
0.0
 10
186.316672376
 20
116.9632499602
 30
0.0
 10
185.8375238678
 20
117.514511407
 30
0.0
 10
185.440427113
 20
117.8401420399
 30
0.0
 10
185.2190093154
 20
117.9980391734
 30
0.0
  0
SPLINE
  5
2D1
100
AcDbEntity
  8
0
100
AcDbSpline
 62
7
  6
CONTINUOUS
 70
0
 71
3
 72
25
 73
21
 74
0
 42
0.0000001
 43
0.0000001
 44
0.0000000001
 40
0.0
 40
0.0
 40
0.0
 40
0.0
 40
0.0768610247
 40
0.1402387778
 40
0.1688331646
 40
0.196307431
 40
0.2233137715
 40
0.2503801817
 40
0.3059849707
 40
0.3644221278
 40
0.4251252476
 40
0.4865608888
 40
0.5470036543
 40
0.6052859937
 40
0.6612651255
 40
0.7165139163
 40
0.7739695142
 40
0.8375466814
 40
0.9115331841
 40
1.0
 40
1.0
 40
1.0
 40
1.0
 10
214.7861098145
 20
161.8740013913
 30
0.0
 10
215.1415736818
 20
161.8695601718
 30
0.0
 10
215.7938870028
 20
161.9113596619
 30
0.0
 10
216.5484702418
 20
162.1491603471
 30
0.0
 10
217.0264488884
 20
162.4300180268
 30
0.0
 10
217.3266558521
 20
162.6720201788
 30
0.0
 10
217.5844935398
 20
162.9489077599
 30
0.0
 10
217.87979428
 20
163.3628913113
 30
0.0
 10
218.1643567967
 20
163.9550984429
 30
0.0
 10
218.4052885387
 20
164.7278813722
 30
0.0
 10
218.5912272352
 20
165.5424346149
 30
0.0
 10
218.7616003244
 20
166.3694625646
 30
0.0
 10
218.9557091105
 20
167.1801707747
 30
0.0
 10
219.2091608613
 20
167.9492400667
 30
0.0
 10
219.5628424346
 20
168.6533480637
 30
0.0
 10
220.047562111
 20
169.2726072638
 30
0.0
 10
220.6912836582
 20
169.7855761527
 30
0.0
 10
221.5154407732
 20
170.1701867659
 30
0.0
 10
222.5381204276
 20
170.4125012762
 30
0.0
 10
223.2903148208
 20
170.467057715
 30
0.0
 10
223.6994209571
 20
170.4742759567
 30
0.0
  0
SPLINE
  5
2D2
100
AcDbEntity
  8
0
100
AcDbSpline
 62
7
  6
CONTINUOUS
 70
0
 71
3
 72
20
 73
16
 74
0
 42
0.0000001
 43
0.0000001
 44
0.0000000001
 40
0.0
 40
0.0
 40
0.0
 40
0.0
 40
0.0679774924
 40
0.1309232046
 40
0.1912316956
 40
0.2507926613
 40
0.3108775346
 40
0.3720467986
 40
0.4967242772
 40
0.62158333
 40
0.7443976034
 40
0.805285162
 40
0.8668866325
 40
0.9309578442
 40
1.0
 40
1.0
 40
1.0
 40
1.0
 10
178.4036748532
 20
100.0219501178
 30
0.0
 10
178.3613985476
 20
100.2424921601
 30
0.0
 10
178.3134293934
 20
100.6748986397
 30
0.0
 10
178.3577713617
 20
101.3084192978
 30
0.0
 10
178.5075025489
 20
101.8966029492
 30
0.0
 10
178.7468914701
 20
102.4432579202
 30
0.0
 10
179.0599929635
 20
102.9534264584
 30
0.0
 10
179.5428384832
 20
103.6072507646
 30
0.0
 10
180.1972914452
 20
104.3985749377
 30
0.0
 10
180.9085266295
 20
105.402998238
 30
0.0
 10
181.4243330289
 20
106.2867102071
 30
0.0
 10
181.7241193929
 20
107.0415980285
 30
0.0
 10
181.8729846459
 20
107.6420292298
 30
0.0
 10
181.9251835477
 20
108.2861247822
 30
0.0
 10
181.8839480703
 20
108.7264841462
 30
0.0
 10
181.8447305409
 20
108.9511616475
 30
0.0
  0
SPLINE
  5
2D3
100
AcDbEntity
  8
0
100
AcDbSpline
 62
7
  6
CONTINUOUS
 70
0
 71
3
 72
20
 73
16
 74
0
 42
0.0000001
 43
0.0000001
 44
0.0000000001
 40
0.0
 40
0.0
 40
0.0
 40
0.0
 40
0.1372287824
 40
0.2625353365
 40
0.3219037918
 40
0.3797383553
 40
0.4366097132
 40
0.4931126117
 40
0.5498512706
 40
0.6074315959
 40
0.6664371947
 40
0.7274118242
 40
0.7908496516
 40
0.857190802
 40
1.0
 40
1.0
 40
1.0
 40
1.0
 10
183.3992972352
 20
124.6119222354
 30
0.0
 10
183.4233873896
 20
127.007601743
 30
0.0
 10
183.7532900519
 20
131.5965801327
 30
0.0
 10
185.0434995281
 20
137.0976434444
 30
0.0
 10
186.5842971872
 20
141.0475752545
 30
0.0
 10
187.9630042526
 20
143.7617317008
 30
0.0
 10
189.5845535598
 20
146.2790307611
 30
0.0
 10
191.447665443
 20
148.598815369
 30
0.0
 10
193.5509652677
 20
150.7206090604
 30
0.0
 10
195.8937777603
 20
152.6438088671
 30
0.0
 10
198.4754303175
 20
154.3683630781
 30
0.0
 10
201.2953441751
 20
155.8945813226
 30
0.0
 10
204.3534215978
 20
157.2231272343
 30
0.0
 10
208.8581561727
 20
158.7693363405
 30
0.0
 10
212.4352040483
 20
159.5699841307
 30
0.0
 10
214.8946428947
 20
159.9790518143
 30
0.0
  0
SPLINE
  5
2D4
100
AcDbEntity
  8
0
100
AcDbSpline
 62
7
  6
CONTINUOUS
 70
0
 71
3
 72
13
 73
9
 74
0
 42
0.0000001
 43
0.0000001
 44
0.0000000001
 40
0.0
 40
0.0
 40
0.0
 40
0.0
 40
0.25
 40
0.375
 40
0.5
 40
0.625
 40
0.75
 40
1.0
 40
1.0
 40
1.0
 40
1.0
 10
111.8883184675
 20
146.4174589692
 30
0.0
 10
115.0590559269
 20
146.3650904159
 30
0.0
 10
117.7327134073
 20
148.0116582183
 30
0.0
 10
119.1968056323
 20
152.0190220431
 30
0.0
 10
119.8495176869
 20
155.4158710465
 30
0.0
 10
120.6924061698
 20
158.6472473455
 30
0.0
 10
122.8276639203
 20
162.1311195052
 30
0.0
 10
126.1840777824
 20
163.5065320293
 30
0.0
 10
129.7773997957
 20
163.5554152147
 30
0.0
  0
SPLINE
  5
2D5
100
AcDbEntity
  8
0
100
AcDbSpline
 62
7
  6
CONTINUOUS
 70
0
 71
3
 72
9
 73
5
 74
0
 42
0.0000001
 43
0.0000001
 44
0.0000000001
 40
0.0
 40
0.0
 40
0.0
 40
0.0
 40
0.5
 40
1.0
 40
1.0
 40
1.0
 40
1.0
 10
48.8605086714
 20
72.1061568881
 30
0.0
 10
49.1128719996
 20
92.2714188344
 30
0.0
 10
60.0983804994
 20
124.1652261225
 30
0.0
 10
91.3491927065
 20
139.2608624146
 30
0.0
 10
112.0963310411
 20
142.624632587
 30
0.0
  0
SPLINE
  5
2D6
100
AcDbEntity
  8
0
100
AcDbSpline
 62
7
  6
CONTINUOUS
 70
0
 71
3
 72
10
 73
6
 74
0
 42
0.0000001
 43
0.0000001
 44
0.0000000001
 40
0.0
 40
0.0
 40
0.0
 40
0.0
 40
0.25
 40
0.5
 40
1.0
 40
1.0
 40
1.0
 40
1.0
 10
52.5492649763
 20
60.5085366616
 30
0.0
 10
51.6718004666
 20
61.196173331
 30
0.0
 10
50.4348387194
 20
62.8247947754
 30
0.0
 10
49.0630298637
 20
66.6211038775
 30
0.0
 10
48.8323829981
 20
69.8587559981
 30
0.0
 10
48.8605086714
 20
72.1061568881
 30
0.0
  0
SPLINE
  5
2D7
100
AcDbEntity
  8
0
100
AcDbSpline
 62
7
  6
CONTINUOUS
 70
0
 71
3
 72
11
 73
7
 74
0
 42
0.0000001
 43
0.0000001
 44
0.0000000001
 40
0.0
 40
0.0
 40
0.0
 40
0.0
 40
0.25
 40
0.5
 40
0.75
 40
1.0
 40
1.0
 40
1.0
 40
1.0
 10
49.1822347852
 20
46.1154629163
 30
0.0
 10
50.8615868304
 20
46.0838658085
 30
0.0
 10
53.536853147
 20
46.8315484511
 30
0.0
 10
55.7163920487
 20
49.9254417423
 30
0.0
 10
56.2744748978
 20
54.4524720525
 30
0.0
 10
54.3711415562
 20
57.4927241722
 30
0.0
 10
52.4716069488
 20
58.8565500595
 30
0.0
  0
SPLINE
  5
2D8
100
AcDbEntity
  8
0
100
AcDbSpline
 62
7
  6
CONTINUOUS
 70
0
 71
3
 72
13
 73
9
 74
0
 42
0.0000001
 43
0.0000001
 44
0.0000000001
 40
0.0
 40
0.0
 40
0.0
 40
0.0
 40
0.25
 40
0.375
 40
0.5
 40
0.625
 40
0.75
 40
1.0
 40
1.0
 40
1.0
 40
1.0
 10
38.7372300903
 20
22.9398889705
 30
0.0
 10
38.3858843389
 20
24.7968193485
 30
0.0
 10
38.8929668934
 20
27.1563889217
 30
0.0
 10
40.7592479563
 20
29.7725004751
 30
0.0
 10
42.349520149
 20
31.6823872414
 30
0.0
 10
43.7916014966
 20
33.7061376338
 30
0.0
 10
45.4365870477
 20
36.5129600647
 30
0.0
 10
45.9965859609
 20
38.8880613023
 30
0.0
 10
45.6709825431
 20
40.780220472
 30
0.0
  0
SPLINE
  5
2D9
100
AcDbEntity
  8
0
100
AcDbSpline
 62
7
  6
CONTINUOUS
 70
0
 71
3
 72
9
 73
5
 74
0
 42
0.0000001
 43
0.0000001
 44
0.0000000001
 40
0.0
 40
0.0
 40
0.0
 40
0.0
 40
0.3296617859
 40
1.0
 40
1.0
 40
1.0
 40
1.0
 10
44.1506672739
 20
103.5958549837
 30
0.0
 10
42.5056746873
 20
98.9712466568
 30
0.0
 10
38.7432899591
 20
84.188049746
 30
0.0
 10
38.5139261827
 20
67.2719610571
 30
0.0
 10
39.7640200972
 20
55.0418818572
 30
0.0
  0
SPLINE
  5
2DA
100
AcDbEntity
  8
0
100
AcDbSpline
 62
7
  6
CONTINUOUS
 70
0
 71
3
 72
10
 73
6
 74
0
 42
0.0000001
 43
0.0000001
 44
0.0000000001
 40
0.0
 40
0.0
 40
0.0
 40
0.0
 40
0.3781777523
 40
0.7563555046
 40
1.0
 40
1.0
 40
1.0
 40
1.0
 10
98.8301234448
 20
150.2066877017
 30
0.0
 10
93.4828611131
 20
148.8299268471
 30
0.0
 10
83.4015432367
 20
145.4242047376
 30
0.0
 10
71.7257458801
 20
139.0822032974
 30
0.0
 10
65.3948970595
 20
134.1581678042
 30
0.0
 10
63.0694804204
 20
132.081930353
 30
0.0
  0
ELLIPSE
  5
2DB
100
AcDbEntity
  8
0
100
AcDbEllipse
 62
7
  6
CONTINUOUS
 10
174.747020157
 20
105.4294908117
 30
0.0
 11
0.0501696582
 21
0.9098417723
 31
0.0
 40
0.9865140396
 41
-3.0424777593
 42
-0.6862832691
  0
ELLIPSE
  5
2DC
100
AcDbEntity
  8
0
100
AcDbEllipse
 62
7
  6
CONTINUOUS
 10
220.7995183947
 20
177.8058451688
 30
0.0
 11
0.0501696582
 21
0.9098417723
 31
0.0
 40
0.9865140396
 41
-3.6068702177
 42
-1.5124751154
  0
ELLIPSE
  5
2DD
100
AcDbEntity
  8
0
100
AcDbEllipse
 62
7
  6
CONTINUOUS
 10
174.4810308164
 20
112.0684185931
 30
0.0
 11
0.0139360162
 21
0.2527338256
 31
0.0
 40
0.9865140396
 41
0.4216539792
 42
0.7548337413
  0
ELLIPSE
  5
2DE
100
AcDbEntity
  8
0
100
AcDbEllipse
 62
7
  6
CONTINUOUS
 10
181.8020364845
 20
141.694555318
 30
0.0
 11
0.0557440647
 21
1.0109353026
 31
0.0
 40
0.9865140396
 41
1.037059809
 42
2.0842573602
  0
ELLIPSE
  5
2DF
100
AcDbEntity
  8
0
100
AcDbEllipse
 62
7
  6
CONTINUOUS
 10
207.6386893485
 20
166.1918584594
 30
0.0
 11
0.1393601617
 21
2.5273382565
 31
0.0
 40
0.9865140396
 41
-2.8343709185
 42
-1.7839808754
  0
ELLIPSE
  5
2E0
100
AcDbEntity
  8
0
100
AcDbEllipse
 62
7
  6
CONTINUOUS
 10
189.4913247505
 20
153.3571282939
 30
0.0
 11
0.0557440647
 21
1.0109353026
 31
0.0
 40
0.9865140396
 41
-0.0101377422
 42
1.037059809
  0
ELLIPSE
  5
2E1
100
AcDbEntity
  8
0
100
AcDbEllipse
 62
7
  6
CONTINUOUS
 10
176.3939398394
 20
115.7954819452
 30
0.0
 11
0.1393601617
 21
2.5273382565
 31
0.0
 40
0.9865140396
 41
-2.7199386744
 42
-1.4093013202
  0
ELLIPSE
  5
2E2
100
AcDbEntity
  8
0
100
AcDbEllipse
 62
7
  6
CONTINUOUS
 10
180.0679110222
 20
140.6778706875
 30
0.0
 11
0.0557440647
 21
1.0109353026
 31
0.0
 40
0.9865140396
 41
-1.8581613239
 42
-1.0573352934
  0
ELLIPSE
  5
2E3
100
AcDbEntity
  8
0
100
AcDbEllipse
 62
7
  6
CONTINUOUS
 10
189.7594768016
 20
155.3688487624
 30
0.0
 11
0.0557440647
 21
1.0109353026
 31
0.0
 40
0.9865140396
 41
-3.1517303958
 42
-2.3606118572
  0
ELLIPSE
  5
2E4
100
AcDbEntity
  8
0
100
AcDbEllipse
 62
7
  6
CONTINUOUS
 10
31.4421526865
 20
33.7903237269
 30
0.0
 11
0.0
 21
1.823364
 31
0.0
 40
0.9871863215
 41
-3.1007989707
 42
-0.7446044805
  0
ELLIPSE
  5
2E5
100
AcDbEntity
  8
0
100
AcDbEllipse
 62
7
  6
CONTINUOUS
 10
124.006988792
 20
178.2498853852
 30
0.0
 11
0.0
 21
1.823364
 31
0.0
 40
0.9871863215
 41
-3.6651914292
 42
-1.5707963268
  0
ELLIPSE
  5
2E6
100
AcDbEntity
  8
0
100
AcDbEllipse
 62
7
  6
CONTINUOUS
 10
30.9421526865
 20
47.0775130875
 30
0.0
 11
-0.0
 21
-0.50649
 31
0.0
 40
0.9871863215
 41
-2.7782598859
 42
-2.4450801237
  0
ELLIPSE
  5
2E7
100
AcDbEntity
  8
0
100
AcDbEllipse
 62
7
  6
CONTINUOUS
 10
45.7461976766
 20
106.3028038495
 30
0.0
 11
-0.0
 21
-2.02596
 31
0.0
 40
0.9871863215
 41
-2.1628540561
 42
-1.1156565049
  0
ELLIPSE
  5
2E8
100
AcDbEntity
  8
0
100
AcDbEllipse
 62
7
  6
CONTINUOUS
 10
61.1994817656
 20
129.5785468033
 30
0.0
 11
0.0
 21
2.02596
 31
0.0
 40
0.9871863215
 41
-0.0684589537
 42
0.9787385975
  0
ELLIPSE
  5
2E9
100
AcDbEntity
  8
0
100
AcDbEllipse
 62
7
  6
CONTINUOUS
 10
42.2690172618
 20
104.2823231617
 30
0.0
 11
0.0
 21
2.02596
 31
0.0
 40
0.9871863215
 41
-1.9164825353
 42
-1.1156565049
  0
ELLIPSE
  5
2EA
100
AcDbEntity
  8
0
100
AcDbEllipse
 62
7
  6
CONTINUOUS
 10
61.7462683367
 20
133.6020026444
 30
0.0
 11
0.0
 21
2.02596
 31
0.0
 40
0.9871863215
 41
-3.2100516072
 42
-2.4189330686
  0
ELLIPSE
  5
2EB
100
AcDbEntity
  8
0
100
AcDbEllipse
 62
7
  6
CONTINUOUS
 10
34.7906085789
 20
54.5202435113
 30
0.0
 11
0.0
 21
5.0649
 31
0.0
 40
0.9871863215
 41
-2.7782598859
 42
-1.4676225316
  0
ELLIPSE
  5
2EC
100
AcDbEntity
  8
0
100
AcDbEllipse
 62
7
  6
CONTINUOUS
 10
97.5984308765
 20
155.1155069877
 30
0.0
 11
0.0
 21
5.0649
 31
0.0
 40
0.9871863215
 41
-2.8926921299
 42
-1.8423020869
  0
ENDSEC
  0
SECTION
  2
OBJECTS
  0
DICTIONARY
  5
C
100
AcDbDictionary
280
0
281
1
  3
ACAD_GROUP
350
D
  3
ACAD_MLINESTYLE
350
17
  3
ACAD_LAYOUT
350
1A
  3
ACAD_PLOTSETTINGS
350
19
  3
ACAD_PLOTSTYLENAME
350
E
  3
ACAD_TABLESTYLE
350
       2ED
  0
DICTIONARY
  5
D
102
{ACAD_REACTORS
330
C
102
}
100
AcDbDictionary
280
0
281
1
  0
ACDBDICTIONARYWDFLT
  5
E
102
{ACAD_REACTORS
330
C
102
}
100
AcDbDictionary
281
1
  3
Normal
350
F
100
AcDbDictionaryWithDefault
340
F
  0
DICTIONARY
  5
17
102
{ACAD_REACTORS
330
C
102
}
100
AcDbDictionary
280
0
281
1
  3
Standard
350
18
  0
DICTIONARY
  5
2ED
330
C
100
AcDbDictionary
281
1
  3
Standard
350
       2F0
  3
Standard1
350
       2F1
  0
DICTIONARY
  5
19
102
{ACAD_REACTORS
330
C
102
}
100
AcDbDictionary
281
1
  0
DICTIONARY
  5
1A
102
{ACAD_REACTORS
330
C
102
}
100
AcDbDictionary
281
1
  3
Model
350
2EE
  3
Layout1
350
2EF
  0
ACDBPLACEHOLDER
  5
F
102
{ACAD_REACTORS
330
E
102
}
  0
MLINESTYLE
  5
18
102
{ACAD_REACTORS
330
17
102
}
100
AcDbMlineStyle
  2
STANDARD
 70
0
  3

 62
256
 51
90.0
 52
90.0
 71
2
 49
0.5
 62
256
  6
BYLAYER
 49
-0.5
 62
256
  6
BYLAYER
  0
LAYOUT
  5
2EE
102
{ACAD_REACTORS
330
1A
102
}
100
AcDbPlotSettings
  1

  2
none_device
  4
ISO_A4_(297.00_x_210.00_MM)
  6

 40
0.0
 41
0.0
 42
0.0
 43
0.0
 44
297.0
 45
210.0
 46
0.0
 47
0.0
 48
0.0
 49
0.0
140
0.0
141
0.0
142
1.0
143
1.0
 70
1024
 72
1
 73
0
 74
0
  7

 75
0
147
1.0
148
0.0
149
0.0
100
AcDbLayout
  1
Model
 70
0
 71
0
 10
0.0
 20
0.0
 11
297.0
 21
210.0
 12
0.0
 22
0.0
 32
0.0
 14
0.0
 24
0.0
 34
0.0
 15
0.0
 25
0.0
 35
0.0
146
0.0
 13
0.0
 23
0.0
 33
0.0
 16
1.0
 26
0.0
 36
0.0
 17
0.0
 27
1.0
 37
0.0
 76
0
330
20C
345
0
346
0
  0
LAYOUT
  5
2EF
102
{ACAD_REACTORS
330
1A
102
}
100
AcDbPlotSettings
  1

  2
none_device
  4
ISO_A4_(297.00_x_210.00_MM)
  6

 40
0.0
 41
0.0
 42
0.0
 43
0.0
 44
297.0
 45
210.0
 46
0.0
 47
0.0
 48
0.0
 49
0.0
140
0.0
141
0.0
142
1.0
143
1.0
 70
0
 72
1
 73
0
 74
0
  7

 75
0
147
1.0
148
0.0
149
0.0
100
AcDbLayout
  1
Layout1
 70
0
 71
1
 10
0.0
 20
0.0
 11
297.0
 21
210.0
 12
0.0
 22
0.0
 32
0.0
 14
0.0
 24
0.0
 34
0.0
 15
0.0
 25
0.0
 35
0.0
146
0.0
 13
0.0
 23
0.0
 33
0.0
 16
1.0
 26
0.0
 36
0.0
 17
0.0
 27
1.0
 37
0.0
 76
0
330
20D
345
0
346
0
  0
TABLESTYLE
  5
2F0
102
{ACAD_REACTORS
330
2ED
330
27C
102
}
330
2ED
100
AcDbTableStyle
  3
Standard
 70
0
 71
0
 40
0.06
 41
0.06
280
1
281
1
  7
Standard
140
0.18
170
1
 62
0
 63
7
283
0
  7
Standard
140
0.18
170
1
 62
0
 63
7
283
0
  7
Standard
140
0.18
170
1
 62
0
 63
7
283
0
  0
TABLESTYLE
  5
2F1
102
{ACAD_REACTORS
330
2ED
102
}
330
2ED
100
AcDbTableStyle
  3
Standard1
 70
1
 71
0
 40
0.06
 41
0.06
280
1
281
1
  7
Standard
140
0.18
170
1
 62
0
 63
7
283
0
  7
Standard
140
0.18
170
1
 62
0
 63
7
283
0
  7
Standard
140
0.18
170
1
 62
0
 63
7
283
0
  0
ENDSEC
  0
EOF
