999
DXF file: O:\ORAC_PRODUCTEN\ORAC_LIJN6\C-Type\C211\c211-prod-mm.dxf
999
Pro/ENGINEER 2018500 by Parametric Technology Corporation
  0
SECTION
  2
HEADER
  9
$ACADVER
  1
AC1024
  9
$DWGCODEPAGE
  3
ANSI_1250
  9
$EXTMAX
 10
297.0
 20
210.0
 30
0.0
  9
$EXTMIN
 10
0.0
 20
0.0
 30
0.0
  9
$LIMMIN
 10
0.0
 20
0.0
  9
$LIMMAX
 10
297.0
 20
210.0
  9
$VIEWCTR
 10
148.5
 20
105.0
  9
$VIEWSIZE
 40
210.0
  9
$CLAYER
  8
0
  9
$LTSCALE
 40
16.335
  9
$CELTYPE
  6
BYLAYER
  9
$DIMSCALE
 40
1.0
  9
$DIMASZ
 40
3.5
  9
$DIMEXO
 40
1.0
  9
$DIMDLI
 40
11.286
  9
$DIMEXE
 40
1.5
  9
$DIMCEN
 40
2.673
  9
$DIMLFAC
 40
1.0
  9
$DIMBLK
  1
_FILLED
  9
$DIMALT
 70
0
  9
$DIMALTF
 40
0.0393700787
  9
$DIMTXT
 40
2.5
  9
$DIMTOL
 70
1
  9
$DIMLIM
 70
0
  9
$DIMTFAC
 40
1.0
  9
$DIMTP
 40
0.001
  9
$DIMTM
 40
0.001
  9
$DIMGAP
 40
0.625
  9
$DIMDSEP
 70
44
  9
$AUNITS
 70
0
  9
$PDMODE
 70
3
  9
$PDSIZE
 40
8.0
  9
$HANDSEED
  5
59A
  9
$TILEMODE
 70
1
  9
$MEASUREMENT
 70
1
  9
$INSUNITS
 70
4
  0
ENDSEC
  0
SECTION
  2
CLASSES
  0
CLASS
  1
ACDBDICTIONARYWDFLT
  2
AcDbDictionaryWithDefault
  3
AutoCAD 2000
 90
0
 91
1
280
0
281
0
  0
CLASS
  1
ACDBPLACEHOLDER
  2
AcDbPlaceHolder
  3
AutoCAD 2000
 90
0
 91
1
280
0
281
0
  0
CLASS
  1
LAYOUT
  2
AcDbLayout
  3
AutoCAD 2000
 90
0
 91
0
280
0
281
0
  0
CLASS
  1
RASTERVARIABLES
  2
AcDbRasterVariables
  3
ISM
 90
0
 91
1
280
0
281
0
  0
CLASS
  1
IMAGEDEF
  2
AcDbRasterImageDef
  3
ISM
 90
0
 91
1
280
0
281
0
  0
CLASS
  1
IMAGEDEF_REACTOR
  2
AcDbRasterImageDefReactor
  3
ISM
 90
0
 91
1
280
0
281
0
  0
CLASS
  1
IMAGE
  2
AcDbRasterImage
  3
ISM
 90
127
 91
1
280
0
281
1
  0
CLASS
  1
TABLESTYLE
  2
AcDbTableStyle
  3
ObjectDBX Classes
 90
2047
 91
1
280
0
281
0
  0
CLASS
  1
ACAD_TABLE
  2
AcDbTable
  3
ObjectDBX Classes
 90
1025
 91
1
280
0
281
1
  0
ENDSEC
  0
SECTION
  2
TABLES
  0
TABLE
  2
VPORT
  5
8
100
AcDbSymbolTable
 70
2
  0
VPORT
  5
1F4
100
AcDbSymbolTableRecord
100
AcDbViewportTableRecord
  2
*ACTIVE
 70
0
 10
0.0
 20
0.0
 11
1.0
 21
1.0
 12
148.5
 22
105.0
 13
0.0
 23
0.0
 14
1.0
 24
1.0
 15
0.0
 25
0.0
 16
0.0
 26
0.0
 36
1.0
 17
0.0
 27
0.0
 37
0.0
 40
210.0
 41
1.4142857143
 42
50.0
 43
0.0
 44
0.0
 50
0.0
 51
0.0
 71
0
 72
100
 73
1
 74
1
 75
0
 76
0
 77
0
 78
0
  0
ENDTAB
  0
TABLE
  2
LTYPE
  5
5
100
AcDbSymbolTable
 70
6
  0
LTYPE
  5
14
100
AcDbSymbolTableRecord
100
AcDbLinetypeTableRecord
  2
BYBLOCK
 70
0
  3

 72
65
 73
0
 40
0.0
  0
LTYPE
  5
15
100
AcDbSymbolTableRecord
100
AcDbLinetypeTableRecord
  2
BYLAYER
 70
0
  3

 72
65
 73
0
 40
0.0
  0
LTYPE
  5
16
100
AcDbSymbolTableRecord
100
AcDbLinetypeTableRecord
  2
CONTINUOUS
 70
64
  3
Solid line
 72
65
 73
0
 40
0.0
  0
LTYPE
  5
1F5
100
AcDbSymbolTableRecord
100
AcDbLinetypeTableRecord
  2
CENTER
 70
64
  3
____ _ ____ _ ____ _ ____ _ ____ _ ____ _ ____
 72
65
 73
4
 40
0.6
 49
0.375
 74
0
 49
-0.075
 74
0
 49
0.075
 74
0
 49
-0.075
 74
0
  0
LTYPE
  5
1F6
100
AcDbSymbolTableRecord
100
AcDbLinetypeTableRecord
  2
HIDDEN
 70
64
  3
- - - - - - - - - - - - - - - - - - - -
 72
65
 73
2
 40
0.2
 49
0.1
 74
0
 49
-0.1
 74
0
  0
LTYPE
  5
1F7
100
AcDbSymbolTableRecord
100
AcDbLinetypeTableRecord
  2
PHANTOM
 70
64
  3
_____ _ _ _____ _ _ _____ _ _ _____
 72
65
 73
6
 40
0.8
 49
0.45
 74
0
 49
-0.05
 74
0
 49
0.1
 74
0
 49
-0.05
 74
0
 49
0.1
 74
0
 49
-0.05
 74
0
  0
LTYPE
  5
1F8
100
AcDbSymbolTableRecord
100
AcDbLinetypeTableRecord
  2
DOT
 70
64
  3
. . . . . . . . . . . . . . . . . . . .
 72
65
 73
2
 40
0.2
 49
0.1
 74
0
 49
-0.1
 74
0
  0
LTYPE
  5
1F9
100
AcDbSymbolTableRecord
100
AcDbLinetypeTableRecord
  2
DASHED
 70
64
  3
- - - - - - - - - - - - - - - - - - - -
 72
65
 73
2
 40
0.2
 49
0.1
 74
0
 49
-0.1
 74
0
  0
ENDTAB
  0
TABLE
  2
LAYER
  5
2
100
AcDbSymbolTable
 70
36
  0
LAYER
  5
10
100
AcDbSymbolTableRecord
100
AcDbLayerTableRecord
  2
0
 70
0
 62
7
  6
CONTINUOUS
370
-3
390
F
  0
LAYER
  5
1FA
100
AcDbSymbolTableRecord
100
AcDbLayerTableRecord
  2
DEFAULT_1
 70
0
 62
7
  6
CENTER
370
-3
390
F
  0
LAYER
  5
1FB
100
AcDbSymbolTableRecord
100
AcDbLayerTableRecord
  2
DEFAULT_2
 70
0
 62
8
  6
HIDDEN
370
-3
390
F
  0
LAYER
  5
1FC
100
AcDbSymbolTableRecord
100
AcDbLayerTableRecord
  2
DEFAULT_3
 70
0
 62
7
  6
PHANTOM
370
-3
390
F
  0
LAYER
  5
1FD
100
AcDbSymbolTableRecord
100
AcDbLayerTableRecord
  2
01___PRT_ALL_DTM_PLN
 70
0
 62
7
  6
CONTINUOUS
370
-3
390
F
  0
LAYER
  5
1FE
100
AcDbSymbolTableRecord
100
AcDbLayerTableRecord
  2
01___PRT_DEF_DTM_PLN
 70
0
 62
7
  6
CONTINUOUS
370
-3
390
F
  0
LAYER
  5
1FF
100
AcDbSymbolTableRecord
100
AcDbLayerTableRecord
  2
02___PRT_ALL_AXES
 70
0
 62
7
  6
CONTINUOUS
370
-3
390
F
  0
LAYER
  5
200
100
AcDbSymbolTableRecord
100
AcDbLayerTableRecord
  2
03___PRT_ALL_CURVES
 70
0
 62
7
  6
CONTINUOUS
370
-3
390
F
  0
LAYER
  5
201
100
AcDbSymbolTableRecord
100
AcDbLayerTableRecord
  2
04___PRT_ALL_DTM_PNT
 70
0
 62
7
  6
CONTINUOUS
370
-3
390
F
  0
LAYER
  5
202
100
AcDbSymbolTableRecord
100
AcDbLayerTableRecord
  2
05___PRT_ALL_DTM_CSYS
 70
0
 62
7
  6
CONTINUOUS
370
-3
390
F
  0
LAYER
  5
203
100
AcDbSymbolTableRecord
100
AcDbLayerTableRecord
  2
05___PRT_DEF_DTM_CSYS
 70
0
 62
7
  6
CONTINUOUS
370
-3
390
F
  0
LAYER
  5
204
100
AcDbSymbolTableRecord
100
AcDbLayerTableRecord
  2
06___PRT_ALL_SURFS
 70
0
 62
7
  6
CONTINUOUS
370
-3
390
F
  0
LAYER
  5
205
100
AcDbSymbolTableRecord
100
AcDbLayerTableRecord
  2
AXES
 70
0
 62
7
  6
CONTINUOUS
370
-3
390
F
  0
LAYER
  5
206
100
AcDbSymbolTableRecord
100
AcDbLayerTableRecord
  2
DTM_ALL
 70
0
 62
7
  6
CONTINUOUS
370
-3
390
F
  0
LAYER
  5
207
100
AcDbSymbolTableRecord
100
AcDbLayerTableRecord
  2
DTM_AXIS
 70
0
 62
7
  6
CONTINUOUS
370
-3
390
F
  0
LAYER
  5
208
100
AcDbSymbolTableRecord
100
AcDbLayerTableRecord
  2
DTM_CSYS
 70
0
 62
7
  6
CONTINUOUS
370
-3
390
F
  0
LAYER
  5
209
100
AcDbSymbolTableRecord
100
AcDbLayerTableRecord
  2
DTM_CURVE
 70
0
 62
7
  6
CONTINUOUS
370
-3
390
F
  0
LAYER
  5
20A
100
AcDbSymbolTableRecord
100
AcDbLayerTableRecord
  2
DTM_MASTER
 70
0
 62
7
  6
CONTINUOUS
370
-3
390
F
  0
LAYER
  5
20B
100
AcDbSymbolTableRecord
100
AcDbLayerTableRecord
  2
DTM_POINT
 70
0
 62
7
  6
CONTINUOUS
370
-3
390
F
  0
LAYER
  5
20C
100
AcDbSymbolTableRecord
100
AcDbLayerTableRecord
  2
DTM_QUILT
 70
0
 62
7
  6
CONTINUOUS
370
-3
390
F
  0
LAYER
  5
20D
100
AcDbSymbolTableRecord
100
AcDbLayerTableRecord
  2
GTOL
 70
0
 62
7
  6
CONTINUOUS
370
-3
390
F
  0
LAYER
  5
20E
100
AcDbSymbolTableRecord
100
AcDbLayerTableRecord
  2
NOTES
 70
0
 62
7
  6
CONTINUOUS
370
-3
390
F
  0
LAYER
  5
20F
100
AcDbSymbolTableRecord
100
AcDbLayerTableRecord
  2
REF_PLANS
 70
0
 62
7
  6
CONTINUOUS
370
-3
390
F
  0
LAYER
  5
210
100
AcDbSymbolTableRecord
100
AcDbLayerTableRecord
  2
XSEC_DATUMS
 70
0
 62
7
  6
CONTINUOUS
370
-3
390
F
  0
ENDTAB
  0
TABLE
  2
STYLE
  5
3
100
AcDbSymbolTable
 70
1
  0
STYLE
  5
11
100
AcDbSymbolTableRecord
100
AcDbTextStyleTableRecord
  2
STANDARD
 70
0
 40
0.0
 41
1.0
 50
0.0
 71
0
 42
0.2
  3
cgtime.ttf
  4

  0
STYLE
  5
211
100
AcDbSymbolTableRecord
100
AcDbTextStyleTableRecord
  2
TEXTSTYLE_1
 70
0
 40
0.0
 41
0.8
 50
0.0
 71
0
 42
0.2
  3
gdt
  4

  0
STYLE
  5
212
100
AcDbSymbolTableRecord
100
AcDbTextStyleTableRecord
  2
TEXTSTYLE_2
 70
0
 40
0.0
 41
1.0
 50
0.0
 71
0
 42
0.2
  3
trium.ttf
  4

  0
STYLE
  5
213
100
AcDbSymbolTableRecord
100
AcDbTextStyleTableRecord
  2
TEXTSTYLE_3
 70
0
 40
0.0
 41
1.0
 50
0.0
 71
0
 42
0.2
  3
calibri.ttf
  4

  0
ENDTAB
  0
TABLE
  2
VIEW
  5
6
100
AcDbSymbolTable
 70
0
  0
ENDTAB
  0
TABLE
  2
UCS
  5
7
100
AcDbSymbolTable
 70
0
  0
ENDTAB
  0
TABLE
  2
APPID
  5
9
100
AcDbSymbolTable
 70
1
  0
APPID
  5
214
100
AcDbSymbolTableRecord
100
AcDbRegAppTableRecord
  2
ACAD
 70
0
  0
ENDTAB
  0
TABLE
  2
BLOCK_RECORD
  5
1
100
AcDbSymbolTable
 70
0
  0
BLOCK_RECORD
  5
215
100
AcDbSymbolTableRecord
100
AcDbBlockTableRecord
  2
*Model_Space
  0
BLOCK_RECORD
  5
216
100
AcDbSymbolTableRecord
100
AcDbBlockTableRecord
  2
*Paper_Space
  0
BLOCK_RECORD
  5
217
100
AcDbSymbolTableRecord
100
AcDbBlockTableRecord
  2
_FILLED
  0
BLOCK_RECORD
  5
218
100
AcDbSymbolTableRecord
100
AcDbBlockTableRecord
  2
*D0
  0
BLOCK_RECORD
  5
219
100
AcDbSymbolTableRecord
100
AcDbBlockTableRecord
  2
*D1
  0
BLOCK_RECORD
  5
21A
100
AcDbSymbolTableRecord
100
AcDbBlockTableRecord
  2
*D2
  0
BLOCK_RECORD
  5
21B
100
AcDbSymbolTableRecord
100
AcDbBlockTableRecord
  2
*D3
  0
BLOCK_RECORD
  5
21C
100
AcDbSymbolTableRecord
100
AcDbBlockTableRecord
  2
*D4
  0
BLOCK_RECORD
  5
21D
100
AcDbSymbolTableRecord
100
AcDbBlockTableRecord
  2
*D5
  0
BLOCK_RECORD
  5
21E
100
AcDbSymbolTableRecord
100
AcDbBlockTableRecord
  2
*D6
  0
BLOCK_RECORD
  5
21F
100
AcDbSymbolTableRecord
100
AcDbBlockTableRecord
  2
*D7
  0
BLOCK_RECORD
  5
220
100
AcDbSymbolTableRecord
100
AcDbBlockTableRecord
  2
*D8
  0
BLOCK_RECORD
  5
221
100
AcDbSymbolTableRecord
100
AcDbBlockTableRecord
  2
*D9
  0
BLOCK_RECORD
  5
222
100
AcDbSymbolTableRecord
100
AcDbBlockTableRecord
  2
*T1
  0
ENDTAB
  0
TABLE
  2
DIMSTYLE
  5
A
100
AcDbSymbolTable
 70
1
100
AcDbDimStyleTable
 71
0
  0
DIMSTYLE
105
223
100
AcDbSymbolTableRecord
100
AcDbDimStyleTableRecord
  2
STANDARD
 70
0
  3

  4

 40
1.0
 41
3.5
 42
1.0
 43
0.38
 44
1.5
 45
0.0
 46
0.0
 47
0.001
 48
0.001
140
2.5
141
0.09
142
0.0
143
25.4
144
1.0
145
0.0
146
1.0
147
0.625
 71
1.0
 72
0.0
 73
1
 74
1
 75
0
 76
0
 77
0
 78
8
 79
2
170
0
171
2
172
0
173
0
174
0
175
0
176
0
177
0
178
0
270
2
179
3
271
3
272
3
273
2
274
2
275
0
280
0
281
0
282
0
283
1
284
8
285
0
286
0
287
3
288
0
340
11
278
44
341
217
342
217
343
217
344
217
  0
DIMSTYLE
105
224
100
AcDbSymbolTableRecord
100
AcDbDimStyleTableRecord
  2
DIMSTYLE_1
 70
0
  3

  4

 40
1.0
 41
3.5
 42
1.0
 43
0.38
 44
1.5
 45
0.0
 46
0.0
 47
0.0
 48
0.0
140
2.5
141
0.09
142
0.0
143
25.4
144
1.0
145
0.0
146
1.0
147
1.25
 71
0.0
 72
0.0
 73
1
 74
1
 75
0
 76
0
 77
0
 78
8
 79
2
170
0
171
2
172
0
173
0
174
0
175
0
176
0
177
0
178
0
270
2
179
3
271
0
272
0
273
2
274
2
275
0
280
0
281
0
282
0
283
1
284
8
285
0
286
0
287
3
288
0
340
11
278
44
341
217
342
217
343
217
344
217
  0
DIMSTYLE
105
225
100
AcDbSymbolTableRecord
100
AcDbDimStyleTableRecord
  2
DIMSTYLE_2
 70
0
  3

  4

 40
1.0
 41
3.5
 42
1.0
 43
0.38
 44
1.5
 45
0.0
 46
0.0
 47
0.0
 48
0.0
140
2.5
141
0.09
142
0.0
143
25.4
144
1.0
145
0.0
146
1.0
147
1.25
 71
0.0
 72
0.0
 73
1
 74
1
 75
0
 76
0
 77
0
 78
8
 79
2
170
0
171
2
172
0
173
0
174
0
175
0
176
0
177
0
178
0
270
2
179
3
271
1
272
1
273
2
274
2
275
0
280
0
281
0
282
0
283
1
284
8
285
0
286
0
287
3
288
0
340
11
278
44
341
217
342
217
343
217
344
217
  0
DIMSTYLE
105
226
100
AcDbSymbolTableRecord
100
AcDbDimStyleTableRecord
  2
DIMSTYLE_3
 70
0
  3

  4

 40
1.0
 41
3.5
 42
1.0
 43
0.38
 44
1.5
 45
0.0
 46
0.0
 47
0.0
 48
0.0
140
2.5
141
0.09
142
0.0
143
25.4
144
2.0
145
0.0
146
1.0
147
1.25
 71
0.0
 72
0.0
 73
1
 74
1
 75
0
 76
0
 77
0
 78
8
 79
2
170
0
171
2
172
0
173
0
174
0
175
0
176
0
177
0
178
0
270
2
179
3
271
3
272
3
273
2
274
2
275
0
280
0
281
0
282
0
283
1
284
8
285
0
286
0
287
3
288
0
340
11
278
44
341
217
342
217
343
217
344
217
  0
DIMSTYLE
105
227
100
AcDbSymbolTableRecord
100
AcDbDimStyleTableRecord
  2
DIMSTYLE_4
 70
0
  3

  4

 40
1.0
 41
3.5
 42
1.0
 43
0.38
 44
1.5
 45
0.0
 46
0.0
 47
0.0
 48
0.0
140
2.5
141
0.09
142
0.0
143
25.4
144
2.0
145
0.0
146
1.0
147
1.25
 71
0.0
 72
0.0
 73
1
 74
1
 75
0
 76
0
 77
0
 78
8
 79
2
170
0
171
2
172
0
173
0
174
0
175
0
176
0
177
0
178
0
270
2
179
3
271
1
272
1
273
2
274
2
275
0
280
0
281
0
282
0
283
1
284
8
285
0
286
0
287
3
288
0
340
11
278
44
341
217
342
217
343
217
344
217
  0
ENDTAB
  0
ENDSEC
  0
SECTION
  2
BLOCKS
  0
BLOCK
  5
20
100
AcDbEntity
  8
0
100
AcDbBlockBegin
  2
*Model_Space
 70
0
 10
0.0
 20
0.0
 30
0.0
  3
*Model_Space
  1

  0
ENDBLK
  5
21
100
AcDbEntity
  8
0
100
AcDbBlockEnd
  0
BLOCK
  5
1C
100
AcDbEntity
  8
0
100
AcDbBlockBegin
  2
*Paper_Space
 70
0
 10
0.0
 20
0.0
 30
0.0
  3
*Paper_Space
  1

  0
ENDBLK
  5
1D
100
AcDbEntity
  8
0
100
AcDbBlockEnd
  0
BLOCK
  5
228
100
AcDbEntity
  8
0
100
AcDbBlockBegin
  2
_FILLED
 70
64
 10
0.0
 20
0.0
  3
_FILLED
  1

  0
SOLID
  5
229
100
AcDbEntity
  8
0
  6
BYBLOCK
 62
0
100
AcDbTrace
 10
0.0
 20
0.0
 11
-1.0
 21
0.2142857143
 12
-1.0
 22
-0.2142857143
 13
-1.0
 23
-0.2142857143
  0
ENDBLK
  5
22A
100
AcDbEntity
  8
0
  6
BYBLOCK
 62
0
100
AcDbBlockEnd
  0
BLOCK
  5
22B
100
AcDbEntity
  8
0
100
AcDbBlockBegin
 62
2
  6
CONTINUOUS
  2
*D0
 70
65
 10
0.0
 20
0.0
  3
*D0
  1

  0
TEXT
  5
22C
100
AcDbEntity
  8
0
100
AcDbText
 62
2
  6
CONTINUOUS
 10
7.5023610798
 20
114.3357229057
  7
STANDARD
 40
2.5
  1
116
 72
5
 11
12.9595595234
 21
114.3357229057
100
AcDbText
  0
TEXT
  5
22D
100
AcDbEntity
  8
0
100
AcDbText
 62
2
  6
CONTINUOUS
 10
12.9595595234
 20
114.3357229057
  7
STANDARD
 40
2.5
  1
mm
 72
5
 11
18.6307657491
 21
114.3357229057
100
AcDbText
  0
TEXT
  5
22E
100
AcDbEntity
  8
0
100
AcDbText
 62
2
  6
CONTINUOUS
 10
8.2805711965
 20
110.5857229057
  7
STANDARD
 40
2.5
  1
4-5/8"
 72
5
 11
17.8525556323
 21
110.5857229057
100
AcDbText
  0
LINE
  5
22F
100
AcDbEntity
  8
0
100
AcDbLine
 62
2
  6
CONTINUOUS
 10
117.7638703843
 20
173.6004452006
 11
11.5665634144
 21
173.6004452006
  0
LINE
  5
230
100
AcDbEntity
  8
0
100
AcDbLine
 62
2
  6
CONTINUOUS
 10
26.594341792
 20
57.5710006108
 11
11.5665634144
 21
57.5710006108
  0
LINE
  5
231
100
AcDbEntity
  8
0
100
AcDbLine
 62
2
  6
CONTINUOUS
 10
13.0665634144
 20
173.6004452006
 11
13.0665634144
 21
118.0857229057
  0
LINE
  5
232
100
AcDbEntity
  8
0
100
AcDbLine
 62
2
  6
CONTINUOUS
 10
13.0665634144
 20
57.5710006108
 11
13.0665634144
 21
109.3357229057
  0
INSERT
  5
233
100
AcDbEntity
  8
0
100
AcDbBlockReference
 62
2
  6
CONTINUOUS
  2
_FILLED
 10
13.0665634144
 20
173.6004452006
 41
3.5
 42
3.5
 43
3.5
 50
90.0
  0
INSERT
  5
234
100
AcDbEntity
  8
0
100
AcDbBlockReference
 62
2
  6
CONTINUOUS
  2
_FILLED
 10
13.0665634144
 20
57.5710006108
 41
3.5
 42
3.5
 43
3.5
 50
270.0
  0
ENDBLK
  5
235
100
AcDbEntity
  8
0
  6
BYBLOCK
 62
0
100
AcDbBlockEnd
  0
BLOCK
  5
236
100
AcDbEntity
  8
0
100
AcDbBlockBegin
 62
2
  6
CONTINUOUS
  2
*D1
 70
65
 10
0.0
 20
0.0
  3
*D1
  1

  0
TEXT
  5
237
100
AcDbEntity
  8
0
100
AcDbText
 62
2
  6
CONTINUOUS
 10
78.0652764785
 20
187.7851690758
  7
STANDARD
 40
2.5
  1
112
 72
5
 11
83.5224749221
 21
187.7851690758
100
AcDbText
  0
TEXT
  5
238
100
AcDbEntity
  8
0
100
AcDbText
 62
2
  6
CONTINUOUS
 10
83.5224749221
 20
187.7851690758
  7
STANDARD
 40
2.5
  1
mm
 72
5
 11
89.1936811478
 21
187.7851690758
100
AcDbText
  0
TEXT
  5
239
100
AcDbEntity
  8
0
100
AcDbText
 62
2
  6
CONTINUOUS
 10
78.8434865952
 20
184.0351690758
  7
STANDARD
 40
2.5
  1
4-3/8"
 72
5
 11
88.415471031
 21
184.0351690758
100
AcDbText
  0
LINE
  5
23A
100
AcDbEntity
  8
0
100
AcDbLine
 62
2
  6
CONTINUOUS
 10
27.594341792
 20
79.6823495933
 11
27.594341792
 21
190.5351690758
  0
LINE
  5
23B
100
AcDbEntity
  8
0
100
AcDbLine
 62
2
  6
CONTINUOUS
 10
139.6646158342
 20
174.6004452006
 11
139.6646158342
 21
190.5351690758
  0
LINE
  5
23C
100
AcDbEntity
  8
0
100
AcDbLine
 62
2
  6
CONTINUOUS
 10
27.594341792
 20
189.0351690758
 11
76.8152764785
 21
189.0351690758
  0
LINE
  5
23D
100
AcDbEntity
  8
0
100
AcDbLine
 62
2
  6
CONTINUOUS
 10
139.6646158342
 20
189.0351690758
 11
90.4436811478
 21
189.0351690758
  0
INSERT
  5
23E
100
AcDbEntity
  8
0
100
AcDbBlockReference
 62
2
  6
CONTINUOUS
  2
_FILLED
 10
27.594341792
 20
189.0351690758
 41
3.5
 42
3.5
 43
3.5
 50
180.0
  0
INSERT
  5
23F
100
AcDbEntity
  8
0
100
AcDbBlockReference
 62
2
  6
CONTINUOUS
  2
_FILLED
 10
139.6646158342
 20
189.0351690758
 41
3.5
 42
3.5
 43
3.5
 50
0.0
  0
ENDBLK
  5
240
100
AcDbEntity
  8
0
  6
BYBLOCK
 62
0
100
AcDbBlockEnd
  0
BLOCK
  5
241
100
AcDbEntity
  8
0
100
AcDbBlockBegin
 62
2
  6
CONTINUOUS
  2
*D2
 70
65
 10
0.0
 20
0.0
  3
*D2
  1

  0
TEXT
  5
242
100
AcDbEntity
  8
0
100
AcDbText
 62
2
  6
CONTINUOUS
 10
100.0921015534
 20
93.0604997832
  7
STANDARD
 40
2.5
  1
158
 72
5
 11
105.549299997
 21
93.0604997832
100
AcDbText
  0
TEXT
  5
243
100
AcDbEntity
  8
0
100
AcDbText
 62
2
  6
CONTINUOUS
 10
105.549299997
 20
93.0604997832
  7
STANDARD
 40
2.5
  1
mm
 72
5
 11
111.2205062227
 21
93.0604997832
100
AcDbText
  0
TEXT
  5
244
100
AcDbEntity
  8
0
100
AcDbText
 62
2
  6
CONTINUOUS
 10
100.8703116701
 20
89.3104997832
  7
STANDARD
 40
2.5
  1
6-1/4"
 72
5
 11
110.4422961059
 21
89.3104997832
100
AcDbText
  0
LINE
  5
245
100
AcDbEntity
  8
0
100
AcDbLine
 62
2
  6
CONTINUOUS
 10
28.3136136211
 20
56.8762718609
 11
50.7000746105
 21
35.2536843635
  0
LINE
  5
246
100
AcDbEntity
  8
0
100
AcDbLine
 62
2
  6
CONTINUOUS
 10
140.3838876633
 20
172.9057164507
 11
162.7703486527
 21
151.2831289532
  0
LINE
  5
247
100
AcDbEntity
  8
0
100
AcDbLine
 62
2
  6
CONTINUOUS
 10
49.6211668669
 20
36.2957774884
 11
99.6203116701
 21
88.0612706225
  0
LINE
  5
248
100
AcDbEntity
  8
0
100
AcDbLine
 62
2
  6
CONTINUOUS
 10
161.6914409091
 20
152.3252220781
 11
108.0709985898
 21
96.8104997832
  0
INSERT
  5
249
100
AcDbEntity
  8
0
100
AcDbBlockReference
 62
2
  6
CONTINUOUS
  2
_FILLED
 10
49.6211668669
 20
36.2957774884
 41
3.5
 42
3.5
 43
3.5
 50
225.9943939767
  0
INSERT
  5
24A
100
AcDbEntity
  8
0
100
AcDbBlockReference
 62
2
  6
CONTINUOUS
  2
_FILLED
 10
161.6914409091
 20
152.3252220781
 41
3.5
 42
3.5
 43
3.5
 50
45.9943939767
  0
ENDBLK
  5
24B
100
AcDbEntity
  8
0
  6
BYBLOCK
 62
0
100
AcDbBlockEnd
  0
BLOCK
  5
24C
100
AcDbEntity
  8
0
100
AcDbBlockBegin
 62
2
  6
CONTINUOUS
  2
*D3
 70
65
 10
0.0
 20
0.0
  3
*D3
  1

  0
TEXT
  5
24D
100
AcDbEntity
  8
0
100
AcDbText
 62
2
  6
CONTINUOUS
 10
16.4568706613
 20
148.4869957094
  7
STANDARD
 40
2.5
  1
48
 72
5
 11
20.095002957
 21
148.4869957094
100
AcDbText
  0
TEXT
  5
24E
100
AcDbEntity
  8
0
100
AcDbText
 62
2
  6
CONTINUOUS
 10
20.095002957
 20
148.4869957094
  7
STANDARD
 40
2.5
  1
mm
 72
5
 11
25.7662091827
 21
148.4869957094
100
AcDbText
  0
TEXT
  5
24F
100
AcDbEntity
  8
0
100
AcDbText
 62
2
  6
CONTINUOUS
 10
16.3255477041
 20
144.7369957094
  7
STANDARD
 40
2.5
  1
1-7/8"
 72
5
 11
25.8975321399
 21
144.7369957094
100
AcDbText
  0
LINE
  5
250
100
AcDbEntity
  8
0
100
AcDbLine
 62
2
  6
CONTINUOUS
 10
117.7638703843
 20
173.6004452006
 11
19.611539922
 21
173.6004452006
  0
LINE
  5
251
100
AcDbEntity
  8
0
100
AcDbLine
 62
2
  6
CONTINUOUS
 10
77.567962127
 20
125.8735462183
 11
19.611539922
 21
125.8735462183
  0
LINE
  5
252
100
AcDbEntity
  8
0
100
AcDbLine
 62
2
  6
CONTINUOUS
 10
21.111539922
 20
173.6004452006
 11
21.111539922
 21
152.2369957094
  0
LINE
  5
253
100
AcDbEntity
  8
0
100
AcDbLine
 62
2
  6
CONTINUOUS
 10
21.111539922
 20
125.8735462183
 11
21.111539922
 21
143.4869957094
  0
INSERT
  5
254
100
AcDbEntity
  8
0
100
AcDbBlockReference
 62
2
  6
CONTINUOUS
  2
_FILLED
 10
21.111539922
 20
173.6004452006
 41
3.5
 42
3.5
 43
3.5
 50
90.0
  0
INSERT
  5
255
100
AcDbEntity
  8
0
100
AcDbBlockReference
 62
2
  6
CONTINUOUS
  2
_FILLED
 10
21.111539922
 20
125.8735462183
 41
3.5
 42
3.5
 43
3.5
 50
270.0
  0
ENDBLK
  5
256
100
AcDbEntity
  8
0
  6
BYBLOCK
 62
0
100
AcDbBlockEnd
  0
BLOCK
  5
257
100
AcDbEntity
  8
0
100
AcDbBlockBegin
 62
2
  6
CONTINUOUS
  2
*D4
 70
65
 10
0.0
 20
0.0
  3
*D4
  1

  0
TEXT
  5
258
100
AcDbEntity
  8
0
100
AcDbText
 62
2
  6
CONTINUOUS
 10
59.2482971322
 20
179.5427867107
  7
STANDARD
 40
2.5
  1
73
 72
5
 11
62.8864294279
 21
179.5427867107
100
AcDbText
  0
TEXT
  5
259
100
AcDbEntity
  8
0
100
AcDbText
 62
2
  6
CONTINUOUS
 10
62.8864294279
 20
179.5427867107
  7
STANDARD
 40
2.5
  1
mm
 72
5
 11
68.5576356536
 21
179.5427867107
100
AcDbText
  0
TEXT
  5
25A
100
AcDbEntity
  8
0
100
AcDbText
 62
2
  6
CONTINUOUS
 10
59.116974175
 20
175.7927867107
  7
STANDARD
 40
2.5
  1
2-7/8"
 72
5
 11
68.6889586108
 21
175.7927867107
100
AcDbText
  0
LINE
  5
25B
100
AcDbEntity
  8
0
100
AcDbLine
 62
2
  6
CONTINUOUS
 10
27.594341792
 20
79.6823495933
 11
27.594341792
 21
182.2927867107
  0
LINE
  5
25C
100
AcDbEntity
  8
0
100
AcDbLine
 62
2
  6
CONTINUOUS
 10
100.2115909937
 20
136.522337829
 11
100.2115909937
 21
182.2927867107
  0
LINE
  5
25D
100
AcDbEntity
  8
0
100
AcDbLine
 62
2
  6
CONTINUOUS
 10
27.594341792
 20
180.7927867107
 11
57.9982971322
 21
180.7927867107
  0
LINE
  5
25E
100
AcDbEntity
  8
0
100
AcDbLine
 62
2
  6
CONTINUOUS
 10
100.2115909937
 20
180.7927867107
 11
69.8076356536
 21
180.7927867107
  0
INSERT
  5
25F
100
AcDbEntity
  8
0
100
AcDbBlockReference
 62
2
  6
CONTINUOUS
  2
_FILLED
 10
27.594341792
 20
180.7927867107
 41
3.5
 42
3.5
 43
3.5
 50
180.0
  0
INSERT
  5
260
100
AcDbEntity
  8
0
100
AcDbBlockReference
 62
2
  6
CONTINUOUS
  2
_FILLED
 10
100.2115909937
 20
180.7927867107
 41
3.5
 42
3.5
 43
3.5
 50
0.0
  0
ENDBLK
  5
261
100
AcDbEntity
  8
0
  6
BYBLOCK
 62
0
100
AcDbBlockEnd
  0
BLOCK
  5
262
100
AcDbEntity
  8
0
100
AcDbBlockBegin
 62
2
  6
CONTINUOUS
  2
*D5
 70
65
 10
0.0
 20
0.0
  3
*D5
  1

  0
TEXT
  5
263
100
AcDbEntity
  8
0
100
AcDbText
 62
2
  6
CONTINUOUS
 10
156.0095572482
 20
170.2450576866
  7
STANDARD
 40
2.5
  1
7,7
 72
5
 11
160.8636428513
 21
170.2450576866
100
AcDbText
  0
TEXT
  5
264
100
AcDbEntity
  8
0
100
AcDbText
 62
2
  6
CONTINUOUS
 10
160.8636428513
 20
170.2450576866
  7
STANDARD
 40
2.5
  1
mm
 72
5
 11
166.534849077
 21
170.2450576866
100
AcDbText
  0
TEXT
  5
265
100
AcDbEntity
  8
0
100
AcDbText
 62
2
  6
CONTINUOUS
 10
158.0037206724
 20
166.4950576866
  7
STANDARD
 40
2.5
  1
1/4"
 72
5
 11
164.5406856529
 21
166.4950576866
100
AcDbText
  0
TEXT
  5
266
100
AcDbEntity
  8
0
100
AcDbText
 62
2
  6
CONTINUOUS
 10
160.7323198941
 20
162.7450576866
  7
STANDARD
 40
2.5
  1
 
 72
5
 11
161.8120864311
 21
162.7450576866
100
AcDbText
  0
LINE
  5
267
100
AcDbEntity
  8
0
100
AcDbLine
 62
2
  6
CONTINUOUS
 10
140.6646158342
 20
173.6004452006
 11
162.7722031626
 21
173.6004452006
  0
LINE
  5
268
100
AcDbEntity
  8
0
100
AcDbLine
 62
2
  6
CONTINUOUS
 10
134.1427809688
 20
165.8861156126
 11
162.7722031626
 21
165.8861156126
  0
LINE
  5
269
100
AcDbEntity
  8
0
100
AcDbLine
 62
2
  6
CONTINUOUS
 10
161.2722031626
 20
173.6004452006
 11
161.2722031626
 21
178.6004452006
  0
LINE
  5
26A
100
AcDbEntity
  8
0
100
AcDbLine
 62
2
  6
CONTINUOUS
 10
161.2722031626
 20
165.8861156126
 11
161.2722031626
 21
162.3861156126
  0
LINE
  5
26B
100
AcDbEntity
  8
0
100
AcDbLine
 62
2
  6
CONTINUOUS
 10
161.2722031626
 20
162.3861156126
 11
161.2722031626
 21
161.4950576866
  0
LINE
  5
26C
100
AcDbEntity
  8
0
100
AcDbLine
 62
2
  6
CONTINUOUS
 10
161.2722031626
 20
161.4950576866
 11
161.2722031626
 21
160.8861156126
  0
INSERT
  5
26D
100
AcDbEntity
  8
0
100
AcDbBlockReference
 62
2
  6
CONTINUOUS
  2
_FILLED
 10
161.2722031626
 20
173.6004452006
 41
3.5
 42
3.5
 43
3.5
 50
270.0
  0
INSERT
  5
26E
100
AcDbEntity
  8
0
100
AcDbBlockReference
 62
2
  6
CONTINUOUS
  2
_FILLED
 10
161.2722031626
 20
165.8861156126
 41
3.5
 42
3.5
 43
3.5
 50
90.0
  0
ENDBLK
  5
26F
100
AcDbEntity
  8
0
  6
BYBLOCK
 62
0
100
AcDbBlockEnd
  0
BLOCK
  5
270
100
AcDbEntity
  8
0
100
AcDbBlockBegin
 62
2
  6
CONTINUOUS
  2
*D6
 70
65
 10
0.0
 20
0.0
  3
*D6
  1

  0
TEXT
  5
271
100
AcDbEntity
  8
0
100
AcDbText
 62
2
  6
CONTINUOUS
 10
27.063284031
 20
37.5984403681
  7
STANDARD
 40
2.5
  1
6
 72
5
 11
28.8823501789
 21
37.5984403681
100
AcDbText
  0
TEXT
  5
272
100
AcDbEntity
  8
0
100
AcDbText
 62
2
  6
CONTINUOUS
 10
28.8823501789
 20
37.5984403681
  7
STANDARD
 40
2.5
  1
mm
 72
5
 11
34.5535564045
 21
37.5984403681
100
AcDbText
  0
TEXT
  5
273
100
AcDbEntity
  8
0
100
AcDbText
 62
2
  6
CONTINUOUS
 10
27.5399377275
 20
33.8484403681
  7
STANDARD
 40
2.5
  1
1/4"
 72
5
 11
34.076902708
 21
33.8484403681
100
AcDbText
  0
LINE
  5
274
100
AcDbEntity
  8
0
100
AcDbLine
 62
2
  6
CONTINUOUS
 10
33.622245542
 20
56.5710006108
 11
33.622245542
 21
41.3484403681
  0
LINE
  5
275
100
AcDbEntity
  8
0
100
AcDbLine
 62
2
  6
CONTINUOUS
 10
27.594341792
 20
56.5710006108
 11
27.594341792
 21
41.3484403681
  0
LINE
  5
276
100
AcDbEntity
  8
0
100
AcDbLine
 62
2
  6
CONTINUOUS
 10
33.622245542
 20
38.8484403681
 11
38.622245542
 21
38.8484403681
  0
LINE
  5
277
100
AcDbEntity
  8
0
100
AcDbLine
 62
2
  6
CONTINUOUS
 10
27.594341792
 20
38.8484403681
 11
22.594341792
 21
38.8484403681
  0
INSERT
  5
278
100
AcDbEntity
  8
0
100
AcDbBlockReference
 62
2
  6
CONTINUOUS
  2
_FILLED
 10
33.622245542
 20
38.8484403681
 41
3.5
 42
3.5
 43
3.5
 50
180.0
  0
INSERT
  5
279
100
AcDbEntity
  8
0
100
AcDbBlockReference
 62
2
  6
CONTINUOUS
  2
_FILLED
 10
27.594341792
 20
38.8484403681
 41
3.5
 42
3.5
 43
3.5
  0
ENDBLK
  5
27A
100
AcDbEntity
  8
0
  6
BYBLOCK
 62
0
100
AcDbBlockEnd
  0
BLOCK
  5
27B
100
AcDbEntity
  8
0
100
AcDbBlockBegin
 62
2
  6
CONTINUOUS
  2
*D7
 70
65
 10
0.0
 20
0.0
  3
*D7
  1

  0
TEXT
  5
27C
100
AcDbEntity
  8
0
100
AcDbText
 62
2
  6
CONTINUOUS
 10
106.5001409243
 20
56.2053223537
  7
STANDARD
 40
2.5
  1
33,25
 72
5
 11
114.9923588231
 21
56.2053223537
100
AcDbText
  0
LINE
  5
27D
100
AcDbEntity
  8
0
100
AcDbLine
 62
2
  6
CONTINUOUS
 10
102.4337498737
 20
43.8207813326
 11
102.4337498737
 21
58.9553223537
  0
LINE
  5
27E
100
AcDbEntity
  8
0
100
AcDbLine
 62
2
  6
CONTINUOUS
 10
119.0587498737
 20
43.8207813326
 11
119.0587498737
 21
58.9553223537
  0
LINE
  5
27F
100
AcDbEntity
  8
0
100
AcDbLine
 62
2
  6
CONTINUOUS
 10
102.4337498737
 20
57.4553223537
 11
105.2501409243
 21
57.4553223537
  0
LINE
  5
280
100
AcDbEntity
  8
0
100
AcDbLine
 62
2
  6
CONTINUOUS
 10
119.0587498737
 20
57.4553223537
 11
116.2423588231
 21
57.4553223537
  0
INSERT
  5
281
100
AcDbEntity
  8
0
100
AcDbBlockReference
 62
2
  6
CONTINUOUS
  2
_FILLED
 10
102.4337498737
 20
57.4553223537
 41
3.5
 42
3.5
 43
3.5
 50
180.0
  0
INSERT
  5
282
100
AcDbEntity
  8
0
100
AcDbBlockReference
 62
2
  6
CONTINUOUS
  2
_FILLED
 10
119.0587498737
 20
57.4553223537
 41
3.5
 42
3.5
 43
3.5
  0
ENDBLK
  5
283
100
AcDbEntity
  8
0
  6
BYBLOCK
 62
0
100
AcDbBlockEnd
  0
BLOCK
  5
284
100
AcDbEntity
  8
0
100
AcDbBlockBegin
 62
2
  6
CONTINUOUS
  2
*D8
 70
65
 10
0.0
 20
0.0
  3
*D8
  1

  0
TEXT
  5
285
100
AcDbEntity
  8
0
100
AcDbText
 62
2
  6
CONTINUOUS
 10
107.4096739982
 20
16.088554709
  7
STANDARD
 40
2.5
  1
19,2
 72
5
 11
114.0828257492
 21
16.088554709
100
AcDbText
  0
LINE
  5
286
100
AcDbEntity
  8
0
100
AcDbLine
 62
2
  6
CONTINUOUS
 10
105.9582498737
 20
35.513984515
 11
105.9582498737
 21
15.838554709
  0
LINE
  5
287
100
AcDbEntity
  8
0
100
AcDbLine
 62
2
  6
CONTINUOUS
 10
115.5342498737
 20
35.513984515
 11
115.5342498737
 21
15.838554709
  0
LINE
  5
288
100
AcDbEntity
  8
0
100
AcDbLine
 62
2
  6
CONTINUOUS
 10
105.9582498737
 20
17.338554709
 11
100.9582498737
 21
17.338554709
  0
LINE
  5
289
100
AcDbEntity
  8
0
100
AcDbLine
 62
2
  6
CONTINUOUS
 10
115.5342498737
 20
17.338554709
 11
120.5342498737
 21
17.338554709
  0
INSERT
  5
28A
100
AcDbEntity
  8
0
100
AcDbBlockReference
 62
2
  6
CONTINUOUS
  2
_FILLED
 10
105.9582498737
 20
17.338554709
 41
3.5
 42
3.5
 43
3.5
  0
INSERT
  5
28B
100
AcDbEntity
  8
0
100
AcDbBlockReference
 62
2
  6
CONTINUOUS
  2
_FILLED
 10
115.5342498737
 20
17.338554709
 41
3.5
 42
3.5
 43
3.5
 50
180.0
  0
ENDBLK
  5
28C
100
AcDbEntity
  8
0
  6
BYBLOCK
 62
0
100
AcDbBlockEnd
  0
BLOCK
  5
28D
100
AcDbEntity
  8
0
100
AcDbBlockBegin
 62
2
  6
CONTINUOUS
  2
*D9
 70
65
 10
0.0
 20
0.0
  3
*D9
  1

  0
TEXT
  5
28E
100
AcDbEntity
  8
0
100
AcDbText
 62
2
  6
CONTINUOUS
 10
88.5642290109
 20
16.088554709
  7
STANDARD
 40
2.5
  1
14,1
 72
5
 11
95.2373807619
 21
16.088554709
100
AcDbText
  0
LINE
  5
28F
100
AcDbEntity
  8
0
100
AcDbLine
 62
2
  6
CONTINUOUS
 10
105.9582498737
 20
35.513984515
 11
105.9582498737
 21
15.838554709
  0
LINE
  5
290
100
AcDbEntity
  8
0
100
AcDbLine
 62
2
  6
CONTINUOUS
 10
98.9092498737
 20
35.513984515
 11
98.9092498737
 21
15.838554709
  0
LINE
  5
291
100
AcDbEntity
  8
0
100
AcDbLine
 62
2
  6
CONTINUOUS
 10
105.9582498737
 20
17.338554709
 11
102.4337498737
 21
17.338554709
  0
LINE
  5
292
100
AcDbEntity
  8
0
100
AcDbLine
 62
2
  6
CONTINUOUS
 10
98.9092498737
 20
17.338554709
 11
102.4337498737
 21
17.338554709
  0
LINE
  5
293
100
AcDbEntity
  8
0
100
AcDbLine
 62
2
  6
CONTINUOUS
 10
102.4337498737
 20
17.338554709
 11
96.4873807619
 21
17.338554709
  0
INSERT
  5
294
100
AcDbEntity
  8
0
100
AcDbBlockReference
 62
2
  6
CONTINUOUS
  2
_FILLED
 10
105.9582498737
 20
17.338554709
 41
3.5
 42
3.5
 43
3.5
  0
INSERT
  5
295
100
AcDbEntity
  8
0
100
AcDbBlockReference
 62
2
  6
CONTINUOUS
  2
_FILLED
 10
98.9092498737
 20
17.338554709
 41
3.5
 42
3.5
 43
3.5
 50
180.0
  0
ENDBLK
  5
296
100
AcDbEntity
  8
0
  6
BYBLOCK
 62
0
100
AcDbBlockEnd
  0
BLOCK
  5
297
100
AcDbEntity
  8
0
100
AcDbBlockBegin
  2
*T1
 70
1
 10
0.0
 20
0.0
  3
*T1
  1

  0
LINE
  5
298
100
AcDbEntity
  8
0
100
AcDbLine
 62
7
  6
CONTINUOUS
 10
0.0
 20
0.0
 11
148.0
 21
0.0
  0
LINE
  5
299
100
AcDbEntity
  8
0
100
AcDbLine
 62
7
  6
CONTINUOUS
 10
0.0
 20
0.0
 11
0.0
 21
-43.0
  0
LINE
  5
29A
100
AcDbEntity
  8
0
100
AcDbLine
 62
7
  6
CONTINUOUS
 10
45.0
 20
-20.0
 11
148.0
 21
-20.0
  0
LINE
  5
29B
100
AcDbEntity
  8
0
100
AcDbLine
 62
7
  6
CONTINUOUS
 10
45.0
 20
-28.0
 11
148.0
 21
-28.0
  0
LINE
  5
29C
100
AcDbEntity
  8
0
100
AcDbLine
 62
7
  6
CONTINUOUS
 10
0.0
 20
-43.0
 11
148.0
 21
-43.0
  0
LINE
  5
29D
100
AcDbEntity
  8
0
100
AcDbLine
 62
7
  6
CONTINUOUS
 10
45.0
 20
0.0
 11
45.0
 21
-43.0
  0
LINE
  5
29E
100
AcDbEntity
  8
0
100
AcDbLine
 62
7
  6
CONTINUOUS
 10
143.0
 20
0.0
 11
143.0
 21
-20.0
  0
LINE
  5
29F
100
AcDbEntity
  8
0
100
AcDbLine
 62
7
  6
CONTINUOUS
 10
148.0
 20
0.0
 11
148.0
 21
-43.0
  0
TEXT
  5
2A0
100
AcDbEntity
  8
0
100
AcDbText
 62
7
  6
CONTINUOUS
 10
8.9659749243
 20
-9.175
  7
STANDARD
 40
8.0
  1
O
 72
5
 11
17.370644185
 21
-9.175
100
AcDbText
  0
TEXT
  5
2A1
100
AcDbEntity
  8
0
100
AcDbText
 62
7
  6
CONTINUOUS
 10
17.370644185
 20
-9.175
  7
STANDARD
 40
5.5
  1
RAC
 72
5
 11
33.9562472979
 21
-9.175
100
AcDbText
  0
TEXT
  5
2A2
100
AcDbEntity
  8
0
100
AcDbText
 62
7
  6
CONTINUOUS
 10
33.9562472979
 20
-4.425
  7
TEXTSTYLE_2
 40
3.0
  1
®
 72
5
 11
36.0340250757
 21
-4.425
100
AcDbText
  0
TEXT
  5
2A3
100
AcDbEntity
  8
0
100
AcDbText
 62
7
  6
CONTINUOUS
 10
9.5323389537
 20
-13.825
  7
TEXTSTYLE_2
 40
3.0
  1
D  E  C  O  R
 72
5
 11
34.3878945093
 21
-13.825
100
AcDbText
  0
TEXT
  5
2A4
100
AcDbEntity
  8
0
100
AcDbText
 62
7
  6
CONTINUOUS
 10
34.3878945093
 20
-13.825
  7
STANDARD
 40
2.5
  1
 
 72
5
 11
35.4676610463
 21
-13.825
100
AcDbText
  0
TEXT
  5
2A5
100
AcDbEntity
  8
0
100
AcDbText
 62
7
  6
CONTINUOUS
 10
52.8786764706
 20
-4.6
  7
TEXTSTYLE_3
 40
2.7
  1
Part name:
 72
5
 11
71.9375
 21
-4.6
100
AcDbText
  0
TEXT
  5
2A6
100
AcDbEntity
  8
0
100
AcDbText
 62
7
  6
CONTINUOUS
 10
49.6908613445
 20
-11.35
  7
TEXTSTYLE_3
 40
2.7
  1
Designed by:
 72
5
 11
71.9375
 21
-11.35
100
AcDbText
  0
TEXT
  5
2A7
100
AcDbEntity
  8
0
100
AcDbText
 62
7
  6
CONTINUOUS
 10
49.3732142857
 20
-18.1
  7
TEXTSTYLE_3
 40
2.7
  1
Designed on:
 72
5
 11
71.9375
 21
-18.1
100
AcDbText
  0
TEXT
  5
2A8
100
AcDbEntity
  8
0
100
AcDbText
 62
2
  6
CONTINUOUS
 10
74.0625
 20
-4.6
  7
TEXTSTYLE_3
 40
2.7
  1
C211
 72
5
 11
82.7977941176
 21
-4.6
100
AcDbText
  0
TEXT
  5
2A9
100
AcDbEntity
  8
0
100
AcDbText
 62
2
  6
CONTINUOUS
 10
74.0625
 20
-11.35
  7
TEXTSTYLE_3
 40
2.7
  1
ORAC
 72
5
 11
83.9209033613
 21
-11.35
100
AcDbText
  0
TEXT
  5
2AA
100
AcDbEntity
  8
0
100
AcDbText
 62
2
  6
CONTINUOUS
 10
74.0625
 20
-18.1
  7
TEXTSTYLE_3
 40
2.7
  1
29-Jul-1977
 72
5
 11
94.1763655462
 21
-18.1
100
AcDbText
  0
TEXT
  5
2AB
100
AcDbEntity
  8
0
100
AcDbText
 62
2
  6
CONTINUOUS
 10
94.1763655462
 20
-18.1
  7
TEXTSTYLE_3
 40
2.7
  1
 
 72
5
 11
95.1406512605
 21
-18.1
100
AcDbText
  0
TEXT
  5
2AC
100
AcDbEntity
  8
0
100
AcDbText
 62
2
  6
CONTINUOUS
 10
146.5625
 20
-16.0
  7
TEXTSTYLE_3
 40
1.5
  1
Version: 
 50
90.0
 72
5
 11
146.5625
 21
-7.5294117647
100
AcDbText
  0
TEXT
  5
2AD
100
AcDbEntity
  8
0
100
AcDbText
 62
2
  6
CONTINUOUS
 10
146.5625
 20
-7.5294117647
  7
TEXTSTYLE_3
 40
1.5
  1
1.0
 50
90.0
 72
5
 11
146.5625
 21
-4.5357142857
100
AcDbText
  0
TEXT
  5
2AE
100
AcDbEntity
  8
0
100
AcDbText
 62
2
  6
CONTINUOUS
 10
146.5625
 20
-4.5357142857
  7
TEXTSTYLE_3
 40
1.5
  1
 
 50
90.0
 72
5
 11
146.5625
 21
-4.0
100
AcDbText
  0
TEXT
  5
2AF
100
AcDbEntity
  8
0
100
AcDbText
 62
7
  6
CONTINUOUS
 10
9.6586134454
 20
-22.75
  7
TEXTSTYLE_3
 40
2.5
  1
Biekorfstraat 32
 72
5
 11
35.3413865546
 21
-22.75
100
AcDbText
  0
TEXT
  5
2B0
100
AcDbEntity
  8
0
100
AcDbText
 62
7
  6
CONTINUOUS
 10
2.2584033613
 20
-26.5
  7
TEXTSTYLE_3
 40
2.5
  1
8400 Oostende - Belgium
 72
5
 11
42.7415966387
 21
-26.5
100
AcDbText
  0
TEXT
  5
2B1
100
AcDbEntity
  8
0
100
AcDbText
 62
7
  6
CONTINUOUS
 10
4.2699579832
 20
-30.25
  7
TEXTSTYLE_3
 40
2.5
  1
Tel  +32 (0)59 80 32 52
 72
5
 11
40.7300420168
 21
-30.25
100
AcDbText
  0
TEXT
  5
2B2
100
AcDbEntity
  8
0
100
AcDbText
 62
7
  6
CONTINUOUS
 10
5.7405462185
 20
-34.0
  7
TEXTSTYLE_3
 40
2.5
  1
www.oracdecor.com
 72
5
 11
39.2594537815
 21
-34.0
100
AcDbText
  0
TEXT
  5
2B3
100
AcDbEntity
  8
0
100
AcDbText
 62
7
  6
CONTINUOUS
 10
5.5777310924
 20
-37.75
  7
TEXTSTYLE_3
 40
2.5
  1
info@oracdecor.com
 72
5
 11
39.4222689076
 21
-37.75
100
AcDbText
  0
TEXT
  5
2B4
100
AcDbEntity
  8
0
100
AcDbText
 62
7
  6
CONTINUOUS
 10
46.0625
 20
-23.375
  7
TEXTSTYLE_3
 40
2.5
  1
Unless otherwise specified: all dimensions are in millimeters 
 72
5
 11
143.4259453782
 21
-23.375
100
AcDbText
  0
TEXT
  5
2B5
100
AcDbEntity
  8
0
100
AcDbText
 62
7
  6
CONTINUOUS
 10
46.0625
 20
-27.125
  7
TEXTSTYLE_3
 40
2.5
  1
and inches, scale 1:1, length 2 meters
 72
5
 11
106.1675420168
 21
-27.125
100
AcDbText
  0
TEXT
  5
2B6
100
AcDbEntity
  8
0
100
AcDbText
 62
7
  6
CONTINUOUS
 10
46.0625
 20
-31.81
  7
TEXTSTYLE_3
 40
1.8
  1
All information in this document is Orac's exclusive property.  It may in no case 
 72
5
 11
137.5070378151
 21
-31.81
100
AcDbText
  0
TEXT
  5
2B7
100
AcDbEntity
  8
0
100
AcDbText
 62
7
  6
CONTINUOUS
 10
46.0625
 20
-34.87
  7
TEXTSTYLE_3
 40
1.8
  1
be reproduced, even partly, be communicated to a third party or used for any 
 72
5
 11
136.3272058824
 21
-34.87
100
AcDbText
  0
TEXT
  5
2B8
100
AcDbEntity
  8
0
100
AcDbText
 62
7
  6
CONTINUOUS
 10
46.0625
 20
-37.93
  7
TEXTSTYLE_3
 40
1.8
  1
possible purpose without ORAC's express written permission. Further legal 
 72
5
 11
132.7952731092
 21
-37.93
100
AcDbText
  0
TEXT
  5
2B9
100
AcDbEntity
  8
0
100
AcDbText
 62
7
  6
CONTINUOUS
 10
46.0625
 20
-40.99
  7
TEXTSTYLE_3
 40
1.8
  1
information can be found at https://www.oracdecor.com/en/general-sales-conditions
 72
5
 11
145.349894958
 21
-40.99
100
AcDbText
  0
ENDBLK
  5
2BA
100
AcDbEntity
  8
0
  6
BYBLOCK
 62
0
100
AcDbBlockEnd
  0
ENDSEC
  0
SECTION
  2
ENTITIES
  0
IMAGE
  5
2BB
100
AcDbEntity
  8
0
100
AcDbRasterImage
 62
7
  6
CONTINUOUS
 10
91.6237499309
 20
21.2739627892
 30
0.0
 11
0.1693333333
 21
0.0
 31
0.0
 12
0.0
 22
0.1693333333
 32
0.0
 13
263.0
 23
178.0
340
       597
 70
9
280
0
281
50
282
50
283
0
360
       591
 71
1
 91
2
 14
-0.5
 24
-0.5
 14
262.5
 24
177.5
  0
DIMENSION
  5
2BC
100
AcDbEntity
  8
0
100
AcDbDimension
 62
2
  6
CONTINUOUS
  2
*D0
 10
13.0665634144
 20
57.5710006108
 11
13.0665634144
 21
113.7107229057
 70
160
 71
2
 72
2
 41
0.9
 42
116.0294445897
  1
<>mm\P4-5/8"
  3
DIMSTYLE_1
100
AcDbAlignedDimension
 13
118.7638703843
 23
173.6004452006
 14
27.594341792
 24
57.5710006108
 50
270.0
100
AcDbRotatedDimension
  0
DIMENSION
  5
2BD
100
AcDbEntity
  8
0
100
AcDbDimension
 62
2
  6
CONTINUOUS
  2
*D1
 10
139.6646158342
 20
189.0351690758
 11
83.6294788131
 21
187.1601690758
 70
160
 71
2
 72
2
 41
0.9
 42
112.0702740422
  1
<>mm\P4-3/8"
  3
DIMSTYLE_1
100
AcDbAlignedDimension
 13
27.594341792
 23
78.6823495933
 14
139.6646158342
 24
173.6004452006
100
AcDbRotatedDimension
  0
DIMENSION
  5
2BE
100
AcDbEntity
  8
0
100
AcDbDimension
 62
2
  6
CONTINUOUS
  2
*D2
 10
161.6914409091
 20
152.3252220781
 11
105.656303888
 21
92.4354997832
 70
160
 71
2
 72
2
 41
0.9
 42
161.3151522198
  1
<>mm\P6-1/4"
  3
DIMSTYLE_1
100
AcDbAlignedDimension
 13
27.594341792
 23
57.5710006108
 14
139.6646158342
 24
173.6004452006
 50
45.9943939767
100
AcDbRotatedDimension
  0
DIMENSION
  5
2BF
100
AcDbEntity
  8
0
100
AcDbDimension
 62
2
  6
CONTINUOUS
  2
*D3
 10
21.111539922
 20
125.8735462183
 11
21.111539922
 21
147.8619957094
 70
160
 71
2
 72
2
 41
0.9
 42
47.7268989822
  1
<>mm\P1-7/8"
  3
DIMSTYLE_1
100
AcDbAlignedDimension
 13
118.7638703843
 23
173.6004452006
 14
78.567962127
 24
125.8735462183
 50
270.0
100
AcDbRotatedDimension
  0
DIMENSION
  5
2C0
100
AcDbEntity
  8
0
100
AcDbDimension
 62
2
  6
CONTINUOUS
  2
*D4
 10
100.2115909937
 20
180.7927867107
 11
63.9029663929
 21
178.9177867107
 70
160
 71
2
 72
2
 41
0.9
 42
72.6172492017
  1
<>mm\P2-7/8"
  3
DIMSTYLE_1
100
AcDbAlignedDimension
 13
27.594341792
 23
78.6823495933
 14
100.2115909937
 24
135.522337829
100
AcDbRotatedDimension
  0
DIMENSION
  5
2C1
100
AcDbEntity
  8
0
100
AcDbDimension
 62
2
  6
CONTINUOUS
  2
*D5
 10
161.2722031626
 20
165.8861156126
 11
161.2722031626
 21
169.6200576866
 70
160
 71
2
 72
2
 41
0.9
 42
7.7143295879
  1
<>mm\P1/4"\P 
  3
DIMSTYLE_2
100
AcDbAlignedDimension
 13
139.6646158342
 23
173.6004452006
 14
133.1427809688
 24
165.8861156126
 50
270.0
100
AcDbRotatedDimension
  0
DIMENSION
  5
2C2
100
AcDbEntity
  8
0
100
AcDbDimension
 62
2
  6
CONTINUOUS
  2
*D6
 10
27.594341792
 20
38.8484403681
 11
30.8084202178
 21
36.9734403681
 70
160
 71
2
 72
2
 41
0.9
 42
6.02790375
  1
<>mm\P1/4"
  3
DIMSTYLE_2
100
AcDbAlignedDimension
 13
33.622245542
 23
57.5710006108
 14
27.594341792
 24
57.5710006108
 50
180.0
100
AcDbRotatedDimension
  0
DIMENSION
  5
2C3
100
AcDbEntity
  8
0
100
AcDbDimension
 62
2
  6
CONTINUOUS
  2
*D7
 10
119.0587498737
 20
57.4553223537
 11
110.716162674
 21
57.1829501495
 70
160
 71
2
 72
2
 41
0.9
 42
33.25
  3
DIMSTYLE_3
100
AcDbAlignedDimension
 13
102.4337498737
 23
42.8207813326
 14
119.0587498737
 24
42.8207813326
100
AcDbRotatedDimension
  0
DIMENSION
  5
2C4
100
AcDbEntity
  8
0
100
AcDbDimension
 62
2
  6
CONTINUOUS
  2
*D8
 10
115.5342498737
 20
17.338554709
 11
110.8972558136
 21
17.0661802254
 70
160
 71
2
 72
2
 41
0.9
 42
19.152
  3
DIMSTYLE_4
100
AcDbAlignedDimension
 13
105.9582498737
 23
36.513984515
 14
115.5342498737
 24
36.513984515
100
AcDbRotatedDimension
  0
DIMENSION
  5
2C5
100
AcDbEntity
  8
0
100
AcDbDimension
 62
2
  6
CONTINUOUS
  2
*D9
 10
98.9092498737
 20
17.338554709
 11
91.910759491
 21
17.0661802254
 70
160
 71
3
 72
2
 41
0.9
 42
14.098
  3
DIMSTYLE_4
100
AcDbAlignedDimension
 13
105.9582498737
 23
36.513984515
 14
98.9092498737
 24
36.513984515
 50
180.0
100
AcDbRotatedDimension
  0
ACAD_TABLE
  5
2C6
100
AcDbEntity
  8
0
 62
2
  6
CONTINUOUS
100
AcDbBlockReference
  2
*T1
 10
144.0
 20
48.0
 30
0.0
100
AcDbTable
342
       598
343
222
 11
1.0
 21
0.0
 31
0.0
 90
22
 91
4
 92
4
 93
0
 94
0
 95
0
 96
0
141
15.0
141
5.0
141
8.0
141
15.0
142
45.0
142
28.0
142
70.0
142
5.0
171
1
172
0
173
0
174
0
175
1
176
1
 91
41
178
0
145
0.0
301
CELL_VALUE
 90
4
  1
\A1;O\H5.5;RAC\fCG Triumvirate;\H3.0;\S®^ ;\PD  E  C  O  R\fCG Times;\H2.5; 
304
ACVALUE_END
170
5
140
8.0
 64
7
171
1
172
0
173
0
174
0
175
1
176
2
 91
57
178
0
145
0.0
  7
TEXTSTYLE_3
301
CELL_VALUE
 90
4
  1
Part name:\PDesigned by:\PDesigned on:
304
ACVALUE_END
170
6
140
2.7
 64
7
171
1
172
0
173
0
174
0
175
1
176
2
 91
49
178
0
145
0.0
  7
TEXTSTYLE_3
301
CELL_VALUE
 90
4
  1
C211\PORAC\P29-Jul-1977 
304
ACVALUE_END
170
4
140
2.7
171
1
172
0
173
0
174
0
175
1
176
2
 91
49
178
0
145
0.0
  7
TEXTSTYLE_3
301
CELL_VALUE
 90
4
  1
Version: 1.0 
304
ACVALUE_END
170
6
140
1.5
171
1
172
0
173
0
174
0
175
1
176
3
 91
57
178
0
145
0.0
  7
TEXTSTYLE_3
301
CELL_VALUE
 90
4
  1
Biekorfstraat 32\P8400 Oostende - Belgium\PTel  +32 (0)59 80 32 52\Pwww.oracdecor.com\Pinfo@oracdecor.com
304
ACVALUE_END
170
5
140
2.5
 64
7
171
1
172
0
173
1
174
0
175
1
176
1
 91
1
178
0
145
0.0
170
1
171
1
172
0
173
1
174
0
175
1
176
1
 91
1
178
0
145
0.0
170
1
171
1
172
0
173
1
174
0
175
1
176
1
 91
1
178
0
145
0.0
170
1
171
1
172
0
173
1
174
0
175
1
176
1
 91
1
178
0
145
0.0
170
1
171
1
172
0
173
0
174
0
175
3
176
1
 91
57
178
0
145
0.0
  7
TEXTSTYLE_3
301
CELL_VALUE
 90
4
  1
Unless otherwise specified: all dimensions are in millimeters \Pand inches, scale 1:1, length 2 meters
304
ACVALUE_END
170
4
140
2.5
 64
7
171
1
172
0
173
1
174
0
175
1
176
1
 91
1
178
0
145
0.0
170
1
171
1
172
0
173
1
174
0
175
1
176
1
 91
1
178
0
145
0.0
170
1
171
1
172
0
173
1
174
0
175
1
176
1
 91
1
178
0
145
0.0
170
1
171
1
172
0
173
0
174
0
175
3
176
1
 91
57
178
0
145
0.0
  7
TEXTSTYLE_3
301
CELL_VALUE
 90
4
  2
All information in this document is Orac's exclusive property.  It may in no case \Pbe reproduced, even partly, be communicated to a third party or used for any \Ppossible purpose without ORAC's express written permission. Further legal \Pinformation
  1
 can be found at https://www.oracdecor.com/en/general-sales-conditions
304
ACVALUE_END
170
4
140
1.8
 64
7
171
1
172
0
173
1
174
0
175
1
176
1
 91
1
178
0
145
0.0
170
1
171
1
172
0
173
1
174
0
175
1
176
1
 91
1
178
0
145
0.0
170
1
  0
TEXT
  5
2C7
100
AcDbEntity
  8
0
100
AcDbText
 62
2
  6
CONTINUOUS
 10
253.8550484506
 20
74.3189576166
  7
STANDARD
 40
2.5
  1
SCALE  
 72
5
 11
267.6585503961
 21
74.3189576166
100
AcDbText
  0
TEXT
  5
2C8
100
AcDbEntity
  8
0
100
AcDbText
 62
2
  6
CONTINUOUS
 10
267.6585503961
 20
74.3189576166
  7
STANDARD
 40
2.5
  1
1:2
 72
5
 11
272.5126359993
 21
74.3189576166
100
AcDbText
  0
TEXT
  5
2C9
100
AcDbEntity
  8
0
100
AcDbText
 62
2
  6
CONTINUOUS
 10
101.4450740911
 20
9.8349084602
  7
STANDARD
 40
2.5
  1
SCALE  
 72
5
 11
115.2485760366
 21
9.8349084602
100
AcDbText
  0
TEXT
  5
2CA
100
AcDbEntity
  8
0
100
AcDbText
 62
2
  6
CONTINUOUS
 10
115.2485760366
 20
9.8349084602
  7
STANDARD
 40
2.5
  1
1:2
 72
5
 11
120.1026616397
 21
9.8349084602
100
AcDbText
  0
LINE
  5
2CB
100
AcDbEntity
  8
0
100
AcDbLine
 62
5
  6
CONTINUOUS
 10
0.0
 20
0.0
 11
0.0
 21
210.0
  0
LINE
  5
2CC
100
AcDbEntity
  8
0
100
AcDbLine
 62
7
  6
CONTINUOUS
 10
5.0
 20
5.0
 11
5.0
 21
195.0
  0
LINE
  5
2CD
100
AcDbEntity
  8
0
100
AcDbLine
 62
5
  6
CONTINUOUS
 10
0.0
 20
0.0
 11
297.0
 21
0.0
  0
LINE
  5
2CE
100
AcDbEntity
  8
0
100
AcDbLine
 62
7
  6
CONTINUOUS
 10
5.0
 20
5.0
 11
292.0
 21
5.0
  0
LINE
  5
2CF
100
AcDbEntity
  8
0
100
AcDbLine
 62
4
  6
CONTINUOUS
 10
148.5
 20
195.0
 11
148.5
 21
205.0
  0
LINE
  5
2D0
100
AcDbEntity
  8
0
100
AcDbLine
 62
7
  6
CONTINUOUS
 10
5.0
 20
195.0
 11
292.0
 21
195.0
  0
LINE
  5
2D1
100
AcDbEntity
  8
0
100
AcDbLine
 62
5
  6
CONTINUOUS
 10
0.0
 20
210.0
 11
297.0
 21
210.0
  0
LINE
  5
2D2
100
AcDbEntity
  8
0
100
AcDbLine
 62
7
  6
CONTINUOUS
 10
292.0
 20
5.0
 11
292.0
 21
195.0
  0
LINE
  5
2D3
100
AcDbEntity
  8
0
100
AcDbLine
 62
5
  6
CONTINUOUS
 10
297.0
 20
0.0
 11
297.0
 21
210.0
  0
LINE
  5
2D4
100
AcDbEntity
  8
0
100
AcDbLine
 62
7
  6
CONTINUOUS
 10
166.2586400854
 20
144.2987793081
 11
166.2780242585
 21
140.8752763067
  0
LINE
  5
2D5
100
AcDbEntity
  8
0
100
AcDbLine
 62
7
  6
CONTINUOUS
 10
166.2942941227
 20
138.0018017084
 11
166.3182991591
 21
133.7621927348
  0
LINE
  5
2D6
100
AcDbEntity
  8
0
100
AcDbLine
 62
7
  6
CONTINUOUS
 10
169.3157411472
 20
135.4620844525
 11
169.3252004514
 21
133.7914454198
  0
LINE
  5
2D7
100
AcDbEntity
  8
0
100
AcDbLine
 62
7
  6
CONTINUOUS
 10
237.4516572775
 20
74.4690578806
 11
234.4447559852
 21
74.4398051956
  0
LINE
  5
2D8
100
AcDbEntity
  8
0
100
AcDbLine
 62
7
  6
CONTINUOUS
 10
172.3495032436
 20
152.4395494921
 11
172.3668885384
 21
149.5176022023
  0
LINE
  5
2D9
100
AcDbEntity
  8
0
100
AcDbLine
 62
7
  6
CONTINUOUS
 10
176.6705015261
 20
142.6404213504
 11
176.6888075404
 21
139.5637286693
  0
LINE
  5
2DA
100
AcDbEntity
  8
0
100
AcDbLine
 62
7
  6
CONTINUOUS
 10
185.4723036229
 20
165.9309578204
 11
174.6841248969
 21
157.3524327508
  0
LINE
  5
2DB
100
AcDbEntity
  8
0
100
AcDbLine
 62
7
  6
CONTINUOUS
 10
244.8152643665
 20
80.2413411301
 11
241.8064777393
 21
80.2120701036
  0
LINE
  5
2DC
100
AcDbEntity
  8
0
100
AcDbLine
 62
7
  6
CONTINUOUS
 10
166.2780242585
 20
140.8752763067
 11
166.8828351834
 21
139.2121304531
  0
LINE
  5
2DD
100
AcDbEntity
  8
DTM_AXIS
100
AcDbLine
 62
7
  6
CONTINUOUS
 10
178.3776279867
 20
142.2053193984
 11
178.3799558368
 21
141.814189086
  0
LINE
  5
2DE
100
AcDbEntity
  8
DTM_AXIS
100
AcDbLine
 62
7
  6
CONTINUOUS
 10
179.5102303314
 20
141.2190847056
 11
179.5125581816
 21
140.8279543931
  0
LINE
  5
2DF
100
AcDbEntity
  8
DTM_AXIS
100
AcDbLine
 62
7
  6
CONTINUOUS
 10
180.6428326761
 20
140.2328500128
 11
180.6451605263
 21
139.8417197003
  0
LINE
  5
2E0
100
AcDbEntity
  8
0
100
AcDbLine
 62
7
  6
CONTINUOUS
 10
180.6072974922
 20
155.2711793991
 11
180.682217029
 21
142.6794493858
  0
LINE
  5
2E1
100
AcDbEntity
  8
DTM_AXIS
100
AcDbLine
 62
7
  6
CONTINUOUS
 10
181.1785523302
 20
142.2472561314
 11
181.1036327934
 21
154.8389861447
  0
LINE
  5
2E2
100
AcDbEntity
  8
0
100
AcDbLine
 62
7
  6
CONTINUOUS
 10
181.5306918206
 20
156.0054069937
 11
181.5350050412
 21
155.2804838118
  0
LINE
  5
2E3
100
AcDbEntity
  8
DTM_AXIS
100
AcDbLine
 62
7
  6
CONTINUOUS
 10
181.7754350209
 20
139.2466153199
 11
181.777762871
 21
138.8554850074
  0
LINE
  5
2E4
100
AcDbEntity
  8
DTM_AXIS
100
AcDbLine
 62
7
  6
CONTINUOUS
 10
182.7913780691
 20
140.8428579288
 11
182.7164585323
 21
153.4345879421
  0
LINE
  5
2E5
100
AcDbEntity
  8
DTM_AXIS
100
AcDbLine
 62
7
  6
CONTINUOUS
 10
182.9080373656
 20
138.2603806271
 11
182.9103652158
 21
137.8692503146
  0
LINE
  5
2E6
100
AcDbEntity
  8
DTM_AXIS
100
AcDbLine
 62
7
  6
CONTINUOUS
 10
181.6551518625
 20
141.8290573668
 11
181.5838561876
 21
154.420822635
  0
LINE
  5
2E7
100
AcDbEntity
  8
DTM_AXIS
100
AcDbLine
 62
7
  6
CONTINUOUS
 10
182.3075308131
 20
141.2609861837
 11
182.2362351381
 21
153.8527514519
  0
LINE
  5
2E8
100
AcDbEntity
  8
DTM_AXIS
100
AcDbLine
 62
7
  6
CONTINUOUS
 10
244.7618728648
 20
84.010892232
 11
247.9984668077
 21
84.0593739991
  0
LINE
  5
2E9
100
AcDbEntity
  8
DTM_AXIS
100
AcDbLine
 62
7
  6
CONTINUOUS
 10
246.8658644629
 20
85.0456086919
 11
243.62927052
 21
84.9971269249
  0
LINE
  5
2EA
100
AcDbEntity
  8
DTM_AXIS
100
AcDbLine
 62
7
  6
CONTINUOUS
 10
245.7332621182
 20
86.0318433848
 11
242.4966681753
 21
85.9833616177
  0
LINE
  5
2EB
100
AcDbEntity
  8
DTM_AXIS
100
AcDbLine
 62
7
  6
CONTINUOUS
 10
241.3640658306
 20
86.9695963106
 11
244.6006597735
 21
87.0180780776
  0
LINE
  5
2EC
100
AcDbEntity
  8
DTM_AXIS
100
AcDbLine
 62
7
  6
CONTINUOUS
 10
240.2314634858
 20
87.9558310034
 11
243.4680574287
 21
88.0043127704
  0
LINE
  5
2ED
100
AcDbEntity
  8
0
100
AcDbLine
 62
7
  6
CONTINUOUS
 10
244.7969583522
 20
83.3180338112
 11
248.8086738551
 21
83.3570618466
  0
LINE
  5
2EE
100
AcDbEntity
  8
DTM_AXIS
100
AcDbLine
 62
7
  6
CONTINUOUS
 10
248.4786902018
 20
83.6412104893
 11
245.2034941761
 21
83.6263422085
  0
LINE
  5
2EF
100
AcDbEntity
  8
DTM_AXIS
100
AcDbLine
 62
7
  6
CONTINUOUS
 10
244.0708918314
 20
84.6125769013
 11
247.3460878571
 21
84.6274451822
  0
LINE
  5
2F0
100
AcDbEntity
  8
DTM_AXIS
100
AcDbLine
 62
7
  6
CONTINUOUS
 10
242.9382894867
 20
85.5988115942
 11
246.2134855124
 21
85.613679875
  0
LINE
  5
2F1
100
AcDbEntity
  8
DTM_AXIS
100
AcDbLine
 62
7
  6
CONTINUOUS
 10
245.0808831676
 20
86.5999145678
 11
241.8056871419
 21
86.585046287
  0
LINE
  5
2F2
100
AcDbEntity
  8
DTM_AXIS
100
AcDbLine
 62
7
  6
CONTINUOUS
 10
243.9482808229
 20
87.5861492607
 11
240.6730847972
 21
87.5712809798
  0
LINE
  5
2F3
100
AcDbEntity
  8
DTM_AXIS
100
AcDbLine
 62
7
  6
CONTINUOUS
 10
239.5404824525
 20
88.5575156727
 11
242.8156784782
 21
88.5723839535
  0
LINE
  5
2F4
100
AcDbEntity
  8
DTM_AXIS
100
AcDbLine
 62
7
  6
CONTINUOUS
 10
183.9239804073
 20
139.8566243265
 11
183.849060877
 21
152.4483532493
  0
LINE
  5
2F5
100
AcDbEntity
  8
DTM_AXIS
100
AcDbLine
 62
7
  6
CONTINUOUS
 10
184.0406397103
 20
137.2741459343
 11
184.0429675605
 21
136.8830156218
  0
LINE
  5
2F6
100
AcDbEntity
  8
DTM_AXIS
100
AcDbLine
 62
7
  6
CONTINUOUS
 10
184.5763593579
 20
139.2885531434
 11
184.5014398276
 21
151.8802820662
  0
LINE
  5
2F7
100
AcDbEntity
  8
DTM_AXIS
100
AcDbLine
 62
7
  6
CONTINUOUS
 10
185.1732420551
 20
136.2879112414
 11
185.1755699052
 21
135.8967809289
  0
LINE
  5
2F8
100
AcDbEntity
  8
DTM_AXIS
100
AcDbLine
 62
7
  6
CONTINUOUS
 10
185.7089617091
 20
138.30231736
 11
185.6340421723
 21
150.8940473734
  0
LINE
  5
2F9
100
AcDbEntity
  8
DTM_AXIS
100
AcDbLine
 62
7
  6
CONTINUOUS
 10
186.3058443998
 20
135.3016765486
 11
186.30817225
 21
134.9105462361
  0
LINE
  5
2FA
100
AcDbEntity
  8
DTM_AXIS
100
AcDbLine
 62
7
  6
CONTINUOUS
 10
187.321787448
 20
136.8979191574
 11
187.2468679112
 21
149.4896491708
  0
LINE
  5
2FB
100
AcDbEntity
  8
DTM_AXIS
100
AcDbLine
 62
7
  6
CONTINUOUS
 10
187.4384467445
 20
134.3154418557
 11
187.4407745947
 21
133.9243115433
  0
LINE
  5
2FC
100
AcDbEntity
  8
DTM_AXIS
100
AcDbLine
 62
7
  6
CONTINUOUS
 10
188.4543897862
 20
135.9116855551
 11
188.379470256
 21
148.5034144779
  0
LINE
  5
2FD
100
AcDbEntity
  8
DTM_AXIS
100
AcDbLine
 62
7
  6
CONTINUOUS
 10
188.5710490893
 20
133.3292071629
 11
188.5733769394
 21
132.9380768504
  0
LINE
  5
2FE
100
AcDbEntity
  8
DTM_AXIS
100
AcDbLine
 62
7
  6
CONTINUOUS
 10
183.4401331578
 20
140.2747514909
 11
183.3688374829
 21
152.8665167591
  0
LINE
  5
2FF
100
AcDbEntity
  8
DTM_AXIS
100
AcDbLine
 62
7
  6
CONTINUOUS
 10
185.0529588967
 20
138.8703532883
 11
184.9816632218
 21
151.4621185564
  0
LINE
  5
300
100
AcDbEntity
  8
0
100
AcDbLine
 62
7
  6
CONTINUOUS
 10
186.0388040794
 20
160.8697966309
 11
186.0501291781
 21
158.8696334379
  0
LINE
  5
301
100
AcDbEntity
  8
DTM_AXIS
100
AcDbLine
 62
7
  6
CONTINUOUS
 10
186.1855612415
 20
137.8841185954
 11
186.1142655665
 21
150.4758838636
  0
LINE
  5
302
100
AcDbEntity
  8
DTM_AXIS
100
AcDbLine
 62
7
  6
CONTINUOUS
 10
186.837940192
 20
137.3160474124
 11
186.7666445171
 21
149.9078126805
  0
LINE
  5
303
100
AcDbEntity
  8
DTM_AXIS
100
AcDbLine
 62
7
  6
CONTINUOUS
 10
187.9705425368
 20
136.3298127195
 11
187.8992468618
 21
148.9215779877
  0
LINE
  5
304
100
AcDbEntity
  8
0
100
AcDbLine
 62
7
  6
CONTINUOUS
 10
211.4685359099
 20
192.1144411564
 11
202.7720842706
 21
174.9339544645
  0
LINE
  5
305
100
AcDbEntity
  8
DTM_AXIS
100
AcDbLine
 62
7
  6
CONTINUOUS
 10
242.335455084
 20
88.9905474633
 11
239.0988611411
 21
88.9420656962
  0
LINE
  5
306
100
AcDbEntity
  8
DTM_AXIS
100
AcDbLine
 62
7
  6
CONTINUOUS
 10
241.2028527393
 20
89.9767821561
 11
237.9662587964
 21
89.9283003891
  0
LINE
  5
307
100
AcDbEntity
  8
DTM_AXIS
100
AcDbLine
 62
7
  6
CONTINUOUS
 10
236.8336564516
 20
90.9145350819
 11
240.0702503945
 21
90.963016849
  0
LINE
  5
308
100
AcDbEntity
  8
DTM_AXIS
100
AcDbLine
 62
7
  6
CONTINUOUS
 10
235.7010541069
 20
91.9007697748
 11
238.9376480498
 21
91.9492515418
  0
LINE
  5
309
100
AcDbEntity
  8
DTM_AXIS
100
AcDbLine
 62
7
  6
CONTINUOUS
 10
237.8050457051
 20
92.9354862346
 11
234.5684517622
 21
92.8870044676
  0
LINE
  5
30A
100
AcDbEntity
  8
DTM_AXIS
100
AcDbLine
 62
7
  6
CONTINUOUS
 10
236.6724433603
 20
93.9217209275
 11
233.4358494174
 21
93.8732391604
  0
LINE
  5
30B
100
AcDbEntity
  8
DTM_AXIS
100
AcDbLine
 62
7
  6
CONTINUOUS
 10
238.4078801077
 20
89.5437503655
 11
241.6830761334
 21
89.5586186463
  0
LINE
  5
30C
100
AcDbEntity
  8
DTM_AXIS
100
AcDbLine
 62
7
  6
CONTINUOUS
 10
240.5504737887
 20
90.5448533392
 11
237.275277763
 21
90.5299850583
  0
LINE
  5
30D
100
AcDbEntity
  8
DTM_AXIS
100
AcDbLine
 62
7
  6
CONTINUOUS
 10
239.417871444
 20
91.531088032
 11
236.1426754183
 21
91.5162197512
  0
LINE
  5
30E
100
AcDbEntity
  8
DTM_AXIS
100
AcDbLine
 62
7
  6
CONTINUOUS
 10
235.0100730735
 20
92.502454444
 11
238.2852690992
 21
92.5173227249
  0
LINE
  5
30F
100
AcDbEntity
  8
DTM_AXIS
100
AcDbLine
 62
7
  6
CONTINUOUS
 10
233.8774707288
 20
93.4886891369
 11
237.1526667545
 21
93.5035574177
  0
LINE
  5
310
100
AcDbEntity
  8
0
100
AcDbLine
 62
7
  6
CONTINUOUS
 10
234.4447559852
 20
74.4398051956
 11
166.3182991591
 21
133.7621927348
  0
LINE
  5
311
100
AcDbEntity
  8
DTM_AXIS
100
AcDbLine
 62
7
  6
CONTINUOUS
 10
189.1067687368
 20
135.343614372
 11
189.0318492065
 21
147.9353432949
  0
LINE
  5
312
100
AcDbEntity
  8
DTM_AXIS
100
AcDbLine
 62
7
  6
CONTINUOUS
 10
189.703651434
 20
132.3429724701
 11
189.7059792842
 21
131.9518421576
  0
LINE
  5
313
100
AcDbEntity
  8
DTM_AXIS
100
AcDbLine
 62
7
  6
CONTINUOUS
 10
190.239371088
 20
134.3573785887
 11
190.1644515513
 21
146.949108602
  0
LINE
  5
314
100
AcDbEntity
  8
DTM_AXIS
100
AcDbLine
 62
7
  6
CONTINUOUS
 10
190.8362537787
 20
131.3567377772
 11
190.8385816289
 21
130.9656074647
  0
LINE
  5
315
100
AcDbEntity
  8
DTM_AXIS
100
AcDbLine
 62
7
  6
CONTINUOUS
 10
191.8521968269
 20
132.952980386
 11
191.7772772902
 21
145.5447103994
  0
LINE
  5
316
100
AcDbEntity
  8
DTM_AXIS
100
AcDbLine
 62
7
  6
CONTINUOUS
 10
191.9688561235
 20
130.3705030844
 11
191.9711839736
 21
129.9793727719
  0
LINE
  5
317
100
AcDbEntity
  8
DTM_AXIS
100
AcDbLine
 62
7
  6
CONTINUOUS
 10
192.9847991652
 20
131.9667467838
 11
192.9098796349
 21
144.5584757066
  0
LINE
  5
318
100
AcDbEntity
  8
DTM_AXIS
100
AcDbLine
 62
7
  6
CONTINUOUS
 10
193.1014584682
 20
129.3842683915
 11
193.1037863184
 21
128.9931380791
  0
LINE
  5
319
100
AcDbEntity
  8
DTM_AXIS
100
AcDbLine
 62
7
  6
CONTINUOUS
 10
193.6371781157
 20
131.3986756007
 11
193.5622585855
 21
143.9904045235
  0
LINE
  5
31A
100
AcDbEntity
  8
DTM_AXIS
100
AcDbLine
 62
7
  6
CONTINUOUS
 10
194.2340608129
 20
128.3980336987
 11
194.2363886631
 21
128.0069033862
  0
LINE
  5
31B
100
AcDbEntity
  8
0
100
AcDbLine
 62
7
  6
CONTINUOUS
 10
189.1787837979
 20
162.9478678927
 11
189.1903764187
 21
160.9004567504
  0
LINE
  5
31C
100
AcDbEntity
  8
DTM_AXIS
100
AcDbLine
 62
7
  6
CONTINUOUS
 10
189.5833682757
 20
134.9254145169
 11
189.5120726007
 21
147.5171797851
  0
LINE
  5
31D
100
AcDbEntity
  8
DTM_AXIS
100
AcDbLine
 62
7
  6
CONTINUOUS
 10
190.7159706204
 20
133.9391798241
 11
190.6446749454
 21
146.5309450923
  0
LINE
  5
31E
100
AcDbEntity
  8
DTM_AXIS
100
AcDbLine
 62
7
  6
CONTINUOUS
 10
191.368349571
 20
133.371108641
 11
191.297053896
 21
145.9628739092
  0
LINE
  5
31F
100
AcDbEntity
  8
DTM_AXIS
100
AcDbLine
 62
7
  6
CONTINUOUS
 10
192.5009519157
 20
132.3848739482
 11
192.4296562407
 21
144.9766392163
  0
LINE
  5
320
100
AcDbEntity
  8
DTM_AXIS
100
AcDbLine
 62
7
  6
CONTINUOUS
 10
194.1137776546
 20
130.9804757456
 11
194.0424819796
 21
143.5722410137
  0
LINE
  5
321
100
AcDbEntity
  8
DTM_AXIS
100
AcDbLine
 62
7
  6
CONTINUOUS
 10
232.3032470727
 20
94.8594738533
 11
235.5398410156
 21
94.9079556203
  0
LINE
  5
322
100
AcDbEntity
  8
DTM_AXIS
100
AcDbLine
 62
7
  6
CONTINUOUS
 10
231.170644728
 20
95.8457085461
 11
234.4072386709
 21
95.8941903131
  0
LINE
  5
323
100
AcDbEntity
  8
DTM_AXIS
100
AcDbLine
 62
7
  6
CONTINUOUS
 10
233.2746363261
 20
96.880425006
 11
230.0380423832
 21
96.8319432389
  0
LINE
  5
324
100
AcDbEntity
  8
DTM_AXIS
100
AcDbLine
 62
7
  6
CONTINUOUS
 10
232.1420339814
 20
97.8666596988
 11
228.9054400385
 21
97.8181779318
  0
LINE
  5
325
100
AcDbEntity
  8
DTM_AXIS
100
AcDbLine
 62
7
  6
CONTINUOUS
 10
227.7728376938
 20
98.8044126246
 11
231.0094316367
 21
98.8528943917
  0
LINE
  5
326
100
AcDbEntity
  8
DTM_AXIS
100
AcDbLine
 62
7
  6
CONTINUOUS
 10
226.640235349
 20
99.7906473175
 11
229.8768292919
 21
99.8391290845
  0
LINE
  5
327
100
AcDbEntity
  8
0
100
AcDbLine
 62
7
  6
CONTINUOUS
 10
249.6614618673
 20
95.9580962727
 11
248.7337543183
 21
95.94879186
  0
LINE
  5
328
100
AcDbEntity
  8
0
100
AcDbLine
 62
7
  6
CONTINUOUS
 10
254.1765860042
 20
99.5472458988
 11
252.3982224766
 21
99.5299450621
  0
LINE
  5
329
100
AcDbEntity
  8
DTM_AXIS
100
AcDbLine
 62
7
  6
CONTINUOUS
 10
247.9296729177
 20
96.2306641432
 11
248.4073945269
 21
96.2329757575
  0
LINE
  5
32A
100
AcDbEntity
  8
DTM_AXIS
100
AcDbLine
 62
7
  6
CONTINUOUS
 10
246.7969495582
 20
97.2168982505
 11
247.2747921821
 21
97.2192104503
  0
LINE
  5
32B
100
AcDbEntity
  8
DTM_AXIS
100
AcDbLine
 62
7
  6
CONTINUOUS
 10
245.6643472134
 20
98.2031329433
 11
246.1421898374
 21
98.2054451432
  0
LINE
  5
32C
100
AcDbEntity
  8
DTM_AXIS
100
AcDbLine
 62
7
  6
CONTINUOUS
 10
244.5318658835
 20
99.1893682217
 11
245.0095874927
 21
99.191679836
  0
LINE
  5
32D
100
AcDbEntity
  8
DTM_AXIS
100
AcDbLine
 62
7
  6
CONTINUOUS
 10
236.0200644098
 20
94.4897921105
 11
232.7448683841
 21
94.4749238297
  0
LINE
  5
32E
100
AcDbEntity
  8
DTM_AXIS
100
AcDbLine
 62
7
  6
CONTINUOUS
 10
234.887462065
 20
95.4760268034
 11
231.6122660393
 21
95.4611585225
  0
LINE
  5
32F
100
AcDbEntity
  8
DTM_AXIS
100
AcDbLine
 62
7
  6
CONTINUOUS
 10
230.4796636946
 20
96.4473932154
 11
233.7548597203
 21
96.4622614962
  0
LINE
  5
330
100
AcDbEntity
  8
DTM_AXIS
100
AcDbLine
 62
7
  6
CONTINUOUS
 10
229.3470613498
 20
97.4336279082
 11
232.6222573756
 21
97.4484961891
  0
LINE
  5
331
100
AcDbEntity
  8
DTM_AXIS
100
AcDbLine
 62
7
  6
CONTINUOUS
 10
231.4896550308
 20
98.4347308819
 11
228.2144590051
 21
98.4198626011
  0
LINE
  5
332
100
AcDbEntity
  8
DTM_AXIS
100
AcDbLine
 62
7
  6
CONTINUOUS
 10
230.3570526861
 20
99.4209655747
 11
227.0818566604
 21
99.4060972939
  0
LINE
  5
333
100
AcDbEntity
  8
0
100
AcDbLine
 62
7
  6
CONTINUOUS
 10
169.3252004514
 20
133.7914454198
 11
237.4516572775
 21
74.4690578806
  0
LINE
  5
334
100
AcDbEntity
  8
0
100
AcDbLine
 62
7
  6
CONTINUOUS
 10
169.3157411472
 20
135.4620844525
 11
170.607159429
 21
134.3375578097
  0
LINE
  5
335
100
AcDbEntity
  8
DTM_AXIS
100
AcDbLine
 62
7
  6
CONTINUOUS
 10
170.607159429
 20
134.3375578097
 11
236.3207552014
 21
77.1162141993
  0
LINE
  5
336
100
AcDbEntity
  8
0
100
AcDbLine
 62
7
  6
CONTINUOUS
 10
236.3207552014
 20
77.1162141993
 11
237.4421979733
 21
76.1396969133
  0
LINE
  5
337
100
AcDbEntity
  8
DTM_AXIS
100
AcDbLine
 62
7
  6
CONTINUOUS
 10
194.769780467
 20
130.4124398173
 11
194.6948609302
 21
143.0041698307
  0
LINE
  5
338
100
AcDbEntity
  8
DTM_AXIS
100
AcDbLine
 62
7
  6
CONTINUOUS
 10
195.3666631577
 20
127.4117990059
 11
195.3689910078
 21
127.0206686934
  0
LINE
  5
339
100
AcDbEntity
  8
DTM_AXIS
100
AcDbLine
 62
7
  6
CONTINUOUS
 10
196.3826062059
 20
129.0080416147
 11
196.3076866691
 21
141.5997716281
  0
LINE
  5
33A
100
AcDbEntity
  8
DTM_AXIS
100
AcDbLine
 62
7
  6
CONTINUOUS
 10
196.4992655024
 20
126.425564313
 11
196.5015933526
 21
126.0344340005
  0
LINE
  5
33B
100
AcDbEntity
  8
DTM_AXIS
100
AcDbLine
 62
7
  6
CONTINUOUS
 10
197.5152085441
 20
128.0218080124
 11
197.4402890138
 21
140.6135369352
  0
LINE
  5
33C
100
AcDbEntity
  8
DTM_AXIS
100
AcDbLine
 62
7
  6
CONTINUOUS
 10
197.6318678471
 20
125.4393296202
 11
197.6341956973
 21
125.0481993077
  0
LINE
  5
33D
100
AcDbEntity
  8
DTM_AXIS
100
AcDbLine
 62
7
  6
CONTINUOUS
 10
198.1675874947
 20
127.4537368293
 11
198.0926679644
 21
140.0454657521
  0
LINE
  5
33E
100
AcDbEntity
  8
DTM_AXIS
100
AcDbLine
 62
7
  6
CONTINUOUS
 10
198.7644701919
 20
124.4530949273
 11
198.766798042
 21
124.0619646149
  0
LINE
  5
33F
100
AcDbEntity
  8
DTM_AXIS
100
AcDbLine
 62
7
  6
CONTINUOUS
 10
199.3001898459
 20
126.4675010459
 11
199.2252703091
 21
139.0592310593
  0
LINE
  5
340
100
AcDbEntity
  8
DTM_AXIS
100
AcDbLine
 62
7
  6
CONTINUOUS
 10
199.8970725366
 20
123.4668602345
 11
199.8994003868
 21
123.075729922
  0
LINE
  5
341
100
AcDbEntity
  8
DTM_AXIS
100
AcDbLine
 62
7
  6
CONTINUOUS
 10
195.2463799993
 20
129.9942410527
 11
195.1750843244
 21
142.5860063209
  0
LINE
  5
342
100
AcDbEntity
  8
DTM_AXIS
100
AcDbLine
 62
7
  6
CONTINUOUS
 10
195.8987589499
 20
129.4261698697
 11
195.8274632749
 21
142.0179351378
  0
LINE
  5
343
100
AcDbEntity
  8
DTM_AXIS
100
AcDbLine
 62
7
  6
CONTINUOUS
 10
197.0313612946
 20
128.4399351768
 11
196.9600656197
 21
141.031700445
  0
LINE
  5
344
100
AcDbEntity
  8
DTM_AXIS
100
AcDbLine
 62
7
  6
CONTINUOUS
 10
198.6441870335
 20
127.0355369742
 11
198.5728913586
 21
139.6273022424
  0
LINE
  5
345
100
AcDbEntity
  8
DTM_AXIS
100
AcDbLine
 62
7
  6
CONTINUOUS
 10
199.7767893783
 20
126.0493022814
 11
199.7054937033
 21
138.6410675495
  0
LINE
  5
346
100
AcDbEntity
  8
DTM_AXIS
100
AcDbLine
 62
7
  6
CONTINUOUS
 10
200.4291683288
 20
125.4812310983
 11
200.3578726539
 21
138.0729963665
  0
LINE
  5
347
100
AcDbEntity
  8
0
100
AcDbLine
 62
7
  6
CONTINUOUS
 10
217.7482596974
 20
192.1755335449
 11
217.7281649693
 21
192.1179662798
  0
LINE
  5
348
100
AcDbEntity
  8
0
100
AcDbLine
 62
7
  6
CONTINUOUS
 10
169.7502013076
 20
145.6362678084
 11
166.2586400854
 21
144.2987793081
  0
LINE
  5
349
100
AcDbEntity
  8
DTM_AXIS
100
AcDbLine
 62
7
  6
CONTINUOUS
 10
228.7442269472
 20
100.8253637773
 11
225.5076330043
 21
100.7768820103
  0
LINE
  5
34A
100
AcDbEntity
  8
DTM_AXIS
100
AcDbLine
 62
7
  6
CONTINUOUS
 10
227.6116246025
 20
101.8115984702
 11
224.3750306596
 21
101.7631167031
  0
LINE
  5
34B
100
AcDbEntity
  8
DTM_AXIS
100
AcDbLine
 62
7
  6
CONTINUOUS
 10
223.2424283148
 20
102.749351396
 11
226.4790222577
 21
102.797833163
  0
LINE
  5
34C
100
AcDbEntity
  8
DTM_AXIS
100
AcDbLine
 62
7
  6
CONTINUOUS
 10
222.1098259701
 20
103.7355860888
 11
225.346419913
 21
103.7840678559
  0
LINE
  5
34D
100
AcDbEntity
  8
DTM_AXIS
100
AcDbLine
 62
7
  6
CONTINUOUS
 10
224.2138175683
 20
104.7703025487
 11
220.9772236253
 21
104.7218207817
  0
LINE
  5
34E
100
AcDbEntity
  8
0
100
AcDbLine
 62
7
  6
CONTINUOUS
 10
275.5370299045
 20
100.6366978034
 11
269.7120253835
 21
100.5800291583
  0
LINE
  5
34F
100
AcDbEntity
  8
0
100
AcDbLine
 62
7
  6
CONTINUOUS
 10
257.3168332448
 20
101.5780692112
 11
254.1652609055
 21
101.5474090917
  0
LINE
  5
350
100
AcDbEntity
  8
0
100
AcDbLine
 62
7
  6
CONTINUOUS
 10
264.6254825805
 20
103.6966954389
 11
257.305240624
 21
103.6254803535
  0
LINE
  5
351
100
AcDbEntity
  8
DTM_AXIS
100
AcDbLine
 62
7
  6
CONTINUOUS
 10
243.3992635388
 20
100.1756029146
 11
243.8769851479
 21
100.1779145288
  0
LINE
  5
352
100
AcDbEntity
  8
DTM_AXIS
100
AcDbLine
 62
7
  6
CONTINUOUS
 10
242.2665401792
 20
101.1618370218
 11
242.7443828032
 21
101.1641492217
  0
LINE
  5
353
100
AcDbEntity
  8
DTM_AXIS
100
AcDbLine
 62
7
  6
CONTINUOUS
 10
241.1339378345
 20
102.1480717147
 11
241.6117804585
 21
102.1503839145
  0
LINE
  5
354
100
AcDbEntity
  8
DTM_AXIS
100
AcDbLine
 62
7
  6
CONTINUOUS
 10
240.0014565046
 20
103.1343069931
 11
240.4791781137
 21
103.1366186074
  0
LINE
  5
355
100
AcDbEntity
  8
DTM_AXIS
100
AcDbLine
 62
7
  6
CONTINUOUS
 10
238.8688541599
 20
104.1205416859
 11
239.346575769
 21
104.1228533002
  0
LINE
  5
356
100
AcDbEntity
  8
DTM_AXIS
100
AcDbLine
 62
7
  6
CONTINUOUS
 10
237.7361308003
 20
105.1067757932
 11
238.2139734243
 21
105.109087993
  0
LINE
  5
357
100
AcDbEntity
  8
DTM_AXIS
100
AcDbLine
 62
7
  6
CONTINUOUS
 10
225.9492543156
 20
100.3923319867
 11
229.2244503414
 21
100.4072002676
  0
LINE
  5
358
100
AcDbEntity
  8
DTM_AXIS
100
AcDbLine
 62
7
  6
CONTINUOUS
 10
224.8166519709
 20
101.3785666796
 11
228.0918479966
 21
101.3934349604
  0
LINE
  5
359
100
AcDbEntity
  8
DTM_AXIS
100
AcDbLine
 62
7
  6
CONTINUOUS
 10
226.9592456519
 20
102.3796696533
 11
223.6840496262
 21
102.3648013724
  0
LINE
  5
35A
100
AcDbEntity
  8
DTM_AXIS
100
AcDbLine
 62
7
  6
CONTINUOUS
 10
225.8266433072
 20
103.3659043461
 11
222.5514472814
 21
103.3510360652
  0
LINE
  5
35B
100
AcDbEntity
  8
DTM_AXIS
100
AcDbLine
 62
7
  6
CONTINUOUS
 10
221.4188449367
 20
104.3372707581
 11
224.6940409624
 21
104.3521390389
  0
LINE
  5
35C
100
AcDbEntity
  8
DTM_AXIS
100
AcDbLine
 62
7
  6
CONTINUOUS
 10
220.286242592
 20
105.3235054509
 11
223.5614386177
 21
105.3383737318
  0
LINE
  5
35D
100
AcDbEntity
  8
0
100
AcDbLine
 62
7
  6
CONTINUOUS
 10
173.6800209132
 20
139.5344576428
 11
174.971439195
 21
138.4099309999
  0
LINE
  5
35E
100
AcDbEntity
  8
DTM_AXIS
100
AcDbLine
 62
7
  6
CONTINUOUS
 10
174.971439195
 20
138.4099309999
 11
240.6850349674
 21
81.1885873895
  0
LINE
  5
35F
100
AcDbEntity
  8
0
100
AcDbLine
 62
7
  6
CONTINUOUS
 10
240.6850349674
 20
81.1885873895
 11
241.8064777393
 21
80.2120701036
  0
LINE
  5
360
100
AcDbEntity
  8
0
100
AcDbLine
 62
7
  6
CONTINUOUS
 10
244.8152643665
 20
80.2413411301
 11
176.6888075404
 21
139.5637286693
  0
LINE
  5
361
100
AcDbEntity
  8
DTM_AXIS
100
AcDbLine
 62
7
  6
CONTINUOUS
 10
200.9130155848
 20
125.0631028433
 11
200.8380960481
 21
137.6548328567
  0
LINE
  5
362
100
AcDbEntity
  8
DTM_AXIS
100
AcDbLine
 62
7
  6
CONTINUOUS
 10
201.0296748813
 20
122.4806255417
 11
201.0320027315
 21
122.0894952292
  0
LINE
  5
363
100
AcDbEntity
  8
DTM_AXIS
100
AcDbLine
 62
7
  6
CONTINUOUS
 10
202.0456179231
 20
124.076869241
 11
201.9706983928
 21
136.6685981639
  0
LINE
  5
364
100
AcDbEntity
  8
DTM_AXIS
100
AcDbLine
 62
7
  6
CONTINUOUS
 10
202.1622772261
 20
121.4943908488
 11
202.1646050762
 21
121.1032605363
  0
LINE
  5
365
100
AcDbEntity
  8
DTM_AXIS
100
AcDbLine
 62
7
  6
CONTINUOUS
 10
202.6979968736
 20
123.508798058
 11
202.6230773434
 21
136.1005269808
  0
LINE
  5
366
100
AcDbEntity
  8
DTM_AXIS
100
AcDbLine
 62
7
  6
CONTINUOUS
 10
203.2948795708
 20
120.508156156
 11
203.297207421
 21
120.1170258435
  0
LINE
  5
367
100
AcDbEntity
  8
DTM_AXIS
100
AcDbLine
 62
7
  6
CONTINUOUS
 10
203.8305992248
 20
122.5225622746
 11
203.7556796881
 21
135.114292288
  0
LINE
  5
368
100
AcDbEntity
  8
DTM_AXIS
100
AcDbLine
 62
7
  6
CONTINUOUS
 10
204.4274819155
 20
119.5219214632
 11
204.4298097657
 21
119.1307911507
  0
LINE
  5
369
100
AcDbEntity
  8
DTM_AXIS
100
AcDbLine
 62
7
  6
CONTINUOUS
 10
205.4434249637
 20
121.118164072
 11
205.368505427
 21
133.7098940854
  0
LINE
  5
36A
100
AcDbEntity
  8
DTM_AXIS
100
AcDbLine
 62
7
  6
CONTINUOUS
 10
205.5600842603
 20
118.5356867703
 11
205.5624121104
 21
118.1445564578
  0
LINE
  5
36B
100
AcDbEntity
  8
DTM_AXIS
100
AcDbLine
 62
7
  6
CONTINUOUS
 10
201.5617706736
 20
124.4949964055
 11
201.4904749986
 21
137.0867616736
  0
LINE
  5
36C
100
AcDbEntity
  8
0
100
AcDbLine
 62
7
  6
CONTINUOUS
 10
202.321701875
 20
173.0197839973
 11
202.331548078
 21
171.2808134842
  0
LINE
  5
36D
100
AcDbEntity
  8
DTM_AXIS
100
AcDbLine
 62
7
  6
CONTINUOUS
 10
203.1745964125
 20
123.0905982029
 11
203.1033007375
 21
135.682363471
  0
LINE
  5
36E
100
AcDbEntity
  8
DTM_AXIS
100
AcDbLine
 62
7
  6
CONTINUOUS
 10
204.3071987572
 20
122.10436351
 11
204.2359030823
 21
134.6961287782
  0
LINE
  5
36F
100
AcDbEntity
  8
DTM_AXIS
100
AcDbLine
 62
7
  6
CONTINUOUS
 10
204.9595777078
 20
121.536292327
 11
204.8882820328
 21
134.1280575951
  0
LINE
  5
370
100
AcDbEntity
  8
DTM_AXIS
100
AcDbLine
 62
7
  6
CONTINUOUS
 10
206.0921800525
 20
120.5500576341
 11
206.0208843776
 21
133.1418229023
  0
LINE
  5
371
100
AcDbEntity
  8
0
100
AcDbLine
 62
7
  6
CONTINUOUS
 10
166.3502781597
 20
138.0232279677
 11
166.2942941227
 21
138.0018017084
  0
LINE
  5
372
100
AcDbEntity
  8
DTM_AXIS
100
AcDbLine
 62
7
  6
CONTINUOUS
 10
223.0812152235
 20
105.7565372415
 11
219.8446212806
 21
105.7080554745
  0
LINE
  5
373
100
AcDbEntity
  8
DTM_AXIS
100
AcDbLine
 62
7
  6
CONTINUOUS
 10
218.7120189359
 20
106.6942901673
 11
221.9486128788
 21
106.7427719344
  0
LINE
  5
374
100
AcDbEntity
  8
DTM_AXIS
100
AcDbLine
 62
7
  6
CONTINUOUS
 10
217.5794165911
 20
107.6805248602
 11
220.8160105341
 21
107.7290066272
  0
LINE
  5
375
100
AcDbEntity
  8
DTM_AXIS
100
AcDbLine
 62
7
  6
CONTINUOUS
 10
219.6834081893
 20
108.71524132
 11
216.4468142464
 21
108.666759553
  0
LINE
  5
376
100
AcDbEntity
  8
DTM_AXIS
100
AcDbLine
 62
7
  6
CONTINUOUS
 10
218.5508058446
 20
109.7014760129
 11
215.3142119017
 21
109.6529942459
  0
LINE
  5
377
100
AcDbEntity
  8
DTM_AXIS
100
AcDbLine
 62
7
  6
CONTINUOUS
 10
214.1816095569
 20
110.6392289387
 11
217.4182034999
 21
110.6877107057
  0
LINE
  5
378
100
AcDbEntity
  8
DTM_AXIS
100
AcDbLine
 62
7
  6
CONTINUOUS
 10
236.6035284556
 20
106.093010486
 11
237.0813710795
 21
106.0953226859
  0
LINE
  5
379
100
AcDbEntity
  8
DTM_AXIS
100
AcDbLine
 62
7
  6
CONTINUOUS
 10
235.4710471257
 20
107.0792457644
 11
235.9487687348
 21
107.0815573787
  0
LINE
  5
37A
100
AcDbEntity
  8
DTM_AXIS
100
AcDbLine
 62
7
  6
CONTINUOUS
 10
234.3384447809
 20
108.0654804573
 11
234.8161663901
 21
108.0677920715
  0
LINE
  5
37B
100
AcDbEntity
  8
DTM_AXIS
100
AcDbLine
 62
7
  6
CONTINUOUS
 10
233.2057214214
 20
109.0517145645
 11
233.6835640453
 21
109.0540267644
  0
LINE
  5
37C
100
AcDbEntity
  8
DTM_AXIS
100
AcDbLine
 62
7
  6
CONTINUOUS
 10
232.0731190766
 20
110.0379492574
 11
232.5509617006
 21
110.0402614572
  0
LINE
  5
37D
100
AcDbEntity
  8
DTM_AXIS
100
AcDbLine
 62
7
  6
CONTINUOUS
 10
230.9406377467
 20
111.0241845358
 11
231.4183593559
 21
111.0264961501
  0
LINE
  5
37E
100
AcDbEntity
  8
DTM_AXIS
100
AcDbLine
 62
7
  6
CONTINUOUS
 10
222.428836273
 20
106.3246084246
 11
219.1536402472
 21
106.3097401438
  0
LINE
  5
37F
100
AcDbEntity
  8
DTM_AXIS
100
AcDbLine
 62
7
  6
CONTINUOUS
 10
221.2962339282
 20
107.3108431174
 11
218.0210379025
 21
107.2959748366
  0
LINE
  5
380
100
AcDbEntity
  8
DTM_AXIS
100
AcDbLine
 62
7
  6
CONTINUOUS
 10
216.8884355578
 20
108.2822095294
 11
220.1636315835
 21
108.2970778103
  0
LINE
  5
381
100
AcDbEntity
  8
DTM_AXIS
100
AcDbLine
 62
7
  6
CONTINUOUS
 10
215.755833213
 20
109.2684442223
 11
219.0310292388
 21
109.2833125031
  0
LINE
  5
382
100
AcDbEntity
  8
DTM_AXIS
100
AcDbLine
 62
7
  6
CONTINUOUS
 10
217.898426894
 20
110.269547196
 11
214.6232308683
 21
110.2546789151
  0
LINE
  5
383
100
AcDbEntity
  8
DTM_AXIS
100
AcDbLine
 62
7
  6
CONTINUOUS
 10
216.7658245493
 20
111.2557818888
 11
213.4906285236
 21
111.240913608
  0
LINE
  5
384
100
AcDbEntity
  8
0
100
AcDbLine
 62
7
  6
CONTINUOUS
 10
176.6705015261
 20
142.6404213504
 11
244.7969583522
 21
83.3180338112
  0
LINE
  5
385
100
AcDbEntity
  8
DTM_AXIS
100
AcDbLine
 62
7
  6
CONTINUOUS
 10
245.2034941761
 20
83.6263422085
 11
244.7618728648
 21
84.010892232
  0
LINE
  5
386
100
AcDbEntity
  8
DTM_AXIS
100
AcDbLine
 62
7
  6
CONTINUOUS
 10
241.8056871419
 20
86.585046287
 11
241.3640658306
 21
86.9695963106
  0
LINE
  5
387
100
AcDbEntity
  8
DTM_AXIS
100
AcDbLine
 62
7
  6
CONTINUOUS
 10
240.6730847972
 20
87.5712809798
 11
240.2314634858
 21
87.9558310034
  0
LINE
  5
388
100
AcDbEntity
  8
DTM_AXIS
100
AcDbLine
 62
7
  6
CONTINUOUS
 10
237.275277763
 20
90.5299850583
 11
236.8336564516
 21
90.9145350819
  0
LINE
  5
389
100
AcDbEntity
  8
DTM_AXIS
100
AcDbLine
 62
7
  6
CONTINUOUS
 10
236.1426754183
 20
91.5162197512
 11
235.7010541069
 21
91.9007697748
  0
LINE
  5
38A
100
AcDbEntity
  8
DTM_AXIS
100
AcDbLine
 62
7
  6
CONTINUOUS
 10
232.7448683841
 20
94.4749238297
 11
232.3032470727
 21
94.8594738533
  0
LINE
  5
38B
100
AcDbEntity
  8
DTM_AXIS
100
AcDbLine
 62
7
  6
CONTINUOUS
 10
231.6122660393
 20
95.4611585225
 11
231.170644728
 21
95.8457085461
  0
LINE
  5
38C
100
AcDbEntity
  8
DTM_AXIS
100
AcDbLine
 62
7
  6
CONTINUOUS
 10
228.2144590051
 20
98.4198626011
 11
227.7728376938
 21
98.8044126246
  0
LINE
  5
38D
100
AcDbEntity
  8
DTM_AXIS
100
AcDbLine
 62
7
  6
CONTINUOUS
 10
227.0818566604
 20
99.4060972939
 11
226.640235349
 21
99.7906473175
  0
LINE
  5
38E
100
AcDbEntity
  8
DTM_AXIS
100
AcDbLine
 62
7
  6
CONTINUOUS
 10
223.6840496262
 20
102.3648013724
 11
223.2424283148
 21
102.749351396
  0
LINE
  5
38F
100
AcDbEntity
  8
DTM_AXIS
100
AcDbLine
 62
7
  6
CONTINUOUS
 10
222.5514472814
 20
103.3510360652
 11
222.1098259701
 21
103.7355860888
  0
LINE
  5
390
100
AcDbEntity
  8
DTM_AXIS
100
AcDbLine
 62
7
  6
CONTINUOUS
 10
219.1536402472
 20
106.3097401438
 11
218.7120189359
 21
106.6942901673
  0
LINE
  5
391
100
AcDbEntity
  8
DTM_AXIS
100
AcDbLine
 62
7
  6
CONTINUOUS
 10
218.0210379025
 20
107.2959748366
 11
217.5794165911
 21
107.6805248602
  0
LINE
  5
392
100
AcDbEntity
  8
DTM_AXIS
100
AcDbLine
 62
7
  6
CONTINUOUS
 10
214.6232308683
 20
110.2546789151
 11
214.1816095569
 21
110.6392289387
  0
LINE
  5
393
100
AcDbEntity
  8
DTM_AXIS
100
AcDbLine
 62
7
  6
CONTINUOUS
 10
213.4906285236
 20
111.240913608
 11
213.0490072122
 21
111.6254636315
  0
LINE
  5
394
100
AcDbEntity
  8
DTM_AXIS
100
AcDbLine
 62
7
  6
CONTINUOUS
 10
210.0928214894
 20
114.1996176865
 11
209.651200178
 21
114.58416771
  0
LINE
  5
395
100
AcDbEntity
  8
DTM_AXIS
100
AcDbLine
 62
7
  6
CONTINUOUS
 10
208.9602191446
 20
115.1858523793
 11
208.5185978333
 21
115.5704024029
  0
LINE
  5
396
100
AcDbEntity
  8
DTM_AXIS
100
AcDbLine
 62
7
  6
CONTINUOUS
 10
205.5624121104
 20
118.1445564578
 11
205.1207907991
 21
118.5291064814
  0
LINE
  5
397
100
AcDbEntity
  8
DTM_AXIS
100
AcDbLine
 62
7
  6
CONTINUOUS
 10
204.4298097657
 20
119.1307911507
 11
203.9881884543
 21
119.5153411742
  0
LINE
  5
398
100
AcDbEntity
  8
DTM_AXIS
100
AcDbLine
 62
7
  6
CONTINUOUS
 10
201.0320027315
 20
122.0894952292
 11
200.5903814201
 21
122.4740452528
  0
LINE
  5
399
100
AcDbEntity
  8
DTM_AXIS
100
AcDbLine
 62
7
  6
CONTINUOUS
 10
199.8994003868
 20
123.075729922
 11
199.4577790754
 21
123.4602799456
  0
LINE
  5
39A
100
AcDbEntity
  8
DTM_AXIS
100
AcDbLine
 62
7
  6
CONTINUOUS
 10
196.5015933526
 20
126.0344340005
 11
196.0599720412
 21
126.4189840241
  0
LINE
  5
39B
100
AcDbEntity
  8
DTM_AXIS
100
AcDbLine
 62
7
  6
CONTINUOUS
 10
195.3689910078
 20
127.0206686934
 11
194.9273696965
 21
127.4052187169
  0
LINE
  5
39C
100
AcDbEntity
  8
DTM_AXIS
100
AcDbLine
 62
7
  6
CONTINUOUS
 10
191.9711839736
 20
129.9793727719
 11
191.5295626623
 21
130.3639227955
  0
LINE
  5
39D
100
AcDbEntity
  8
DTM_AXIS
100
AcDbLine
 62
7
  6
CONTINUOUS
 10
190.8385816289
 20
130.9656074647
 11
190.3969603175
 21
131.3501574883
  0
LINE
  5
39E
100
AcDbEntity
  8
DTM_AXIS
100
AcDbLine
 62
7
  6
CONTINUOUS
 10
187.4407745947
 20
133.9243115433
 11
186.9991532833
 21
134.3088615668
  0
LINE
  5
39F
100
AcDbEntity
  8
DTM_AXIS
100
AcDbLine
 62
7
  6
CONTINUOUS
 10
186.30817225
 20
134.9105462361
 11
185.8665509386
 21
135.2950962597
  0
LINE
  5
3A0
100
AcDbEntity
  8
DTM_AXIS
100
AcDbLine
 62
7
  6
CONTINUOUS
 10
182.9103652158
 20
137.8692503146
 11
182.4687439044
 21
138.2538003382
  0
LINE
  5
3A1
100
AcDbEntity
  8
DTM_AXIS
100
AcDbLine
 62
7
  6
CONTINUOUS
 10
181.777762871
 20
138.8554850074
 11
181.3361415597
 21
139.240035031
  0
LINE
  5
3A2
100
AcDbEntity
  8
DTM_AXIS
100
AcDbLine
 62
7
  6
CONTINUOUS
 10
178.3799558368
 20
141.814189086
 11
177.9383345255
 21
142.1987391095
  0
LINE
  5
3A3
100
AcDbEntity
  8
DTM_AXIS
100
AcDbLine
 62
7
  6
CONTINUOUS
 10
179.0709368702
 20
141.2125044167
 11
179.5125581816
 21
140.8279543931
  0
LINE
  5
3A4
100
AcDbEntity
  8
DTM_AXIS
100
AcDbLine
 62
7
  6
CONTINUOUS
 10
180.2035392149
 20
140.2262697239
 11
180.6451605263
 21
139.8417197003
  0
LINE
  5
3A5
100
AcDbEntity
  8
DTM_AXIS
100
AcDbLine
 62
7
  6
CONTINUOUS
 10
183.6013462491
 20
137.2675656453
 11
184.0429675605
 21
136.8830156218
  0
LINE
  5
3A6
100
AcDbEntity
  8
DTM_AXIS
100
AcDbLine
 62
7
  6
CONTINUOUS
 10
184.7339485939
 20
136.2813309525
 11
185.1755699052
 21
135.8967809289
  0
LINE
  5
3A7
100
AcDbEntity
  8
DTM_AXIS
100
AcDbLine
 62
7
  6
CONTINUOUS
 10
188.1317556281
 20
133.322626874
 11
188.5733769394
 21
132.9380768504
  0
LINE
  5
3A8
100
AcDbEntity
  8
DTM_AXIS
100
AcDbLine
 62
7
  6
CONTINUOUS
 10
189.2643579728
 20
132.3363921811
 11
189.7059792842
 21
131.9518421576
  0
LINE
  5
3A9
100
AcDbEntity
  8
DTM_AXIS
100
AcDbLine
 62
7
  6
CONTINUOUS
 10
192.662165007
 20
129.3776881026
 11
193.1037863184
 21
128.9931380791
  0
LINE
  5
3AA
100
AcDbEntity
  8
DTM_AXIS
100
AcDbLine
 62
7
  6
CONTINUOUS
 10
193.7947673517
 20
128.3914534098
 11
194.2363886631
 21
128.0069033862
  0
LINE
  5
3AB
100
AcDbEntity
  8
DTM_AXIS
100
AcDbLine
 62
7
  6
CONTINUOUS
 10
197.1925743859
 20
125.4327493313
 11
197.6341956973
 21
125.0481993077
  0
LINE
  5
3AC
100
AcDbEntity
  8
DTM_AXIS
100
AcDbLine
 62
7
  6
CONTINUOUS
 10
198.3251767307
 20
124.4465146384
 11
198.766798042
 21
124.0619646149
  0
LINE
  5
3AD
100
AcDbEntity
  8
DTM_AXIS
100
AcDbLine
 62
7
  6
CONTINUOUS
 10
201.7229837649
 20
121.4878105599
 11
202.1646050762
 21
121.1032605363
  0
LINE
  5
3AE
100
AcDbEntity
  8
DTM_AXIS
100
AcDbLine
 62
7
  6
CONTINUOUS
 10
202.8555861096
 20
120.5015758671
 11
203.297207421
 21
120.1170258435
  0
LINE
  5
3AF
100
AcDbEntity
  8
DTM_AXIS
100
AcDbLine
 62
7
  6
CONTINUOUS
 10
206.2533931438
 20
117.5428717886
 11
206.6950144552
 21
117.158321765
  0
LINE
  5
3B0
100
AcDbEntity
  8
DTM_AXIS
100
AcDbLine
 62
7
  6
CONTINUOUS
 10
207.3859954885
 20
116.5566370957
 11
207.8276167999
 21
116.1720870722
  0
LINE
  5
3B1
100
AcDbEntity
  8
DTM_AXIS
100
AcDbLine
 62
7
  6
CONTINUOUS
 10
210.7838025227
 20
113.5979330172
 11
211.2254238341
 21
113.2133829936
  0
LINE
  5
3B2
100
AcDbEntity
  8
DTM_AXIS
100
AcDbLine
 62
7
  6
CONTINUOUS
 10
211.9164048675
 20
112.6116983244
 11
212.3580261788
 21
112.2271483008
  0
LINE
  5
3B3
100
AcDbEntity
  8
DTM_AXIS
100
AcDbLine
 62
7
  6
CONTINUOUS
 10
215.3142119017
 20
109.6529942459
 11
215.755833213
 21
109.2684442223
  0
LINE
  5
3B4
100
AcDbEntity
  8
DTM_AXIS
100
AcDbLine
 62
7
  6
CONTINUOUS
 10
216.4468142464
 20
108.666759553
 11
216.8884355578
 21
108.2822095294
  0
LINE
  5
3B5
100
AcDbEntity
  8
DTM_AXIS
100
AcDbLine
 62
7
  6
CONTINUOUS
 10
219.8446212806
 20
105.7080554745
 11
220.286242592
 21
105.3235054509
  0
LINE
  5
3B6
100
AcDbEntity
  8
DTM_AXIS
100
AcDbLine
 62
7
  6
CONTINUOUS
 10
220.9772236253
 20
104.7218207817
 11
221.4188449367
 21
104.3372707581
  0
LINE
  5
3B7
100
AcDbEntity
  8
DTM_AXIS
100
AcDbLine
 62
7
  6
CONTINUOUS
 10
224.3750306596
 20
101.7631167031
 11
224.8166519709
 21
101.3785666796
  0
LINE
  5
3B8
100
AcDbEntity
  8
DTM_AXIS
100
AcDbLine
 62
7
  6
CONTINUOUS
 10
225.5076330043
 20
100.7768820103
 11
225.9492543156
 21
100.3923319867
  0
LINE
  5
3B9
100
AcDbEntity
  8
DTM_AXIS
100
AcDbLine
 62
7
  6
CONTINUOUS
 10
228.9054400385
 20
97.8181779318
 11
229.3470613498
 21
97.4336279082
  0
LINE
  5
3BA
100
AcDbEntity
  8
DTM_AXIS
100
AcDbLine
 62
7
  6
CONTINUOUS
 10
230.0380423832
 20
96.8319432389
 11
230.4796636946
 21
96.4473932154
  0
LINE
  5
3BB
100
AcDbEntity
  8
DTM_AXIS
100
AcDbLine
 62
7
  6
CONTINUOUS
 10
233.4358494174
 20
93.8732391604
 11
233.8774707288
 21
93.4886891369
  0
LINE
  5
3BC
100
AcDbEntity
  8
DTM_AXIS
100
AcDbLine
 62
7
  6
CONTINUOUS
 10
234.5684517622
 20
92.8870044676
 11
235.0100730735
 21
92.502454444
  0
LINE
  5
3BD
100
AcDbEntity
  8
DTM_AXIS
100
AcDbLine
 62
7
  6
CONTINUOUS
 10
237.9662587964
 20
89.9283003891
 11
238.4078801077
 21
89.5437503655
  0
LINE
  5
3BE
100
AcDbEntity
  8
DTM_AXIS
100
AcDbLine
 62
7
  6
CONTINUOUS
 10
239.0988611411
 20
88.9420656962
 11
239.5404824525
 21
88.5575156727
  0
LINE
  5
3BF
100
AcDbEntity
  8
DTM_AXIS
100
AcDbLine
 62
7
  6
CONTINUOUS
 10
242.4966681753
 20
85.9833616177
 11
242.9382894867
 21
85.5988115942
  0
LINE
  5
3C0
100
AcDbEntity
  8
DTM_AXIS
100
AcDbLine
 62
7
  6
CONTINUOUS
 10
243.62927052
 20
84.9971269249
 11
244.0708918314
 21
84.6125769013
  0
LINE
  5
3C1
100
AcDbEntity
  8
0
100
AcDbLine
 62
7
  6
CONTINUOUS
 10
248.8086738551
 20
83.3570618466
 11
248.4823140636
 21
83.6412457441
  0
LINE
  5
3C2
100
AcDbEntity
  8
DTM_AXIS
100
AcDbLine
 62
7
  6
CONTINUOUS
 10
245.73688598
 20
86.0318786396
 11
245.0845070294
 21
86.5999498226
  0
LINE
  5
3C3
100
AcDbEntity
  8
DTM_AXIS
100
AcDbLine
 62
7
  6
CONTINUOUS
 10
244.6042836353
 20
87.0181133324
 11
243.9519046847
 21
87.5861845155
  0
LINE
  5
3C4
100
AcDbEntity
  8
DTM_AXIS
100
AcDbLine
 62
7
  6
CONTINUOUS
 10
240.0738742563
 20
90.9630521037
 11
239.4214953058
 21
91.5311232868
  0
LINE
  5
3C5
100
AcDbEntity
  8
DTM_AXIS
100
AcDbLine
 62
7
  6
CONTINUOUS
 10
238.9412719051
 20
91.9492878871
 11
238.2888929545
 21
92.5173590702
  0
LINE
  5
3C6
100
AcDbEntity
  8
DTM_AXIS
100
AcDbLine
 62
7
  6
CONTINUOUS
 10
236.6760672221
 20
93.9217561823
 11
236.0236882716
 21
94.4898273653
  0
LINE
  5
3C7
100
AcDbEntity
  8
DTM_AXIS
100
AcDbLine
 62
7
  6
CONTINUOUS
 10
235.5434648774
 20
94.9079908751
 11
234.8910859268
 21
95.4760620582
  0
LINE
  5
3C8
100
AcDbEntity
  8
DTM_AXIS
100
AcDbLine
 62
7
  6
CONTINUOUS
 10
231.0130554985
 20
98.8529296465
 11
230.3606765479
 21
99.4210008295
  0
LINE
  5
3C9
100
AcDbEntity
  8
DTM_AXIS
100
AcDbLine
 62
7
  6
CONTINUOUS
 10
227.6152484643
 20
101.811633725
 11
226.9628695137
 21
102.379704908
  0
LINE
  5
3CA
100
AcDbEntity
  8
DTM_AXIS
100
AcDbLine
 62
7
  6
CONTINUOUS
 10
226.4826461195
 20
102.7978684178
 11
225.830267169
 21
103.3659396009
  0
LINE
  5
3CB
100
AcDbEntity
  8
DTM_AXIS
100
AcDbLine
 62
7
  6
CONTINUOUS
 10
225.3500437683
 20
103.7841042012
 11
224.6976648177
 21
104.3521753843
  0
LINE
  5
3CC
100
AcDbEntity
  8
DTM_AXIS
100
AcDbLine
 62
7
  6
CONTINUOUS
 10
221.9522367406
 20
106.7428071892
 11
221.29985779
 21
107.3108783722
  0
LINE
  5
3CD
100
AcDbEntity
  8
DTM_AXIS
100
AcDbLine
 62
7
  6
CONTINUOUS
 10
220.8196343894
 20
107.7290429725
 11
220.1672554388
 21
108.2971141556
  0
LINE
  5
3CE
100
AcDbEntity
  8
DTM_AXIS
100
AcDbLine
 62
7
  6
CONTINUOUS
 10
218.5544297064
 20
109.7015112677
 11
217.9020507558
 21
110.2695824508
  0
LINE
  5
3CF
100
AcDbEntity
  8
DTM_AXIS
100
AcDbLine
 62
7
  6
CONTINUOUS
 10
217.4218273616
 20
110.6877459605
 11
216.7694484111
 21
111.2558171436
  0
LINE
  5
3D0
100
AcDbEntity
  8
DTM_AXIS
100
AcDbLine
 62
7
  6
CONTINUOUS
 10
216.2892250104
 20
111.6739817439
 11
215.6368460599
 21
112.242052927
  0
LINE
  5
3D1
100
AcDbEntity
  8
DTM_AXIS
100
AcDbLine
 62
7
  6
CONTINUOUS
 10
212.8914179827
 20
114.6326847319
 11
212.2390390321
 21
115.200755915
  0
LINE
  5
3D2
100
AcDbEntity
  8
DTM_AXIS
100
AcDbLine
 62
7
  6
CONTINUOUS
 10
209.4936109485
 20
117.5913888104
 11
208.8412319979
 21
118.1594599935
  0
LINE
  5
3D3
100
AcDbEntity
  8
DTM_AXIS
100
AcDbLine
 62
7
  6
CONTINUOUS
 10
208.3610086038
 20
118.5776235032
 11
207.7086296532
 21
119.1456946863
  0
LINE
  5
3D4
100
AcDbEntity
  8
DTM_AXIS
100
AcDbLine
 62
7
  6
CONTINUOUS
 10
203.8305992248
 20
122.5225622746
 11
203.1782202743
 21
123.0906334577
  0
LINE
  5
3D5
100
AcDbEntity
  8
DTM_AXIS
100
AcDbLine
 62
7
  6
CONTINUOUS
 10
202.6979968736
 20
123.508798058
 11
202.0456179231
 21
124.076869241
  0
LINE
  5
3D6
100
AcDbEntity
  8
DTM_AXIS
100
AcDbLine
 62
7
  6
CONTINUOUS
 10
200.4327921906
 20
125.4812663531
 11
199.7804132401
 21
126.0493375362
  0
LINE
  5
3D7
100
AcDbEntity
  8
DTM_AXIS
100
AcDbLine
 62
7
  6
CONTINUOUS
 10
199.3001898459
 20
126.4675010459
 11
198.6478108953
 21
127.035572229
  0
LINE
  5
3D8
100
AcDbEntity
  8
DTM_AXIS
100
AcDbLine
 62
7
  6
CONTINUOUS
 10
198.1675874947
 20
127.4537368293
 11
197.5152085441
 21
128.0218080124
  0
LINE
  5
3D9
100
AcDbEntity
  8
DTM_AXIS
100
AcDbLine
 62
7
  6
CONTINUOUS
 10
194.769780467
 20
130.4124398173
 11
194.1174015164
 21
130.9805110004
  0
LINE
  5
3DA
100
AcDbEntity
  8
DTM_AXIS
100
AcDbLine
 62
7
  6
CONTINUOUS
 10
191.3719734328
 20
133.3711438958
 11
190.7195944822
 21
133.9392150789
  0
LINE
  5
3DB
100
AcDbEntity
  8
DTM_AXIS
100
AcDbLine
 62
7
  6
CONTINUOUS
 10
190.239371088
 20
134.3573785887
 11
189.5869921375
 21
134.9254497717
  0
LINE
  5
3DC
100
AcDbEntity
  8
DTM_AXIS
100
AcDbLine
 62
7
  6
CONTINUOUS
 10
189.1067687368
 20
135.343614372
 11
188.4543897862
 21
135.9116855551
  0
LINE
  5
3DD
100
AcDbEntity
  8
DTM_AXIS
100
AcDbLine
 62
7
  6
CONTINUOUS
 10
185.7089617091
 20
138.30231736
 11
185.0565827585
 21
138.8703885431
  0
LINE
  5
3DE
100
AcDbEntity
  8
DTM_AXIS
100
AcDbLine
 62
7
  6
CONTINUOUS
 10
182.3111546749
 20
141.2610214385
 11
181.6587757243
 21
141.8290926216
  0
LINE
  5
3DF
100
AcDbEntity
  8
0
100
AcDbLine
 62
7
  6
CONTINUOUS
 10
181.1785523302
 20
142.2472561314
 11
180.682217029
 21
142.6794493858
  0
LINE
  5
3E0
100
AcDbEntity
  8
DTM_AXIS
100
AcDbLine
 62
7
  6
CONTINUOUS
 10
182.7913780691
 20
140.8428579288
 11
183.4437570196
 21
140.2747867457
  0
LINE
  5
3E1
100
AcDbEntity
  8
DTM_AXIS
100
AcDbLine
 62
7
  6
CONTINUOUS
 10
183.9239804073
 20
139.8566243265
 11
184.5763593579
 21
139.2885531434
  0
LINE
  5
3E2
100
AcDbEntity
  8
DTM_AXIS
100
AcDbLine
 62
7
  6
CONTINUOUS
 10
186.1891851033
 20
137.8841538502
 11
186.8415640538
 21
137.3160826672
  0
LINE
  5
3E3
100
AcDbEntity
  8
DTM_AXIS
100
AcDbLine
 62
7
  6
CONTINUOUS
 10
187.321787448
 20
136.8979191574
 11
187.9741663986
 21
136.3298479743
  0
LINE
  5
3E4
100
AcDbEntity
  8
DTM_AXIS
100
AcDbLine
 62
7
  6
CONTINUOUS
 10
191.8521968269
 20
132.952980386
 11
192.5045757775
 21
132.384909203
  0
LINE
  5
3E5
100
AcDbEntity
  8
DTM_AXIS
100
AcDbLine
 62
7
  6
CONTINUOUS
 10
192.9847991652
 20
131.9667467838
 11
193.6371781157
 21
131.3986756007
  0
LINE
  5
3E6
100
AcDbEntity
  8
DTM_AXIS
100
AcDbLine
 62
7
  6
CONTINUOUS
 10
195.2500038611
 20
129.9942763075
 11
195.9023828117
 21
129.4262051245
  0
LINE
  5
3E7
100
AcDbEntity
  8
DTM_AXIS
100
AcDbLine
 62
7
  6
CONTINUOUS
 10
196.3826062059
 20
129.0080416147
 11
197.0349851564
 21
128.4399704316
  0
LINE
  5
3E8
100
AcDbEntity
  8
DTM_AXIS
100
AcDbLine
 62
7
  6
CONTINUOUS
 10
200.9130155848
 20
125.0631028433
 11
201.5653945354
 21
124.4950316603
  0
LINE
  5
3E9
100
AcDbEntity
  8
DTM_AXIS
100
AcDbLine
 62
7
  6
CONTINUOUS
 10
204.310822619
 20
122.1043987648
 11
204.9632015696
 21
121.5363275817
  0
LINE
  5
3EA
100
AcDbEntity
  8
DTM_AXIS
100
AcDbLine
 62
7
  6
CONTINUOUS
 10
205.4434249637
 20
121.118164072
 11
206.0958039143
 21
120.5500928889
  0
LINE
  5
3EB
100
AcDbEntity
  8
DTM_AXIS
100
AcDbLine
 62
7
  6
CONTINUOUS
 10
206.576027302
 20
120.1319304697
 11
207.2284062526
 21
119.5638592866
  0
LINE
  5
3EC
100
AcDbEntity
  8
DTM_AXIS
100
AcDbLine
 62
7
  6
CONTINUOUS
 10
209.9738343427
 20
117.1732253006
 11
210.6262132932
 21
116.6051541176
  0
LINE
  5
3ED
100
AcDbEntity
  8
DTM_AXIS
100
AcDbLine
 62
7
  6
CONTINUOUS
 10
211.1064366809
 20
116.1869916983
 11
211.7588156315
 21
115.6189205153
  0
LINE
  5
3EE
100
AcDbEntity
  8
DTM_AXIS
100
AcDbLine
 62
7
  6
CONTINUOUS
 10
213.3716413769
 20
114.2145212221
 11
214.0240203274
 21
113.646450039
  0
LINE
  5
3EF
100
AcDbEntity
  8
DTM_AXIS
100
AcDbLine
 62
7
  6
CONTINUOUS
 10
214.5042437216
 20
113.2282865293
 11
215.1566226722
 21
112.6602153462
  0
LINE
  5
3F0
100
AcDbEntity
  8
DTM_AXIS
100
AcDbLine
 62
7
  6
CONTINUOUS
 10
219.0346531006
 20
109.2833477579
 11
219.6870320511
 21
108.7152765748
  0
LINE
  5
3F1
100
AcDbEntity
  8
DTM_AXIS
100
AcDbLine
 62
7
  6
CONTINUOUS
 10
222.4324601348
 20
106.3246436794
 11
223.0848390853
 21
105.7565724963
  0
LINE
  5
3F2
100
AcDbEntity
  8
DTM_AXIS
100
AcDbLine
 62
7
  6
CONTINUOUS
 10
223.5650624795
 20
105.3384089866
 11
224.2174414301
 21
104.7703378035
  0
LINE
  5
3F3
100
AcDbEntity
  8
DTM_AXIS
100
AcDbLine
 62
7
  6
CONTINUOUS
 10
228.0954718584
 20
101.3934702152
 11
228.747850809
 21
100.8253990321
  0
LINE
  5
3F4
100
AcDbEntity
  8
DTM_AXIS
100
AcDbLine
 62
7
  6
CONTINUOUS
 10
229.2280741967
 20
100.4072366129
 11
229.8804531472
 21
99.8391654298
  0
LINE
  5
3F5
100
AcDbEntity
  8
DTM_AXIS
100
AcDbLine
 62
7
  6
CONTINUOUS
 10
231.4932788926
 20
98.4347661367
 11
232.1456578432
 21
97.8666949536
  0
LINE
  5
3F6
100
AcDbEntity
  8
DTM_AXIS
100
AcDbLine
 62
7
  6
CONTINUOUS
 10
232.6258812374
 20
97.4485314439
 11
233.2782601879
 21
96.8804602608
  0
LINE
  5
3F7
100
AcDbEntity
  8
DTM_AXIS
100
AcDbLine
 62
7
  6
CONTINUOUS
 10
233.7584835756
 20
96.4622978416
 11
234.4108625262
 21
95.8942266585
  0
LINE
  5
3F8
100
AcDbEntity
  8
DTM_AXIS
100
AcDbLine
 62
7
  6
CONTINUOUS
 10
237.1562906163
 20
93.5035926725
 11
237.8086695669
 21
92.9355214894
  0
LINE
  5
3F9
100
AcDbEntity
  8
DTM_AXIS
100
AcDbLine
 62
7
  6
CONTINUOUS
 10
240.5540976505
 20
90.544888594
 11
241.2064766011
 21
89.9768174109
  0
LINE
  5
3FA
100
AcDbEntity
  8
DTM_AXIS
100
AcDbLine
 62
7
  6
CONTINUOUS
 10
241.6866999952
 20
89.5586539011
 11
242.3390789458
 21
88.9905827181
  0
LINE
  5
3FB
100
AcDbEntity
  8
DTM_AXIS
100
AcDbLine
 62
7
  6
CONTINUOUS
 10
242.8193023335
 20
88.5724202988
 11
243.471681284
 21
88.0043491158
  0
LINE
  5
3FC
100
AcDbEntity
  8
DTM_AXIS
100
AcDbLine
 62
7
  6
CONTINUOUS
 10
246.2171093742
 20
85.6137151298
 11
246.8694883247
 21
85.0456439467
  0
LINE
  5
3FD
100
AcDbEntity
  8
DTM_AXIS
100
AcDbLine
 62
7
  6
CONTINUOUS
 10
247.3497117124
 20
84.6274815275
 11
248.002090663
 21
84.0594103444
  0
LINE
  5
3FE
100
AcDbEntity
  8
DTM_AXIS
100
AcDbLine
 62
7
  6
CONTINUOUS
 10
206.576027302
 20
120.1319304697
 11
206.5011077717
 21
132.7236593925
  0
LINE
  5
3FF
100
AcDbEntity
  8
DTM_AXIS
100
AcDbLine
 62
7
  6
CONTINUOUS
 10
206.692686605
 20
117.5494520775
 11
206.6950144552
 21
117.158321765
  0
LINE
  5
400
100
AcDbEntity
  8
DTM_AXIS
100
AcDbLine
 62
7
  6
CONTINUOUS
 10
207.2284062526
 20
119.5638592866
 11
207.1534867223
 21
132.1555882094
  0
LINE
  5
401
100
AcDbEntity
  8
DTM_AXIS
100
AcDbLine
 62
7
  6
CONTINUOUS
 10
207.8252889497
 20
116.5632173846
 11
207.8276167999
 21
116.1720870722
  0
LINE
  5
402
100
AcDbEntity
  8
DTM_AXIS
100
AcDbLine
 62
7
  6
CONTINUOUS
 10
208.3610086038
 20
118.5776235032
 11
208.286089067
 21
131.1693535166
  0
LINE
  5
403
100
AcDbEntity
  8
DTM_AXIS
100
AcDbLine
 62
7
  6
CONTINUOUS
 10
208.9578912945
 20
115.5769826918
 11
208.9602191446
 21
115.1858523793
  0
LINE
  5
404
100
AcDbEntity
  8
DTM_AXIS
100
AcDbLine
 62
7
  6
CONTINUOUS
 10
209.9738343427
 20
117.1732253006
 11
209.8989148059
 21
129.764955314
  0
LINE
  5
405
100
AcDbEntity
  8
DTM_AXIS
100
AcDbLine
 62
7
  6
CONTINUOUS
 10
210.0904936392
 20
114.590747999
 11
210.0928214894
 21
114.1996176865
  0
LINE
  5
406
100
AcDbEntity
  8
DTM_AXIS
100
AcDbLine
 62
7
  6
CONTINUOUS
 10
211.1064366809
 20
116.1869916983
 11
211.0315171507
 21
128.7787206212
  0
LINE
  5
407
100
AcDbEntity
  8
DTM_AXIS
100
AcDbLine
 62
7
  6
CONTINUOUS
 10
211.2230959839
 20
113.6045133061
 11
211.2254238341
 21
113.2133829936
  0
LINE
  5
408
100
AcDbEntity
  8
DTM_AXIS
100
AcDbLine
 62
7
  6
CONTINUOUS
 10
211.7588156315
 20
115.6189205153
 11
211.6838961012
 21
128.2106494381
  0
LINE
  5
409
100
AcDbEntity
  8
0
100
AcDbLine
 62
7
  6
CONTINUOUS
 10
207.3365723727
 20
173.0285950489
 11
207.4105730784
 21
159.9590853426
  0
LINE
  5
40A
100
AcDbEntity
  8
DTM_AXIS
100
AcDbLine
 62
7
  6
CONTINUOUS
 10
207.7050057914
 20
119.1456594315
 11
207.6337101165
 21
131.7374246997
  0
LINE
  5
40B
100
AcDbEntity
  8
DTM_AXIS
100
AcDbLine
 62
7
  6
CONTINUOUS
 10
208.8376081362
 20
118.1594247387
 11
208.7663124612
 21
130.7511900068
  0
LINE
  5
40C
100
AcDbEntity
  8
DTM_AXIS
100
AcDbLine
 62
7
  6
CONTINUOUS
 10
209.4899870867
 20
117.5913535556
 11
209.4186914118
 21
130.1831188238
  0
LINE
  5
40D
100
AcDbEntity
  8
DTM_AXIS
100
AcDbLine
 62
7
  6
CONTINUOUS
 10
210.6225894315
 20
116.6051188628
 11
210.5512937565
 21
129.1968841309
  0
LINE
  5
40E
100
AcDbEntity
  8
0
100
AcDbLine
 62
7
  6
CONTINUOUS
 10
211.504459452
 20
179.7083210972
 11
211.5216838317
 21
176.6662663607
  0
LINE
  5
40F
100
AcDbEntity
  8
DTM_AXIS
100
AcDbLine
 62
7
  6
CONTINUOUS
 10
213.0490072122
 20
111.6254636315
 11
216.2856011551
 21
111.6739453986
  0
LINE
  5
410
100
AcDbEntity
  8
DTM_AXIS
100
AcDbLine
 62
7
  6
CONTINUOUS
 10
215.1529988104
 20
112.6601800914
 11
211.9164048675
 21
112.6116983244
  0
LINE
  5
411
100
AcDbEntity
  8
DTM_AXIS
100
AcDbLine
 62
7
  6
CONTINUOUS
 10
214.0203964657
 20
113.6464147842
 11
210.7838025227
 21
113.5979330172
  0
LINE
  5
412
100
AcDbEntity
  8
DTM_AXIS
100
AcDbLine
 62
7
  6
CONTINUOUS
 10
209.651200178
 20
114.58416771
 11
212.8877941209
 21
114.6326494771
  0
LINE
  5
413
100
AcDbEntity
  8
DTM_AXIS
100
AcDbLine
 62
7
  6
CONTINUOUS
 10
208.5185978333
 20
115.5704024029
 11
211.7551917762
 21
115.6188841699
  0
LINE
  5
414
100
AcDbEntity
  8
DTM_AXIS
100
AcDbLine
 62
7
  6
CONTINUOUS
 10
210.6225894315
 20
116.6051188628
 11
207.3859954885
 21
116.5566370957
  0
LINE
  5
415
100
AcDbEntity
  8
0
100
AcDbLine
 62
7
  6
CONTINUOUS
 10
279.6481406578
 20
117.3438788216
 11
278.9600278234
 21
117.3371845054
  0
LINE
  5
416
100
AcDbEntity
  8
DTM_AXIS
100
AcDbLine
 62
7
  6
CONTINUOUS
 10
229.808035402
 20
112.0104192286
 11
230.2857570111
 21
112.0127308429
  0
LINE
  5
417
100
AcDbEntity
  8
DTM_AXIS
100
AcDbLine
 62
7
  6
CONTINUOUS
 10
228.6753120424
 20
112.9966533359
 11
229.1531546664
 21
112.9989655357
  0
LINE
  5
418
100
AcDbEntity
  8
DTM_AXIS
100
AcDbLine
 62
7
  6
CONTINUOUS
 10
227.5427096977
 20
113.9828880287
 11
228.0205523217
 21
113.9852002286
  0
LINE
  5
419
100
AcDbEntity
  8
DTM_AXIS
100
AcDbLine
 62
7
  6
CONTINUOUS
 10
226.4102283678
 20
114.9691233072
 11
226.8879499769
 21
114.9714349214
  0
LINE
  5
41A
100
AcDbEntity
  8
DTM_AXIS
100
AcDbLine
 62
7
  6
CONTINUOUS
 10
225.2776260231
 20
115.955358
 11
225.7553476322
 21
115.9576696143
  0
LINE
  5
41B
100
AcDbEntity
  8
DTM_AXIS
100
AcDbLine
 62
7
  6
CONTINUOUS
 10
224.1449026635
 20
116.9415921073
 11
224.6227452875
 21
116.9439043071
  0
LINE
  5
41C
100
AcDbEntity
  8
DTM_AXIS
100
AcDbLine
 62
7
  6
CONTINUOUS
 10
212.3580261788
 20
112.2271483008
 11
215.6332222046
 21
112.2420165816
  0
LINE
  5
41D
100
AcDbEntity
  8
DTM_AXIS
100
AcDbLine
 62
7
  6
CONTINUOUS
 10
211.2254238341
 20
113.2133829936
 11
214.5006198598
 21
113.2282512745
  0
LINE
  5
41E
100
AcDbEntity
  8
DTM_AXIS
100
AcDbLine
 62
7
  6
CONTINUOUS
 10
213.3680175151
 20
114.2144859673
 11
210.0928214894
 21
114.1996176865
  0
LINE
  5
41F
100
AcDbEntity
  8
DTM_AXIS
100
AcDbLine
 62
7
  6
CONTINUOUS
 10
212.2354151704
 20
115.2007206602
 11
208.9602191446
 21
115.1858523793
  0
LINE
  5
420
100
AcDbEntity
  8
DTM_AXIS
100
AcDbLine
 62
7
  6
CONTINUOUS
 10
207.8276167999
 20
116.1720870722
 11
211.1028128256
 21
116.186955353
  0
LINE
  5
421
100
AcDbEntity
  8
DTM_AXIS
100
AcDbLine
 62
7
  6
CONTINUOUS
 10
212.3556983287
 20
112.6182786133
 11
212.3580261788
 21
112.2271483008
  0
LINE
  5
422
100
AcDbEntity
  8
DTM_AXIS
100
AcDbLine
 62
7
  6
CONTINUOUS
 10
212.8914179827
 20
114.6326847319
 11
212.816498446
 21
127.2244147452
  0
LINE
  5
423
100
AcDbEntity
  8
DTM_AXIS
100
AcDbLine
 62
7
  6
CONTINUOUS
 10
213.4883006734
 20
111.6320439204
 11
213.4906285236
 21
111.240913608
  0
LINE
  5
424
100
AcDbEntity
  8
DTM_AXIS
100
AcDbLine
 62
7
  6
CONTINUOUS
 10
214.5042437216
 20
113.2282865293
 11
214.4293241849
 21
125.8200165426
  0
LINE
  5
425
100
AcDbEntity
  8
DTM_AXIS
100
AcDbLine
 62
7
  6
CONTINUOUS
 10
214.6209030182
 20
110.6458092276
 11
214.6232308683
 21
110.2546789151
  0
LINE
  5
426
100
AcDbEntity
  8
DTM_AXIS
100
AcDbLine
 62
7
  6
CONTINUOUS
 10
215.6368460599
 20
112.242052927
 11
215.5619265296
 21
124.8337818498
  0
LINE
  5
427
100
AcDbEntity
  8
DTM_AXIS
100
AcDbLine
 62
7
  6
CONTINUOUS
 10
215.7535053629
 20
109.6595745348
 11
215.755833213
 21
109.2684442223
  0
LINE
  5
428
100
AcDbEntity
  8
DTM_AXIS
100
AcDbLine
 62
7
  6
CONTINUOUS
 10
216.2892250104
 20
111.6739817439
 11
216.2143054802
 21
124.2657106667
  0
LINE
  5
429
100
AcDbEntity
  8
DTM_AXIS
100
AcDbLine
 62
7
  6
CONTINUOUS
 10
216.8861077076
 20
108.6733398419
 11
216.8884355578
 21
108.2822095294
  0
LINE
  5
42A
100
AcDbEntity
  8
DTM_AXIS
100
AcDbLine
 62
7
  6
CONTINUOUS
 10
217.4218273616
 20
110.6877459605
 11
217.3469078249
 21
123.2794759739
  0
LINE
  5
42B
100
AcDbEntity
  8
DTM_AXIS
100
AcDbLine
 62
7
  6
CONTINUOUS
 10
212.2354151704
 20
115.2007206602
 11
212.1641194954
 21
127.7924859283
  0
LINE
  5
42C
100
AcDbEntity
  8
DTM_AXIS
100
AcDbLine
 62
7
  6
CONTINUOUS
 10
213.3680175151
 20
114.2144859673
 11
213.2967218401
 21
126.8062512355
  0
LINE
  5
42D
100
AcDbEntity
  8
DTM_AXIS
100
AcDbLine
 62
7
  6
CONTINUOUS
 10
214.0203964657
 20
113.6464147842
 11
213.9491007907
 21
126.2381800524
  0
LINE
  5
42E
100
AcDbEntity
  8
DTM_AXIS
100
AcDbLine
 62
7
  6
CONTINUOUS
 10
215.1529988104
 20
112.6601800914
 11
215.0817031354
 21
125.2519453596
  0
LINE
  5
42F
100
AcDbEntity
  8
DTM_AXIS
100
AcDbLine
 62
7
  6
CONTINUOUS
 10
216.7658245493
 20
111.2557818888
 11
216.6945288743
 21
123.847547157
  0
LINE
  5
430
100
AcDbEntity
  8
DTM_AXIS
100
AcDbLine
 62
7
  6
CONTINUOUS
 10
209.4899870867
 20
117.5913535556
 11
206.2533931438
 21
117.5428717886
  0
LINE
  5
431
100
AcDbEntity
  8
DTM_AXIS
100
AcDbLine
 62
7
  6
CONTINUOUS
 10
205.1207907991
 20
118.5291064814
 11
208.357384742
 21
118.5775882484
  0
LINE
  5
432
100
AcDbEntity
  8
DTM_AXIS
100
AcDbLine
 62
7
  6
CONTINUOUS
 10
203.9881884543
 20
119.5153411742
 11
207.2247823972
 21
119.5638229413
  0
LINE
  5
433
100
AcDbEntity
  8
DTM_AXIS
100
AcDbLine
 62
7
  6
CONTINUOUS
 10
206.0921800525
 20
120.5500576341
 11
202.8555861096
 21
120.5015758671
  0
LINE
  5
434
100
AcDbEntity
  8
DTM_AXIS
100
AcDbLine
 62
7
  6
CONTINUOUS
 10
204.9595777078
 20
121.536292327
 11
201.7229837649
 21
121.4878105599
  0
LINE
  5
435
100
AcDbEntity
  8
DTM_AXIS
100
AcDbLine
 62
7
  6
CONTINUOUS
 10
223.0123003188
 20
117.9278268001
 11
223.4901429427
 21
117.9301389999
  0
LINE
  5
436
100
AcDbEntity
  8
DTM_AXIS
100
AcDbLine
 62
7
  6
CONTINUOUS
 10
221.8798189888
 20
118.9140620785
 11
222.357540598
 21
118.9163736928
  0
LINE
  5
437
100
AcDbEntity
  8
DTM_AXIS
100
AcDbLine
 62
7
  6
CONTINUOUS
 10
220.7472166441
 20
119.9002967713
 11
221.2249382533
 21
119.9026083856
  0
LINE
  5
438
100
AcDbEntity
  8
DTM_AXIS
100
AcDbLine
 62
7
  6
CONTINUOUS
 10
219.6144932846
 20
120.8865308786
 11
220.0923359085
 21
120.8888430784
  0
LINE
  5
439
100
AcDbEntity
  8
DTM_AXIS
100
AcDbLine
 62
7
  6
CONTINUOUS
 10
218.4818909398
 20
121.8727655715
 11
218.9597335638
 21
121.8750777713
  0
LINE
  5
43A
100
AcDbEntity
  8
DTM_AXIS
100
AcDbLine
 62
7
  6
CONTINUOUS
 10
206.6950144552
 20
117.158321765
 11
209.9702104809
 21
117.1731900458
  0
LINE
  5
43B
100
AcDbEntity
  8
DTM_AXIS
100
AcDbLine
 62
7
  6
CONTINUOUS
 10
208.8376081362
 20
118.1594247387
 11
205.5624121104
 21
118.1445564578
  0
LINE
  5
43C
100
AcDbEntity
  8
DTM_AXIS
100
AcDbLine
 62
7
  6
CONTINUOUS
 10
207.7050057914
 20
119.1456594315
 11
204.4298097657
 21
119.1307911507
  0
LINE
  5
43D
100
AcDbEntity
  8
DTM_AXIS
100
AcDbLine
 62
7
  6
CONTINUOUS
 10
203.297207421
 20
120.1170258435
 11
206.5724034467
 21
120.1318941243
  0
LINE
  5
43E
100
AcDbEntity
  8
DTM_AXIS
100
AcDbLine
 62
7
  6
CONTINUOUS
 10
202.1646050762
 20
121.1032605363
 11
205.4398011019
 21
121.1181288172
  0
LINE
  5
43F
100
AcDbEntity
  8
DTM_AXIS
100
AcDbLine
 62
7
  6
CONTINUOUS
 10
204.3071987572
 20
122.10436351
 11
201.0320027315
 21
122.0894952292
  0
LINE
  5
440
100
AcDbEntity
  8
DTM_AXIS
100
AcDbLine
 62
7
  6
CONTINUOUS
 10
247.9271711327
 20
96.6511392672
 11
247.2747921821
 21
97.2192104503
  0
LINE
  5
441
100
AcDbEntity
  8
DTM_AXIS
100
AcDbLine
 62
7
  6
CONTINUOUS
 10
246.794568788
 20
97.6373739601
 11
246.1421898374
 21
98.2054451432
  0
LINE
  5
442
100
AcDbEntity
  8
DTM_AXIS
100
AcDbLine
 62
7
  6
CONTINUOUS
 10
243.3967617538
 20
100.5960780386
 11
242.7443828032
 21
101.1641492217
  0
LINE
  5
443
100
AcDbEntity
  8
DTM_AXIS
100
AcDbLine
 62
7
  6
CONTINUOUS
 10
242.264159409
 20
101.5823127314
 11
241.6117804585
 21
102.1503839145
  0
LINE
  5
444
100
AcDbEntity
  8
DTM_AXIS
100
AcDbLine
 62
7
  6
CONTINUOUS
 10
241.1315570643
 20
102.5685474243
 11
240.4791781137
 21
103.1366186074
  0
LINE
  5
445
100
AcDbEntity
  8
DTM_AXIS
100
AcDbLine
 62
7
  6
CONTINUOUS
 10
237.7337500301
 20
105.5272515028
 11
237.0813710795
 21
106.0953226859
  0
LINE
  5
446
100
AcDbEntity
  8
DTM_AXIS
100
AcDbLine
 62
7
  6
CONTINUOUS
 10
234.3359429959
 20
108.4859555813
 11
233.6835640453
 21
109.0540267644
  0
LINE
  5
447
100
AcDbEntity
  8
DTM_AXIS
100
AcDbLine
 62
7
  6
CONTINUOUS
 10
233.2033406512
 20
109.4721902741
 11
232.5509617006
 21
110.0402614572
  0
LINE
  5
448
100
AcDbEntity
  8
DTM_AXIS
100
AcDbLine
 62
7
  6
CONTINUOUS
 10
232.0707383064
 20
110.458424967
 11
231.4183593559
 21
111.0264961501
  0
LINE
  5
449
100
AcDbEntity
  8
DTM_AXIS
100
AcDbLine
 62
7
  6
CONTINUOUS
 10
229.805533617
 20
112.4308943527
 11
229.1531546664
 21
112.9989655357
  0
LINE
  5
44A
100
AcDbEntity
  8
DTM_AXIS
100
AcDbLine
 62
7
  6
CONTINUOUS
 10
228.6729312722
 20
113.4171290455
 11
228.0205523217
 21
113.9852002286
  0
LINE
  5
44B
100
AcDbEntity
  8
DTM_AXIS
100
AcDbLine
 62
7
  6
CONTINUOUS
 10
224.1425218933
 20
117.3620678169
 11
223.4901429427
 21
117.9301389999
  0
LINE
  5
44C
100
AcDbEntity
  8
DTM_AXIS
100
AcDbLine
 62
7
  6
CONTINUOUS
 10
223.0099195486
 20
118.3483025097
 11
222.357540598
 21
118.9163736928
  0
LINE
  5
44D
100
AcDbEntity
  8
DTM_AXIS
100
AcDbLine
 62
7
  6
CONTINUOUS
 10
219.6121125144
 20
121.3070065882
 11
218.9597335638
 21
121.8750777713
  0
LINE
  5
44E
100
AcDbEntity
  8
DTM_AXIS
100
AcDbLine
 62
7
  6
CONTINUOUS
 10
215.0817031354
 20
125.2519453596
 11
214.4293241849
 21
125.8200165426
  0
LINE
  5
44F
100
AcDbEntity
  8
DTM_AXIS
100
AcDbLine
 62
7
  6
CONTINUOUS
 10
213.9491007907
 20
126.2381800524
 11
213.2967218401
 21
126.8062512355
  0
LINE
  5
450
100
AcDbEntity
  8
DTM_AXIS
100
AcDbLine
 62
7
  6
CONTINUOUS
 10
211.6838961012
 20
128.2106494381
 11
211.0315171507
 21
128.7787206212
  0
LINE
  5
451
100
AcDbEntity
  8
DTM_AXIS
100
AcDbLine
 62
7
  6
CONTINUOUS
 10
210.5512937565
 20
129.1968841309
 11
209.8989148059
 21
129.764955314
  0
LINE
  5
452
100
AcDbEntity
  8
DTM_AXIS
100
AcDbLine
 62
7
  6
CONTINUOUS
 10
207.1534867223
 20
132.1555882094
 11
206.5011077717
 21
132.7236593925
  0
LINE
  5
453
100
AcDbEntity
  8
DTM_AXIS
100
AcDbLine
 62
7
  6
CONTINUOUS
 10
206.0208843776
 20
133.1418229023
 11
205.368505427
 21
133.7098940854
  0
LINE
  5
454
100
AcDbEntity
  8
DTM_AXIS
100
AcDbLine
 62
7
  6
CONTINUOUS
 10
204.8882820328
 20
134.1280575951
 11
204.2359030823
 21
134.6961287782
  0
LINE
  5
455
100
AcDbEntity
  8
DTM_AXIS
100
AcDbLine
 62
7
  6
CONTINUOUS
 10
201.4904749986
 20
137.0867616736
 11
200.8380960481
 21
137.6548328567
  0
LINE
  5
456
100
AcDbEntity
  8
DTM_AXIS
100
AcDbLine
 62
7
  6
CONTINUOUS
 10
196.9600656197
 20
141.031700445
 11
196.3076866691
 21
141.5997716281
  0
LINE
  5
457
100
AcDbEntity
  8
DTM_AXIS
100
AcDbLine
 62
7
  6
CONTINUOUS
 10
195.8274632749
 20
142.0179351378
 11
195.1750843244
 21
142.5860063209
  0
LINE
  5
458
100
AcDbEntity
  8
DTM_AXIS
100
AcDbLine
 62
7
  6
CONTINUOUS
 10
193.5622585855
 20
143.9904045235
 11
192.9098796349
 21
144.5584757066
  0
LINE
  5
459
100
AcDbEntity
  8
DTM_AXIS
100
AcDbLine
 62
7
  6
CONTINUOUS
 10
192.4296562407
 20
144.9766392163
 11
191.7772772902
 21
145.5447103994
  0
LINE
  5
45A
100
AcDbEntity
  8
DTM_AXIS
100
AcDbLine
 62
7
  6
CONTINUOUS
 10
187.8992468618
 20
148.9215779877
 11
187.2468679112
 21
149.4896491708
  0
LINE
  5
45B
100
AcDbEntity
  8
DTM_AXIS
100
AcDbLine
 62
7
  6
CONTINUOUS
 10
186.7666445171
 20
149.9078126805
 11
186.1142655665
 21
150.4758838636
  0
LINE
  5
45C
100
AcDbEntity
  8
DTM_AXIS
100
AcDbLine
 62
7
  6
CONTINUOUS
 10
183.3688374829
 20
152.8665167591
 11
182.7164585323
 21
153.4345879421
  0
LINE
  5
45D
100
AcDbEntity
  8
0
100
AcDbLine
 62
7
  6
CONTINUOUS
 10
180.6072974922
 20
155.2711793991
 11
181.1036327934
 21
154.8389861447
  0
LINE
  5
45E
100
AcDbEntity
  8
DTM_AXIS
100
AcDbLine
 62
7
  6
CONTINUOUS
 10
181.5838561876
 20
154.420822635
 11
182.2362351381
 21
153.8527514519
  0
LINE
  5
45F
100
AcDbEntity
  8
DTM_AXIS
100
AcDbLine
 62
7
  6
CONTINUOUS
 10
183.849060877
 20
152.4483532493
 11
184.5014398276
 21
151.8802820662
  0
LINE
  5
460
100
AcDbEntity
  8
DTM_AXIS
100
AcDbLine
 62
7
  6
CONTINUOUS
 10
184.9816632218
 20
151.4621185564
 11
185.6340421723
 21
150.8940473734
  0
LINE
  5
461
100
AcDbEntity
  8
DTM_AXIS
100
AcDbLine
 62
7
  6
CONTINUOUS
 10
188.379470256
 20
148.5034144779
 11
189.0318492065
 21
147.9353432949
  0
LINE
  5
462
100
AcDbEntity
  8
DTM_AXIS
100
AcDbLine
 62
7
  6
CONTINUOUS
 10
189.5120726007
 20
147.5171797851
 11
190.1644515513
 21
146.949108602
  0
LINE
  5
463
100
AcDbEntity
  8
DTM_AXIS
100
AcDbLine
 62
7
  6
CONTINUOUS
 10
190.6446749454
 20
146.5309450923
 11
191.297053896
 21
145.9628739092
  0
LINE
  5
464
100
AcDbEntity
  8
DTM_AXIS
100
AcDbLine
 62
7
  6
CONTINUOUS
 10
194.0424819796
 20
143.5722410137
 11
194.6948609302
 21
143.0041698307
  0
LINE
  5
465
100
AcDbEntity
  8
DTM_AXIS
100
AcDbLine
 62
7
  6
CONTINUOUS
 10
197.4402890138
 20
140.6135369352
 11
198.0926679644
 21
140.0454657521
  0
LINE
  5
466
100
AcDbEntity
  8
DTM_AXIS
100
AcDbLine
 62
7
  6
CONTINUOUS
 10
198.5728913586
 20
139.6273022424
 11
199.2252703091
 21
139.0592310593
  0
LINE
  5
467
100
AcDbEntity
  8
DTM_AXIS
100
AcDbLine
 62
7
  6
CONTINUOUS
 10
199.7054937033
 20
138.6410675495
 11
200.3578726539
 21
138.0729963665
  0
LINE
  5
468
100
AcDbEntity
  8
DTM_AXIS
100
AcDbLine
 62
7
  6
CONTINUOUS
 10
201.9706983928
 20
136.6685981639
 11
202.6230773434
 21
136.1005269808
  0
LINE
  5
469
100
AcDbEntity
  8
DTM_AXIS
100
AcDbLine
 62
7
  6
CONTINUOUS
 10
203.1033007375
 20
135.682363471
 11
203.7556796881
 21
135.114292288
  0
LINE
  5
46A
100
AcDbEntity
  8
DTM_AXIS
100
AcDbLine
 62
7
  6
CONTINUOUS
 10
207.6337101165
 20
131.7374246997
 11
208.286089067
 21
131.1693535166
  0
LINE
  5
46B
100
AcDbEntity
  8
DTM_AXIS
100
AcDbLine
 62
7
  6
CONTINUOUS
 10
208.7663124612
 20
130.7511900068
 11
209.4186914118
 21
130.1831188238
  0
LINE
  5
46C
100
AcDbEntity
  8
DTM_AXIS
100
AcDbLine
 62
7
  6
CONTINUOUS
 10
212.1641194954
 20
127.7924859283
 11
212.816498446
 21
127.2244147452
  0
LINE
  5
46D
100
AcDbEntity
  8
DTM_AXIS
100
AcDbLine
 62
7
  6
CONTINUOUS
 10
215.5619265296
 20
124.8337818498
 11
216.2143054802
 21
124.2657106667
  0
LINE
  5
46E
100
AcDbEntity
  8
DTM_AXIS
100
AcDbLine
 62
7
  6
CONTINUOUS
 10
216.6945288743
 20
123.847547157
 11
217.3469078249
 21
123.2794759739
  0
LINE
  5
46F
100
AcDbEntity
  8
DTM_AXIS
100
AcDbLine
 62
7
  6
CONTINUOUS
 10
217.8271312191
 20
122.8613124641
 11
218.4795101696
 21
122.2932412811
  0
LINE
  5
470
100
AcDbEntity
  8
DTM_AXIS
100
AcDbLine
 62
7
  6
CONTINUOUS
 10
220.0923359085
 20
120.8888430784
 11
220.7447148591
 21
120.3207718954
  0
LINE
  5
471
100
AcDbEntity
  8
DTM_AXIS
100
AcDbLine
 62
7
  6
CONTINUOUS
 10
221.2249382533
 20
119.9026083856
 11
221.8773172038
 21
119.3345372025
  0
LINE
  5
472
100
AcDbEntity
  8
DTM_AXIS
100
AcDbLine
 62
7
  6
CONTINUOUS
 10
224.6227452875
 20
116.9439043071
 11
225.275124238
 21
116.375833124
  0
LINE
  5
473
100
AcDbEntity
  8
DTM_AXIS
100
AcDbLine
 62
7
  6
CONTINUOUS
 10
225.7553476322
 20
115.9576696143
 11
226.4077265828
 21
115.3895984312
  0
LINE
  5
474
100
AcDbEntity
  8
DTM_AXIS
100
AcDbLine
 62
7
  6
CONTINUOUS
 10
226.8879499769
 20
114.9714349214
 11
227.5403289275
 21
114.4033637383
  0
LINE
  5
475
100
AcDbEntity
  8
DTM_AXIS
100
AcDbLine
 62
7
  6
CONTINUOUS
 10
230.2857570111
 20
112.0127308429
 11
230.9381359617
 21
111.4446596598
  0
LINE
  5
476
100
AcDbEntity
  8
DTM_AXIS
100
AcDbLine
 62
7
  6
CONTINUOUS
 10
234.8161663901
 20
108.0677920715
 11
235.4685453406
 21
107.4997208885
  0
LINE
  5
477
100
AcDbEntity
  8
DTM_AXIS
100
AcDbLine
 62
7
  6
CONTINUOUS
 10
235.9487687348
 20
107.0815573787
 11
236.6011476854
 21
106.5134861956
  0
LINE
  5
478
100
AcDbEntity
  8
DTM_AXIS
100
AcDbLine
 62
7
  6
CONTINUOUS
 10
238.2139734243
 20
105.109087993
 11
238.8663523748
 21
104.54101681
  0
LINE
  5
479
100
AcDbEntity
  8
DTM_AXIS
100
AcDbLine
 62
7
  6
CONTINUOUS
 10
239.346575769
 20
104.1228533002
 11
239.9989547196
 21
103.5547821171
  0
LINE
  5
47A
100
AcDbEntity
  8
DTM_AXIS
100
AcDbLine
 62
7
  6
CONTINUOUS
 10
243.8769851479
 20
100.1779145288
 11
244.5293640985
 21
99.6098433458
  0
LINE
  5
47B
100
AcDbEntity
  8
DTM_AXIS
100
AcDbLine
 62
7
  6
CONTINUOUS
 10
245.0095874927
 20
99.191679836
 11
245.6619664432
 21
98.6236086529
  0
LINE
  5
47C
100
AcDbEntity
  8
0
100
AcDbLine
 62
7
  6
CONTINUOUS
 10
248.4073945269
 20
96.2329757575
 11
248.7337543183
 21
95.94879186
  0
LINE
  5
47D
100
AcDbEntity
  8
0
100
AcDbLine
 62
7
  6
CONTINUOUS
 10
181.5350050412
 20
155.2804838118
 11
249.6614618673
 21
95.9580962727
  0
LINE
  5
47E
100
AcDbEntity
  8
DTM_AXIS
100
AcDbLine
 62
7
  6
CONTINUOUS
 10
218.0187100524
 20
107.6871051491
 11
218.0210379025
 21
107.2959748366
  0
LINE
  5
47F
100
AcDbEntity
  8
DTM_AXIS
100
AcDbLine
 62
7
  6
CONTINUOUS
 10
219.0346531006
 20
109.2833477579
 11
218.9597335638
 21
121.8750777713
  0
LINE
  5
480
100
AcDbEntity
  8
DTM_AXIS
100
AcDbLine
 62
7
  6
CONTINUOUS
 10
219.1513123971
 20
106.7008704563
 11
219.1536402472
 21
106.3097401438
  0
LINE
  5
481
100
AcDbEntity
  8
DTM_AXIS
100
AcDbLine
 62
7
  6
CONTINUOUS
 10
220.1672554388
 20
108.2971141556
 11
220.0923359085
 21
120.8888430784
  0
LINE
  5
482
100
AcDbEntity
  8
DTM_AXIS
100
AcDbLine
 62
7
  6
CONTINUOUS
 10
220.2839147418
 20
105.7146357634
 11
220.286242592
 21
105.3235054509
  0
LINE
  5
483
100
AcDbEntity
  8
DTM_AXIS
100
AcDbLine
 62
7
  6
CONTINUOUS
 10
220.8196343894
 20
107.7290429725
 11
220.7447148591
 21
120.3207718954
  0
LINE
  5
484
100
AcDbEntity
  8
DTM_AXIS
100
AcDbLine
 62
7
  6
CONTINUOUS
 10
221.4165170866
 20
104.7284010706
 11
221.4188449367
 21
104.3372707581
  0
LINE
  5
485
100
AcDbEntity
  8
DTM_AXIS
100
AcDbLine
 62
7
  6
CONTINUOUS
 10
221.9522367406
 20
106.7428071892
 11
221.8773172038
 21
119.3345372025
  0
LINE
  5
486
100
AcDbEntity
  8
DTM_AXIS
100
AcDbLine
 62
7
  6
CONTINUOUS
 10
222.5491194313
 20
103.7421663777
 11
222.5514472814
 21
103.3510360652
  0
LINE
  5
487
100
AcDbEntity
  8
DTM_AXIS
100
AcDbLine
 62
7
  6
CONTINUOUS
 10
217.898426894
 20
110.269547196
 11
217.8271312191
 21
122.8613124641
  0
LINE
  5
488
100
AcDbEntity
  8
DTM_AXIS
100
AcDbLine
 62
7
  6
CONTINUOUS
 10
218.5508058446
 20
109.7014760129
 11
218.4795101696
 21
122.2932412811
  0
LINE
  5
489
100
AcDbEntity
  8
0
100
AcDbLine
 62
7
  6
CONTINUOUS
 10
218.6629729132
 20
188.3340304142
 11
218.681109534
 21
185.1308617394
  0
LINE
  5
48A
100
AcDbEntity
  8
DTM_AXIS
100
AcDbLine
 62
7
  6
CONTINUOUS
 10
219.6834081893
 20
108.71524132
 11
219.6121125144
 21
121.3070065882
  0
LINE
  5
48B
100
AcDbEntity
  8
DTM_AXIS
100
AcDbLine
 62
7
  6
CONTINUOUS
 10
221.2962339282
 20
107.3108431174
 11
221.2249382533
 21
119.9026083856
  0
LINE
  5
48C
100
AcDbEntity
  8
0
100
AcDbLine
 62
7
  6
CONTINUOUS
 10
221.8944619217
 20
192.2158699363
 11
221.8987755143
 21
191.4540320548
  0
LINE
  5
48D
100
AcDbEntity
  8
DTM_AXIS
100
AcDbLine
 62
7
  6
CONTINUOUS
 10
222.428836273
 20
106.3246084246
 11
222.357540598
 21
118.9163736928
  0
LINE
  5
48E
100
AcDbEntity
  8
DTM_AXIS
100
AcDbLine
 62
7
  6
CONTINUOUS
 10
223.0812152235
 20
105.7565372415
 11
223.0099195486
 21
118.3483025097
  0
LINE
  5
48F
100
AcDbEntity
  8
0
100
AcDbLine
 62
7
  6
CONTINUOUS
 10
287.0372740821
 20
129.0202953642
 11
286.7894297393
 21
129.0116428751
  0
LINE
  5
490
100
AcDbEntity
  8
DTM_AXIS
100
AcDbLine
 62
7
  6
CONTINUOUS
 10
200.5903814201
 20
122.4740452528
 11
203.826975363
 21
122.5225270198
  0
LINE
  5
491
100
AcDbEntity
  8
DTM_AXIS
100
AcDbLine
 62
7
  6
CONTINUOUS
 10
199.4577790754
 20
123.4602799456
 11
202.6943730183
 21
123.5087617126
  0
LINE
  5
492
100
AcDbEntity
  8
DTM_AXIS
100
AcDbLine
 62
7
  6
CONTINUOUS
 10
201.5617706736
 20
124.4949964055
 11
198.3251767307
 21
124.4465146384
  0
LINE
  5
493
100
AcDbEntity
  8
DTM_AXIS
100
AcDbLine
 62
7
  6
CONTINUOUS
 10
200.4291683288
 20
125.4812310983
 11
197.1925743859
 21
125.4327493313
  0
LINE
  5
494
100
AcDbEntity
  8
DTM_AXIS
100
AcDbLine
 62
7
  6
CONTINUOUS
 10
196.0599720412
 20
126.4189840241
 11
199.2965659841
 21
126.4674657911
  0
LINE
  5
495
100
AcDbEntity
  8
DTM_AXIS
100
AcDbLine
 62
7
  6
CONTINUOUS
 10
194.9273696965
 20
127.4052187169
 11
198.1639636394
 21
127.453700484
  0
LINE
  5
496
100
AcDbEntity
  8
0
100
AcDbLine
 62
7
  6
CONTINUOUS
 10
286.8075663602
 20
125.8084742003
 11
286.0110941796
 21
125.8007257085
  0
LINE
  5
497
100
AcDbEntity
  8
DTM_AXIS
100
AcDbLine
 62
7
  6
CONTINUOUS
 10
217.3494096099
 20
122.8590008499
 11
217.8271312191
 21
122.8613124641
  0
LINE
  5
498
100
AcDbEntity
  8
DTM_AXIS
100
AcDbLine
 62
7
  6
CONTINUOUS
 10
216.2168072652
 20
123.8452355427
 11
216.6945288743
 21
123.847547157
  0
LINE
  5
499
100
AcDbEntity
  8
DTM_AXIS
100
AcDbLine
 62
7
  6
CONTINUOUS
 10
215.0840839056
 20
124.83146965
 11
215.5619265296
 21
124.8337818498
  0
LINE
  5
49A
100
AcDbEntity
  8
DTM_AXIS
100
AcDbLine
 62
7
  6
CONTINUOUS
 10
213.9514815609
 20
125.8177043428
 11
214.4293241849
 21
125.8200165426
  0
LINE
  5
49B
100
AcDbEntity
  8
DTM_AXIS
100
AcDbLine
 62
7
  6
CONTINUOUS
 10
212.819000231
 20
126.8039396212
 11
213.2967218401
 21
126.8062512355
  0
LINE
  5
49C
100
AcDbEntity
  8
DTM_AXIS
100
AcDbLine
 62
7
  6
CONTINUOUS
 10
211.6863978862
 20
127.7901743141
 11
212.1641194954
 21
127.7924859283
  0
LINE
  5
49D
100
AcDbEntity
  8
DTM_AXIS
100
AcDbLine
 62
7
  6
CONTINUOUS
 10
203.1745964125
 20
123.0905982029
 11
199.8994003868
 21
123.075729922
  0
LINE
  5
49E
100
AcDbEntity
  8
DTM_AXIS
100
AcDbLine
 62
7
  6
CONTINUOUS
 10
198.766798042
 20
124.0619646149
 11
202.0419940677
 21
124.0768328957
  0
LINE
  5
49F
100
AcDbEntity
  8
DTM_AXIS
100
AcDbLine
 62
7
  6
CONTINUOUS
 10
197.6341956973
 20
125.0481993077
 11
200.909391723
 21
125.0630675885
  0
LINE
  5
4A0
100
AcDbEntity
  8
DTM_AXIS
100
AcDbLine
 62
7
  6
CONTINUOUS
 10
199.7767893783
 20
126.0493022814
 11
196.5015933526
 21
126.0344340005
  0
LINE
  5
4A1
100
AcDbEntity
  8
DTM_AXIS
100
AcDbLine
 62
7
  6
CONTINUOUS
 10
198.6441870335
 20
127.0355369742
 11
195.3689910078
 21
127.0206686934
  0
LINE
  5
4A2
100
AcDbEntity
  8
DTM_AXIS
100
AcDbLine
 62
7
  6
CONTINUOUS
 10
194.2363886631
 20
128.0069033862
 11
197.5115846888
 21
128.0217716671
  0
LINE
  5
4A3
100
AcDbEntity
  8
0
100
AcDbLine
 62
7
  6
CONTINUOUS
 10
186.0501291781
 20
158.8696334379
 11
254.1765860042
 21
99.5472458988
  0
LINE
  5
4A4
100
AcDbEntity
  8
0
100
AcDbLine
 62
7
  6
CONTINUOUS
 10
186.0388040794
 20
160.8697966309
 11
254.1652609055
 21
101.5474090917
  0
LINE
  5
4A5
100
AcDbEntity
  8
DTM_AXIS
100
AcDbLine
 62
7
  6
CONTINUOUS
 10
223.5650624795
 20
105.3384089866
 11
223.4901429427
 21
117.9301389999
  0
LINE
  5
4A6
100
AcDbEntity
  8
DTM_AXIS
100
AcDbLine
 62
7
  6
CONTINUOUS
 10
223.681721776
 20
102.7559316849
 11
223.6840496262
 21
102.3648013724
  0
LINE
  5
4A7
100
AcDbEntity
  8
DTM_AXIS
100
AcDbLine
 62
7
  6
CONTINUOUS
 10
224.6976648177
 20
104.3521753843
 11
224.6227452875
 21
116.9439043071
  0
LINE
  5
4A8
100
AcDbEntity
  8
DTM_AXIS
100
AcDbLine
 62
7
  6
CONTINUOUS
 10
224.8143241208
 20
101.7696969921
 11
224.8166519709
 21
101.3785666796
  0
LINE
  5
4A9
100
AcDbEntity
  8
DTM_AXIS
100
AcDbLine
 62
7
  6
CONTINUOUS
 10
225.3500437683
 20
103.7841042012
 11
225.275124238
 21
116.375833124
  0
LINE
  5
4AA
100
AcDbEntity
  8
DTM_AXIS
100
AcDbLine
 62
7
  6
CONTINUOUS
 10
225.9469264655
 20
100.7834622992
 11
225.9492543156
 21
100.3923319867
  0
LINE
  5
4AB
100
AcDbEntity
  8
DTM_AXIS
100
AcDbLine
 62
7
  6
CONTINUOUS
 10
226.4826461195
 20
102.7978684178
 11
226.4077265828
 21
115.3895984312
  0
LINE
  5
4AC
100
AcDbEntity
  8
DTM_AXIS
100
AcDbLine
 62
7
  6
CONTINUOUS
 10
227.0795288102
 20
99.7972276064
 11
227.0818566604
 21
99.4060972939
  0
LINE
  5
4AD
100
AcDbEntity
  8
DTM_AXIS
100
AcDbLine
 62
7
  6
CONTINUOUS
 10
228.0954718584
 20
101.3934702152
 11
228.0205523217
 21
113.9852002286
  0
LINE
  5
4AE
100
AcDbEntity
  8
DTM_AXIS
100
AcDbLine
 62
7
  6
CONTINUOUS
 10
228.212131155
 20
98.8109929135
 11
228.2144590051
 21
98.4198626011
  0
LINE
  5
4AF
100
AcDbEntity
  8
DTM_AXIS
100
AcDbLine
 62
7
  6
CONTINUOUS
 10
224.2138175683
 20
104.7703025487
 11
224.1425218933
 21
117.3620678169
  0
LINE
  5
4B0
100
AcDbEntity
  8
DTM_AXIS
100
AcDbLine
 62
7
  6
CONTINUOUS
 10
225.8266433072
 20
103.3659043461
 11
225.7553476322
 21
115.9576696143
  0
LINE
  5
4B1
100
AcDbEntity
  8
DTM_AXIS
100
AcDbLine
 62
7
  6
CONTINUOUS
 10
226.9592456519
 20
102.3796696533
 11
226.8879499769
 21
114.9714349214
  0
LINE
  5
4B2
100
AcDbEntity
  8
DTM_AXIS
100
AcDbLine
 62
7
  6
CONTINUOUS
 10
227.6116246025
 20
101.8115984702
 11
227.5403289275
 21
114.4033637383
  0
LINE
  5
4B3
100
AcDbEntity
  8
DTM_AXIS
100
AcDbLine
 62
7
  6
CONTINUOUS
 10
228.7442269472
 20
100.8253637773
 11
228.6729312722
 21
113.4171290455
  0
LINE
  5
4B4
100
AcDbEntity
  8
DTM_AXIS
100
AcDbLine
 62
7
  6
CONTINUOUS
 10
197.0313612946
 20
128.4399351768
 11
193.7947673517
 21
128.3914534098
  0
LINE
  5
4B5
100
AcDbEntity
  8
DTM_AXIS
100
AcDbLine
 62
7
  6
CONTINUOUS
 10
195.8987589499
 20
129.4261698697
 11
192.662165007
 21
129.3776881026
  0
LINE
  5
4B6
100
AcDbEntity
  8
DTM_AXIS
100
AcDbLine
 62
7
  6
CONTINUOUS
 10
191.5295626623
 20
130.3639227955
 11
194.7661566052
 21
130.4124045625
  0
LINE
  5
4B7
100
AcDbEntity
  8
DTM_AXIS
100
AcDbLine
 62
7
  6
CONTINUOUS
 10
190.3969603175
 20
131.3501574883
 11
193.6335542604
 21
131.3986392553
  0
LINE
  5
4B8
100
AcDbEntity
  8
DTM_AXIS
100
AcDbLine
 62
7
  6
CONTINUOUS
 10
192.5009519157
 20
132.3848739482
 11
189.2643579728
 21
132.3363921811
  0
LINE
  5
4B9
100
AcDbEntity
  8
DTM_AXIS
100
AcDbLine
 62
7
  6
CONTINUOUS
 10
191.368349571
 20
133.371108641
 11
188.1317556281
 21
133.322626874
  0
LINE
  5
4BA
100
AcDbEntity
  8
DTM_AXIS
100
AcDbLine
 62
7
  6
CONTINUOUS
 10
210.5536745267
 20
128.7764084213
 11
211.0315171507
 21
128.7787206212
  0
LINE
  5
4BB
100
AcDbEntity
  8
DTM_AXIS
100
AcDbLine
 62
7
  6
CONTINUOUS
 10
209.421072182
 20
129.7626431142
 11
209.8989148059
 21
129.764955314
  0
LINE
  5
4BC
100
AcDbEntity
  8
DTM_AXIS
100
AcDbLine
 62
7
  6
CONTINUOUS
 10
208.288590852
 20
130.7488783926
 11
208.7663124612
 21
130.7511900068
  0
LINE
  5
4BD
100
AcDbEntity
  8
DTM_AXIS
100
AcDbLine
 62
7
  6
CONTINUOUS
 10
207.1559885073
 20
131.7351130854
 11
207.6337101165
 21
131.7374246997
  0
LINE
  5
4BE
100
AcDbEntity
  8
DTM_AXIS
100
AcDbLine
 62
7
  6
CONTINUOUS
 10
206.0232651478
 20
132.7213471927
 11
206.5011077717
 21
132.7236593925
  0
LINE
  5
4BF
100
AcDbEntity
  8
DTM_AXIS
100
AcDbLine
 62
7
  6
CONTINUOUS
 10
204.890662803
 20
133.7075818855
 11
205.368505427
 21
133.7098940854
  0
LINE
  5
4C0
100
AcDbEntity
  8
DTM_AXIS
100
AcDbLine
 62
7
  6
CONTINUOUS
 10
193.1037863184
 20
128.9931380791
 11
196.3789823441
 21
129.0080063599
  0
LINE
  5
4C1
100
AcDbEntity
  8
DTM_AXIS
100
AcDbLine
 62
7
  6
CONTINUOUS
 10
195.2463799993
 20
129.9942410527
 11
191.9711839736
 21
129.9793727719
  0
LINE
  5
4C2
100
AcDbEntity
  8
DTM_AXIS
100
AcDbLine
 62
7
  6
CONTINUOUS
 10
194.1137776546
 20
130.9804757456
 11
190.8385816289
 21
130.9656074647
  0
LINE
  5
4C3
100
AcDbEntity
  8
DTM_AXIS
100
AcDbLine
 62
7
  6
CONTINUOUS
 10
189.7059792842
 20
131.9518421576
 11
192.9811753099
 21
131.9667104384
  0
LINE
  5
4C4
100
AcDbEntity
  8
DTM_AXIS
100
AcDbLine
 62
7
  6
CONTINUOUS
 10
188.5733769394
 20
132.9380768504
 11
191.8485729651
 21
132.9529451313
  0
LINE
  5
4C5
100
AcDbEntity
  8
0
100
AcDbLine
 62
7
  6
CONTINUOUS
 10
189.1903764187
 20
160.9004567504
 11
257.3168332448
 21
101.5780692112
  0
LINE
  5
4C6
100
AcDbEntity
  8
0
100
AcDbLine
 62
7
  6
CONTINUOUS
 10
189.1787837979
 20
162.9478678927
 11
257.305240624
 21
103.6254803535
  0
LINE
  5
4C7
100
AcDbEntity
  8
DTM_AXIS
100
AcDbLine
 62
7
  6
CONTINUOUS
 10
229.2280741967
 20
100.4072366129
 11
229.1531546664
 21
112.9989655357
  0
LINE
  5
4C8
100
AcDbEntity
  8
DTM_AXIS
100
AcDbLine
 62
7
  6
CONTINUOUS
 10
229.3447334997
 20
97.8247582207
 11
229.3470613498
 21
97.4336279082
  0
LINE
  5
4C9
100
AcDbEntity
  8
DTM_AXIS
100
AcDbLine
 62
7
  6
CONTINUOUS
 10
229.8804531472
 20
99.8391654298
 11
229.805533617
 21
112.4308943527
  0
LINE
  5
4CA
100
AcDbEntity
  8
DTM_AXIS
100
AcDbLine
 62
7
  6
CONTINUOUS
 10
230.4773358444
 20
96.8385235279
 11
230.4796636946
 21
96.4473932154
  0
LINE
  5
4CB
100
AcDbEntity
  8
DTM_AXIS
100
AcDbLine
 62
7
  6
CONTINUOUS
 10
231.0130554985
 20
98.8529296465
 11
230.9381359617
 21
111.4446596598
  0
LINE
  5
4CC
100
AcDbEntity
  8
DTM_AXIS
100
AcDbLine
 62
7
  6
CONTINUOUS
 10
231.6099381892
 20
95.852288835
 11
231.6122660393
 21
95.4611585225
  0
LINE
  5
4CD
100
AcDbEntity
  8
DTM_AXIS
100
AcDbLine
 62
7
  6
CONTINUOUS
 10
232.6258812374
 20
97.4485314439
 11
232.5509617006
 21
110.0402614572
  0
LINE
  5
4CE
100
AcDbEntity
  8
DTM_AXIS
100
AcDbLine
 62
7
  6
CONTINUOUS
 10
232.7425405339
 20
94.8660541422
 11
232.7448683841
 21
94.4749238297
  0
LINE
  5
4CF
100
AcDbEntity
  8
DTM_AXIS
100
AcDbLine
 62
7
  6
CONTINUOUS
 10
233.7584835756
 20
96.4622978416
 11
233.6835640453
 21
109.0540267644
  0
LINE
  5
4D0
100
AcDbEntity
  8
DTM_AXIS
100
AcDbLine
 62
7
  6
CONTINUOUS
 10
233.8751428786
 20
93.8798194493
 11
233.8774707288
 21
93.4886891369
  0
LINE
  5
4D1
100
AcDbEntity
  8
DTM_AXIS
100
AcDbLine
 62
7
  6
CONTINUOUS
 10
234.4108625262
 20
95.8942266585
 11
234.3359429959
 21
108.4859555813
  0
LINE
  5
4D2
100
AcDbEntity
  8
DTM_AXIS
100
AcDbLine
 62
7
  6
CONTINUOUS
 10
230.3570526861
 20
99.4209655747
 11
230.2857570111
 21
112.0127308429
  0
LINE
  5
4D3
100
AcDbEntity
  8
DTM_AXIS
100
AcDbLine
 62
7
  6
CONTINUOUS
 10
231.4896550308
 20
98.4347308819
 11
231.4183593559
 21
111.0264961501
  0
LINE
  5
4D4
100
AcDbEntity
  8
DTM_AXIS
100
AcDbLine
 62
7
  6
CONTINUOUS
 10
232.1420339814
 20
97.8666596988
 11
232.0707383064
 21
110.458424967
  0
LINE
  5
4D5
100
AcDbEntity
  8
DTM_AXIS
100
AcDbLine
 62
7
  6
CONTINUOUS
 10
233.2746363261
 20
96.880425006
 11
233.2033406512
 21
109.4721902741
  0
LINE
  5
4D6
100
AcDbEntity
  8
DTM_AXIS
100
AcDbLine
 62
7
  6
CONTINUOUS
 10
186.9991532833
 20
134.3088615668
 11
190.2357472262
 21
134.3573433339
  0
LINE
  5
4D7
100
AcDbEntity
  8
DTM_AXIS
100
AcDbLine
 62
7
  6
CONTINUOUS
 10
185.8665509386
 20
135.2950962597
 11
189.1031448815
 21
135.3435780267
  0
LINE
  5
4D8
100
AcDbEntity
  8
DTM_AXIS
100
AcDbLine
 62
7
  6
CONTINUOUS
 10
187.9705425368
 20
136.3298127195
 11
184.7339485939
 21
136.2813309525
  0
LINE
  5
4D9
100
AcDbEntity
  8
DTM_AXIS
100
AcDbLine
 62
7
  6
CONTINUOUS
 10
186.837940192
 20
137.3160474124
 11
183.6013462491
 21
137.2675656453
  0
LINE
  5
4DA
100
AcDbEntity
  8
DTM_AXIS
100
AcDbLine
 62
7
  6
CONTINUOUS
 10
182.4687439044
 20
138.2538003382
 11
185.7053378473
 21
138.3022821052
  0
LINE
  5
4DB
100
AcDbEntity
  8
0
100
AcDbLine
 62
7
  6
CONTINUOUS
 10
169.3252004514
 20
133.7914454198
 11
166.3182991591
 21
133.7621927348
  0
LINE
  5
4DC
100
AcDbEntity
  8
DTM_AXIS
100
AcDbLine
 62
7
  6
CONTINUOUS
 10
203.7581814731
 20
134.6938171639
 11
204.2359030823
 21
134.6961287782
  0
LINE
  5
4DD
100
AcDbEntity
  8
DTM_AXIS
100
AcDbLine
 62
7
  6
CONTINUOUS
 10
202.6255791284
 20
135.6800518568
 11
203.1033007375
 21
135.682363471
  0
LINE
  5
4DE
100
AcDbEntity
  8
DTM_AXIS
100
AcDbLine
 62
7
  6
CONTINUOUS
 10
201.4928557688
 20
136.666285964
 11
201.9706983928
 21
136.6685981639
  0
LINE
  5
4DF
100
AcDbEntity
  8
DTM_AXIS
100
AcDbLine
 62
7
  6
CONTINUOUS
 10
200.3602534241
 20
137.6525206569
 11
200.8380960481
 21
137.6548328567
  0
LINE
  5
4E0
100
AcDbEntity
  8
DTM_AXIS
100
AcDbLine
 62
7
  6
CONTINUOUS
 10
199.2277720942
 20
138.6387559353
 11
199.7054937033
 21
138.6410675495
  0
LINE
  5
4E1
100
AcDbEntity
  8
DTM_AXIS
100
AcDbLine
 62
7
  6
CONTINUOUS
 10
198.0951697494
 20
139.6249906281
 11
198.5728913586
 21
139.6273022424
  0
LINE
  5
4E2
100
AcDbEntity
  8
DTM_AXIS
100
AcDbLine
 62
7
  6
CONTINUOUS
 10
190.7159706204
 20
133.9391798241
 11
187.4407745947
 21
133.9243115433
  0
LINE
  5
4E3
100
AcDbEntity
  8
DTM_AXIS
100
AcDbLine
 62
7
  6
CONTINUOUS
 10
189.5833682757
 20
134.9254145169
 11
186.30817225
 21
134.9105462361
  0
LINE
  5
4E4
100
AcDbEntity
  8
DTM_AXIS
100
AcDbLine
 62
7
  6
CONTINUOUS
 10
185.1755699052
 20
135.8967809289
 11
188.4507659309
 21
135.9116492098
  0
LINE
  5
4E5
100
AcDbEntity
  8
DTM_AXIS
100
AcDbLine
 62
7
  6
CONTINUOUS
 10
184.0429675605
 20
136.8830156218
 11
187.3181635862
 21
136.8978839026
  0
LINE
  5
4E6
100
AcDbEntity
  8
DTM_AXIS
100
AcDbLine
 62
7
  6
CONTINUOUS
 10
186.1855612415
 20
137.8841185954
 11
182.9103652158
 21
137.8692503146
  0
LINE
  5
4E7
100
AcDbEntity
  8
DTM_AXIS
100
AcDbLine
 62
7
  6
CONTINUOUS
 10
185.0529588967
 20
138.8703532883
 11
181.777762871
 21
138.8554850074
  0
LINE
  5
4E8
100
AcDbEntity
  8
0
100
AcDbLine
 62
7
  6
CONTINUOUS
 10
201.5855685574
 20
159.9024166974
 11
269.7120253835
 21
100.5800291583
  0
LINE
  5
4E9
100
AcDbEntity
  8
DTM_AXIS
100
AcDbLine
 62
7
  6
CONTINUOUS
 10
235.0077452234
 20
92.8935847565
 11
235.0100730735
 21
92.502454444
  0
LINE
  5
4EA
100
AcDbEntity
  8
DTM_AXIS
100
AcDbLine
 62
7
  6
CONTINUOUS
 10
235.5434648774
 20
94.9079908751
 11
235.4685453406
 21
107.4997208885
  0
LINE
  5
4EB
100
AcDbEntity
  8
DTM_AXIS
100
AcDbLine
 62
7
  6
CONTINUOUS
 10
236.1403475681
 20
91.9073500637
 11
236.1426754183
 21
91.5162197512
  0
LINE
  5
4EC
100
AcDbEntity
  8
DTM_AXIS
100
AcDbLine
 62
7
  6
CONTINUOUS
 10
237.1562906163
 20
93.5035926725
 11
237.0813710795
 21
106.0953226859
  0
LINE
  5
4ED
100
AcDbEntity
  8
DTM_AXIS
100
AcDbLine
 62
7
  6
CONTINUOUS
 10
237.2729499128
 20
90.9211153708
 11
237.275277763
 21
90.5299850583
  0
LINE
  5
4EE
100
AcDbEntity
  8
DTM_AXIS
100
AcDbLine
 62
7
  6
CONTINUOUS
 10
238.2888929545
 20
92.5173590702
 11
238.2139734243
 21
105.109087993
  0
LINE
  5
4EF
100
AcDbEntity
  8
DTM_AXIS
100
AcDbLine
 62
7
  6
CONTINUOUS
 10
238.4055522576
 20
89.934880678
 11
238.4078801077
 21
89.5437503655
  0
LINE
  5
4F0
100
AcDbEntity
  8
DTM_AXIS
100
AcDbLine
 62
7
  6
CONTINUOUS
 10
238.9412719051
 20
91.9492878871
 11
238.8663523748
 21
104.54101681
  0
LINE
  5
4F1
100
AcDbEntity
  8
DTM_AXIS
100
AcDbLine
 62
7
  6
CONTINUOUS
 10
239.5381546023
 20
88.9486459852
 11
239.5404824525
 21
88.5575156727
  0
LINE
  5
4F2
100
AcDbEntity
  8
DTM_AXIS
100
AcDbLine
 62
7
  6
CONTINUOUS
 10
240.0738742563
 20
90.9630521037
 11
239.9989547196
 21
103.5547821171
  0
LINE
  5
4F3
100
AcDbEntity
  8
DTM_AXIS
100
AcDbLine
 62
7
  6
CONTINUOUS
 10
234.887462065
 20
95.4760268034
 11
234.8161663901
 21
108.0677920715
  0
LINE
  5
4F4
100
AcDbEntity
  8
DTM_AXIS
100
AcDbLine
 62
7
  6
CONTINUOUS
 10
236.0200644098
 20
94.4897921105
 11
235.9487687348
 21
107.0815573787
  0
LINE
  5
4F5
100
AcDbEntity
  8
DTM_AXIS
100
AcDbLine
 62
7
  6
CONTINUOUS
 10
236.6724433603
 20
93.9217209275
 11
236.6011476854
 21
106.5134861956
  0
LINE
  5
4F6
100
AcDbEntity
  8
0
100
AcDbLine
 62
7
  6
CONTINUOUS
 10
237.4421979733
 20
76.1396969133
 11
237.4516572775
 21
74.4690578806
  0
LINE
  5
4F7
100
AcDbEntity
  8
DTM_AXIS
100
AcDbLine
 62
7
  6
CONTINUOUS
 10
237.8050457051
 20
92.9354862346
 11
237.7337500301
 21
105.5272515028
  0
LINE
  5
4F8
100
AcDbEntity
  8
DTM_AXIS
100
AcDbLine
 62
7
  6
CONTINUOUS
 10
239.417871444
 20
91.531088032
 11
239.346575769
 21
104.1228533002
  0
LINE
  5
4F9
100
AcDbEntity
  8
DTM_AXIS
100
AcDbLine
 62
7
  6
CONTINUOUS
 10
181.3361415597
 20
139.240035031
 11
184.5727355026
 21
139.288516798
  0
LINE
  5
4FA
100
AcDbEntity
  8
DTM_AXIS
100
AcDbLine
 62
7
  6
CONTINUOUS
 10
183.4401331578
 20
140.2747514909
 11
180.2035392149
 21
140.2262697239
  0
LINE
  5
4FB
100
AcDbEntity
  8
DTM_AXIS
100
AcDbLine
 62
7
  6
CONTINUOUS
 10
182.3075308131
 20
141.2609861837
 11
179.0709368702
 21
141.2125044167
  0
LINE
  5
4FC
100
AcDbEntity
  8
DTM_AXIS
100
AcDbLine
 62
7
  6
CONTINUOUS
 10
177.9383345255
 20
142.1987391095
 11
181.1749284684
 21
142.2472208766
  0
LINE
  5
4FD
100
AcDbEntity
  8
0
100
AcDbLine
 62
7
  6
CONTINUOUS
 10
176.6888075404
 20
139.5637286693
 11
173.6800209132
 21
139.5344576428
  0
LINE
  5
4FE
100
AcDbEntity
  8
0
100
AcDbLine
 62
7
  6
CONTINUOUS
 10
176.6705015261
 20
142.6404213504
 11
180.682217029
 21
142.6794493858
  0
LINE
  5
4FF
100
AcDbEntity
  8
DTM_AXIS
100
AcDbLine
 62
7
  6
CONTINUOUS
 10
196.9624463899
 20
140.6112247354
 11
197.4402890138
 21
140.6135369352
  0
LINE
  5
500
100
AcDbEntity
  8
DTM_AXIS
100
AcDbLine
 62
7
  6
CONTINUOUS
 10
195.8298440451
 20
141.5974594282
 11
196.3076866691
 21
141.5997716281
  0
LINE
  5
501
100
AcDbEntity
  8
DTM_AXIS
100
AcDbLine
 62
7
  6
CONTINUOUS
 10
194.6973627152
 20
142.5836947066
 11
195.1750843244
 21
142.5860063209
  0
LINE
  5
502
100
AcDbEntity
  8
DTM_AXIS
100
AcDbLine
 62
7
  6
CONTINUOUS
 10
193.5647603705
 20
143.5699293995
 11
194.0424819796
 21
143.5722410137
  0
LINE
  5
503
100
AcDbEntity
  8
DTM_AXIS
100
AcDbLine
 62
7
  6
CONTINUOUS
 10
192.4320370109
 20
144.5561635067
 11
192.9098796349
 21
144.5584757066
  0
LINE
  5
504
100
AcDbEntity
  8
DTM_AXIS
100
AcDbLine
 62
7
  6
CONTINUOUS
 10
180.6451605263
 20
139.8417197003
 11
183.920356552
 21
139.8565879811
  0
LINE
  5
505
100
AcDbEntity
  8
DTM_AXIS
100
AcDbLine
 62
7
  6
CONTINUOUS
 10
179.5125581816
 20
140.8279543931
 11
182.7877542073
 21
140.842822674
  0
LINE
  5
506
100
AcDbEntity
  8
DTM_AXIS
100
AcDbLine
 62
7
  6
CONTINUOUS
 10
181.6551518625
 20
141.8290573668
 11
178.3799558368
 21
141.814189086
  0
LINE
  5
507
100
AcDbEntity
  8
0
100
AcDbLine
 62
7
  6
CONTINUOUS
 10
207.4105730784
 20
159.9590853426
 11
275.5370299045
 21
100.6366978034
  0
LINE
  5
508
100
AcDbEntity
  8
DTM_AXIS
100
AcDbLine
 62
7
  6
CONTINUOUS
 10
240.670756947
 20
87.9624112923
 11
240.6730847972
 21
87.5712809798
  0
LINE
  5
509
100
AcDbEntity
  8
DTM_AXIS
100
AcDbLine
 62
7
  6
CONTINUOUS
 10
241.6866999952
 20
89.5586539011
 11
241.6117804585
 21
102.1503839145
  0
LINE
  5
50A
100
AcDbEntity
  8
DTM_AXIS
100
AcDbLine
 62
7
  6
CONTINUOUS
 10
241.8033592918
 20
86.9761765995
 11
241.8056871419
 21
86.585046287
  0
LINE
  5
50B
100
AcDbEntity
  8
DTM_AXIS
100
AcDbLine
 62
7
  6
CONTINUOUS
 10
242.8193023335
 20
88.5724202988
 11
242.7443828032
 21
101.1641492217
  0
LINE
  5
50C
100
AcDbEntity
  8
DTM_AXIS
100
AcDbLine
 62
7
  6
CONTINUOUS
 10
242.9359616365
 20
85.9899419066
 11
242.9382894867
 21
85.5988115942
  0
LINE
  5
50D
100
AcDbEntity
  8
DTM_AXIS
100
AcDbLine
 62
7
  6
CONTINUOUS
 10
243.471681284
 20
88.0043491158
 11
243.3967617538
 21
100.5960780386
  0
LINE
  5
50E
100
AcDbEntity
  8
DTM_AXIS
100
AcDbLine
 62
7
  6
CONTINUOUS
 10
244.0685639812
 20
85.0037072138
 11
244.0708918314
 21
84.6125769013
  0
LINE
  5
50F
100
AcDbEntity
  8
DTM_AXIS
100
AcDbLine
 62
7
  6
CONTINUOUS
 10
244.6042836353
 20
87.0181133324
 11
244.5293640985
 21
99.6098433458
  0
LINE
  5
510
100
AcDbEntity
  8
0
100
AcDbLine
 62
7
  6
CONTINUOUS
 10
244.7969583522
 20
83.3180338112
 11
244.8152643665
 21
80.2413411301
  0
LINE
  5
511
100
AcDbEntity
  8
DTM_AXIS
100
AcDbLine
 62
7
  6
CONTINUOUS
 10
245.201166326
 20
84.017472521
 11
245.2034941761
 21
83.6263422085
  0
LINE
  5
512
100
AcDbEntity
  8
DTM_AXIS
100
AcDbLine
 62
7
  6
CONTINUOUS
 10
246.2171093742
 20
85.6137151298
 11
246.1421898374
 21
98.2054451432
  0
LINE
  5
513
100
AcDbEntity
  8
DTM_AXIS
100
AcDbLine
 62
7
  6
CONTINUOUS
 10
240.5504737887
 20
90.5448533392
 11
240.4791781137
 21
103.1366186074
  0
LINE
  5
514
100
AcDbEntity
  8
DTM_AXIS
100
AcDbLine
 62
7
  6
CONTINUOUS
 10
241.2028527393
 20
89.9767821561
 11
241.1315570643
 21
102.5685474243
  0
LINE
  5
515
100
AcDbEntity
  8
DTM_AXIS
100
AcDbLine
 62
7
  6
CONTINUOUS
 10
242.335455084
 20
88.9905474633
 11
242.264159409
 21
101.5823127314
  0
LINE
  5
516
100
AcDbEntity
  8
DTM_AXIS
100
AcDbLine
 62
7
  6
CONTINUOUS
 10
243.9482808229
 20
87.5861492607
 11
243.8769851479
 21
100.1779145288
  0
LINE
  5
517
100
AcDbEntity
  8
DTM_AXIS
100
AcDbLine
 62
7
  6
CONTINUOUS
 10
245.0808831676
 20
86.5999145678
 11
245.0095874927
 21
99.191679836
  0
LINE
  5
518
100
AcDbEntity
  8
DTM_AXIS
100
AcDbLine
 62
7
  6
CONTINUOUS
 10
245.7332621182
 20
86.0318433848
 11
245.6619664432
 21
98.6236086529
  0
LINE
  5
519
100
AcDbEntity
  8
DTM_AXIS
100
AcDbLine
 62
7
  6
CONTINUOUS
 10
191.2994346662
 20
145.5423981996
 11
191.7772772902
 21
145.5447103994
  0
LINE
  5
51A
100
AcDbEntity
  8
DTM_AXIS
100
AcDbLine
 62
7
  6
CONTINUOUS
 10
190.1669533363
 20
146.528633478
 11
190.6446749454
 21
146.5309450923
  0
LINE
  5
51B
100
AcDbEntity
  8
DTM_AXIS
100
AcDbLine
 62
7
  6
CONTINUOUS
 10
189.0343509916
 20
147.5148681708
 11
189.5120726007
 21
147.5171797851
  0
LINE
  5
51C
100
AcDbEntity
  8
DTM_AXIS
100
AcDbLine
 62
7
  6
CONTINUOUS
 10
187.901627632
 20
148.5011022781
 11
188.379470256
 21
148.5034144779
  0
LINE
  5
51D
100
AcDbEntity
  8
DTM_AXIS
100
AcDbLine
 62
7
  6
CONTINUOUS
 10
186.7690252873
 20
149.4873369709
 11
187.2468679112
 21
149.4896491708
  0
LINE
  5
51E
100
AcDbEntity
  8
DTM_AXIS
100
AcDbLine
 62
7
  6
CONTINUOUS
 10
185.6365439574
 20
150.4735722493
 11
186.1142655665
 21
150.4758838636
  0
LINE
  5
51F
100
AcDbEntity
  8
DTM_AXIS
100
AcDbLine
 62
7
  6
CONTINUOUS
 10
247.3497117124
 20
84.6274815275
 11
247.2747921821
 21
97.2192104503
  0
LINE
  5
520
100
AcDbEntity
  8
DTM_AXIS
100
AcDbLine
 62
7
  6
CONTINUOUS
 10
248.002090663
 20
84.0594103444
 11
247.9271711327
 21
96.6511392672
  0
LINE
  5
521
100
AcDbEntity
  8
0
100
AcDbLine
 62
7
  6
CONTINUOUS
 10
248.7337543183
 20
95.94879186
 11
248.8086738551
 21
83.3570618466
  0
LINE
  5
522
100
AcDbEntity
  8
0
100
AcDbLine
 62
7
  6
CONTINUOUS
 10
249.6571486467
 20
96.6830194545
 11
249.6614618673
 21
95.9580962727
  0
LINE
  5
523
100
AcDbEntity
  8
DTM_AXIS
100
AcDbLine
 62
7
  6
CONTINUOUS
 10
246.8658644629
 20
85.0456086919
 11
246.794568788
 21
97.6373739601
  0
LINE
  5
524
100
AcDbEntity
  8
DTM_AXIS
100
AcDbLine
 62
7
  6
CONTINUOUS
 10
248.4786902018
 20
83.6412104893
 11
248.4073945269
 21
96.2329757575
  0
LINE
  5
525
100
AcDbEntity
  8
0
100
AcDbLine
 62
7
  6
CONTINUOUS
 10
181.5350050412
 20
155.2804838118
 11
180.6072974922
 21
155.2711793991
  0
LINE
  5
526
100
AcDbEntity
  8
DTM_AXIS
100
AcDbLine
 62
7
  6
CONTINUOUS
 10
184.5039416126
 20
151.4598069422
 11
184.9816632218
 21
151.4621185564
  0
LINE
  5
527
100
AcDbEntity
  8
DTM_AXIS
100
AcDbLine
 62
7
  6
CONTINUOUS
 10
183.3712182531
 20
152.4460410495
 11
183.849060877
 21
152.4483532493
  0
LINE
  5
528
100
AcDbEntity
  8
DTM_AXIS
100
AcDbLine
 62
7
  6
CONTINUOUS
 10
182.2386159083
 20
153.4322757423
 11
182.7164585323
 21
153.4345879421
  0
LINE
  5
529
100
AcDbEntity
  8
DTM_AXIS
100
AcDbLine
 62
7
  6
CONTINUOUS
 10
181.1061345784
 20
154.4185110207
 11
181.5838561876
 21
154.420822635
  0
LINE
  5
52A
100
AcDbEntity
  8
0
100
AcDbLine
 62
7
  6
CONTINUOUS
 10
211.5216838317
 20
176.6662663607
 11
279.6481406578
 21
117.3438788216
  0
LINE
  5
52B
100
AcDbEntity
  8
0
100
AcDbLine
 62
7
  6
CONTINUOUS
 10
216.0994117903
 20
191.9557225308
 11
215.9830239229
 21
192.1583604218
  0
LINE
  5
52C
100
AcDbEntity
  8
0
100
AcDbLine
 62
7
  6
CONTINUOUS
 10
254.1652609055
 20
101.5474090917
 11
254.1765860042
 21
99.5472458988
  0
LINE
  5
52D
100
AcDbEntity
  8
0
100
AcDbLine
 62
7
  6
CONTINUOUS
 10
257.305240624
 20
103.6254803535
 11
257.3168332448
 21
101.5780692112
  0
LINE
  5
52E
100
AcDbEntity
  8
0
100
AcDbLine
 62
7
  6
CONTINUOUS
 10
186.0501291781
 20
158.8696334379
 11
184.2717656505
 21
158.8523326013
  0
LINE
  5
52F
100
AcDbEntity
  8
0
100
AcDbLine
 62
7
  6
CONTINUOUS
 10
207.4105730784
 20
159.9590853426
 11
201.5855685574
 21
159.9024166974
  0
LINE
  5
530
100
AcDbEntity
  8
0
100
AcDbLine
 62
7
  6
CONTINUOUS
 10
189.1903764187
 20
160.9004567504
 11
186.0388040794
 21
160.8697966309
  0
LINE
  5
531
100
AcDbEntity
  8
0
100
AcDbLine
 62
7
  6
CONTINUOUS
 10
211.504459452
 20
179.7083210972
 11
279.6309162781
 21
120.385933558
  0
LINE
  5
532
100
AcDbEntity
  8
0
100
AcDbLine
 62
7
  6
CONTINUOUS
 10
196.4990257544
 20
163.0190829781
 11
189.1787837979
 21
162.9478678927
  0
LINE
  5
533
100
AcDbEntity
  8
0
100
AcDbLine
 62
7
  6
CONTINUOUS
 10
218.681109534
 20
185.1308617394
 11
286.8075663602
 21
125.8084742003
  0
LINE
  5
534
100
AcDbEntity
  8
0
100
AcDbLine
 62
7
  6
CONTINUOUS
 10
199.3401821326
 20
168.1748411636
 11
191.5524698285
 21
168.0990782858
  0
LINE
  5
535
100
AcDbEntity
  8
0
100
AcDbLine
 62
7
  6
CONTINUOUS
 10
218.6629729132
 20
188.3340304142
 11
286.7894297393
 21
129.0116428751
  0
LINE
  5
536
100
AcDbEntity
  8
0
100
AcDbLine
 62
7
  6
CONTINUOUS
 10
215.9830239229
 20
192.1583604218
 11
216.7205074726
 21
191.516182816
  0
LINE
  5
537
100
AcDbEntity
  8
0
100
AcDbLine
 62
7
  6
CONTINUOUS
 10
290.0209187478
 20
132.8934823972
 11
221.8944619217
 21
192.2158699363
  0
LINE
  5
538
100
AcDbEntity
  8
0
100
AcDbLine
 62
7
  6
CONTINUOUS
 10
211.5216838317
 20
176.6662663607
 11
210.8335709973
 21
176.6595720445
  0
LINE
  5
539
100
AcDbEntity
  8
0
100
AcDbLine
 62
7
  6
CONTINUOUS
 10
275.4630291988
 20
113.7062075098
 11
275.5370299045
 21
100.6366978034
  0
LINE
  5
53A
100
AcDbEntity
  8
0
100
AcDbLine
 62
7
  6
CONTINUOUS
 10
279.6309162781
 20
120.385933558
 11
279.6481406578
 21
117.3438788216
  0
LINE
  5
53B
100
AcDbEntity
  8
0
100
AcDbLine
 62
7
  6
CONTINUOUS
 10
218.681109534
 20
185.1308617394
 11
217.8846373535
 21
185.1231132477
  0
LINE
  5
53C
100
AcDbEntity
  8
0
100
AcDbLine
 62
7
  6
CONTINUOUS
 10
218.910817256
 20
188.3426829034
 11
218.6629729132
 21
188.3340304142
  0
LINE
  5
53D
100
AcDbEntity
  8
0
100
AcDbLine
 62
7
  6
CONTINUOUS
 10
286.7894297393
 20
129.0116428751
 11
286.8075663602
 21
125.8084742003
  0
LINE
  5
53E
100
AcDbEntity
  8
0
100
AcDbLine
 62
7
  6
CONTINUOUS
 10
290.0209187478
 20
132.8934823972
 11
290.0252323404
 21
132.1316445157
  0
LINE
  5
53F
100
AcDbEntity
  8
0
100
AcDbLine
 62
7
  6
CONTINUOUS
 10
221.8944619217
 20
192.2158699363
 11
217.7482596974
 21
192.1755335449
  0
LINE
  5
540
100
AcDbEntity
  8
0
100
AcDbLine
 62
7
  6
CONTINUOUS
 10
215.9830239229
 20
192.1583604218
 11
211.4685359099
 21
192.1144411564
  0
LINE
  5
541
100
AcDbEntity
  8
0
100
AcDbLine
 62
7
  6
CONTINUOUS
 10
27.594341792
 20
71.8229396599
 11
28.7878563046
 21
68.4790171466
  0
LINE
  5
542
100
AcDbEntity
  8
0
100
AcDbLine
 62
7
  6
CONTINUOUS
 10
27.594341792
 20
78.6823495933
 11
27.594341792
 21
71.8229396599
  0
LINE
  5
543
100
AcDbEntity
  8
0
100
AcDbLine
 62
7
  6
CONTINUOUS
 10
27.594341792
 20
66.0655793786
 11
27.594341792
 21
57.5710006108
  0
LINE
  5
544
100
AcDbEntity
  8
0
100
AcDbLine
 62
7
  6
CONTINUOUS
 10
33.622245542
 20
57.5710006108
 11
27.594341792
 21
57.5710006108
  0
LINE
  5
545
100
AcDbEntity
  8
0
100
AcDbLine
 62
7
  6
CONTINUOUS
 10
33.622245542
 20
60.9183316841
 11
33.622245542
 21
57.5710006108
  0
LINE
  5
546
100
AcDbEntity
  8
0
100
AcDbLine
 62
7
  6
CONTINUOUS
 10
39.8963578471
 20
94.8737686645
 11
39.8980436459
 21
89.0192709838
  0
LINE
  5
547
100
AcDbEntity
  8
0
100
AcDbLine
 62
7
  6
CONTINUOUS
 10
48.4486950139
 20
68.9923184599
 11
42.4170117527
 21
68.9923184599
  0
LINE
  5
548
100
AcDbEntity
  8
DTM_AXIS
100
AcDbLine
 62
8
  6
HIDDEN
 10
56.4818995659
 20
75.1568684599
 11
49.954840751
 21
75.1568684599
  0
LINE
  5
549
100
AcDbEntity
  8
0
100
AcDbLine
 62
7
  6
CONTINUOUS
 10
48.4469199357
 20
75.1568684599
 11
56.489164284
 21
75.1568684599
  0
LINE
  5
54A
100
AcDbEntity
  8
0
100
AcDbLine
 62
7
  6
CONTINUOUS
 10
48.4469199357
 20
75.1568684599
 11
48.4486950139
 21
68.9923184599
  0
LINE
  5
54B
100
AcDbEntity
  8
DTM_AXIS
100
AcDbLine
 62
8
  6
HIDDEN
 10
49.9502394894
 20
91.1362817102
 11
49.954840751
 21
75.1568684599
  0
LINE
  5
54C
100
AcDbEntity
  8
DTM_AXIS
100
AcDbLine
 62
8
  6
HIDDEN
 10
53.2147380824
 20
100.3850384112
 11
53.2174012559
 21
91.1362817102
  0
LINE
  5
54D
100
AcDbEntity
  8
0
100
AcDbLine
 62
7
  6
CONTINUOUS
 10
56.4818995659
 20
100.386021092
 11
56.489164284
 21
75.1568684599
  0
LINE
  5
54E
100
AcDbEntity
  8
DTM_AXIS
100
AcDbLine
 62
8
  6
HIDDEN
 10
56.4891642833
 20
75.1568706449
 11
56.4818995659
 21
100.386021092
  0
LINE
  5
54F
100
AcDbEntity
  8
DTM_AXIS
100
AcDbLine
 62
8
  6
HIDDEN
 10
56.4818995659
 20
75.1568684599
 11
56.4818995659
 21
100.386021092
  0
LINE
  5
550
100
AcDbEntity
  8
0
100
AcDbLine
 62
7
  6
CONTINUOUS
 10
58.3412501706
 20
101.8390574138
 11
58.3416684104
 21
100.3865804641
  0
LINE
  5
551
100
AcDbEntity
  8
DTM_AXIS
100
AcDbLine
 62
8
  6
HIDDEN
 10
53.2174012559
 20
91.1362817102
 11
49.9502394894
 21
91.1362817102
  0
LINE
  5
552
100
AcDbEntity
  8
0
100
AcDbLine
 62
7
  6
CONTINUOUS
 10
67.4333294696
 20
111.4970558167
 11
67.4333294696
 21
107.4894825012
  0
LINE
  5
553
100
AcDbEntity
  8
0
100
AcDbLine
 62
7
  6
CONTINUOUS
 10
66.3551791465
 20
121.6481988611
 11
44.6320535364
 21
104.6712886097
  0
LINE
  5
554
100
AcDbEntity
  8
0
100
AcDbLine
 62
7
  6
CONTINUOUS
 10
58.3416684104
 20
100.3865804641
 11
56.4818995659
 21
100.386021092
  0
LINE
  5
555
100
AcDbEntity
  8
DTM_AXIS
100
AcDbLine
 62
8
  6
HIDDEN
 10
53.2147380824
 20
100.3850384112
 11
56.4818995659
 21
100.386021092
  0
LINE
  5
556
100
AcDbEntity
  8
0
100
AcDbLine
 62
7
  6
CONTINUOUS
 10
73.7512537629
 20
115.5992962183
 11
73.7512537629
 21
111.4970558167
  0
LINE
  5
557
100
AcDbEntity
  8
0
100
AcDbLine
 62
7
  6
CONTINUOUS
 10
67.4333294696
 20
107.4894825012
 11
63.8682626001
 21
107.4894825012
  0
LINE
  5
558
100
AcDbEntity
  8
0
100
AcDbLine
 62
7
  6
CONTINUOUS
 10
110.2643959937
 20
109.2558725581
 11
98.5870700084
 21
109.2558725581
  0
LINE
  5
559
100
AcDbEntity
  8
0
100
AcDbLine
 62
7
  6
CONTINUOUS
 10
73.7512537629
 20
111.4970558167
 11
67.4333294696
 21
111.4970558167
  0
LINE
  5
55A
100
AcDbEntity
  8
0
100
AcDbLine
 62
7
  6
CONTINUOUS
 10
88.4260666853
 20
115.5992962183
 11
73.7512537629
 21
115.5992962183
  0
LINE
  5
55B
100
AcDbEntity
  8
0
100
AcDbLine
 62
7
  6
CONTINUOUS
 10
118.7638703843
 20
173.6004452006
 11
101.1361441982
 21
139.3486243817
  0
LINE
  5
55C
100
AcDbEntity
  8
0
100
AcDbLine
 62
7
  6
CONTINUOUS
 10
94.1799079937
 20
125.8735462183
 11
78.567962127
 21
125.8735462183
  0
LINE
  5
55D
100
AcDbEntity
  8
0
100
AcDbLine
 62
7
  6
CONTINUOUS
 10
100.2115909937
 20
135.522337829
 11
100.2115909937
 21
132.0380962183
  0
LINE
  5
55E
100
AcDbEntity
  8
0
100
AcDbLine
 62
7
  6
CONTINUOUS
 10
34.6086333576
 20
81.2939701993
 11
27.594341792
 21
78.6823495933
  0
LINE
  5
55F
100
AcDbEntity
  8
0
100
AcDbLine
 62
7
  6
CONTINUOUS
 10
110.2643959937
 20
135.4422450155
 11
110.2643959937
 21
109.2558725581
  0
LINE
  5
560
100
AcDbEntity
  8
0
100
AcDbLine
 62
7
  6
CONTINUOUS
 10
131.3527673542
 20
173.6004452006
 11
131.3118324863
 21
173.4855001182
  0
LINE
  5
561
100
AcDbEntity
  8
0
100
AcDbLine
 62
7
  6
CONTINUOUS
 10
27.7068094173
 20
66.1074159672
 11
27.594341792
 21
66.0655793786
  0
LINE
  5
562
100
AcDbEntity
  8
0
100
AcDbLine
 62
7
  6
CONTINUOUS
 10
118.6950712354
 20
142.6487932161
 11
117.3156185923
 21
142.6487932161
  0
LINE
  5
563
100
AcDbEntity
  8
0
100
AcDbLine
 62
7
  6
CONTINUOUS
 10
118.6950712354
 20
148.743924568
 11
118.6950712354
 21
142.6487932161
  0
LINE
  5
564
100
AcDbEntity
  8
0
100
AcDbLine
 62
7
  6
CONTINUOUS
 10
133.6397027851
 20
165.8986202006
 11
133.1427809688
 21
165.8861156126
  0
LINE
  5
565
100
AcDbEntity
  8
0
100
AcDbLine
 62
7
  6
CONTINUOUS
 10
133.1427809688
 20
159.4681726411
 11
131.5461014714
 21
159.4681726411
  0
LINE
  5
566
100
AcDbEntity
  8
0
100
AcDbLine
 62
7
  6
CONTINUOUS
 10
133.1427809688
 20
165.8861156126
 11
133.1427809688
 21
159.4681726411
  0
LINE
  5
567
100
AcDbEntity
  8
0
100
AcDbLine
 62
7
  6
CONTINUOUS
 10
139.6646158342
 20
173.6004452006
 11
139.6646158342
 21
172.07400917
  0
LINE
  5
568
100
AcDbEntity
  8
0
100
AcDbLine
 62
7
  6
CONTINUOUS
 10
139.6646158342
 20
173.6004452006
 11
131.3527673542
 21
173.6004452006
  0
LINE
  5
569
100
AcDbEntity
  8
0
100
AcDbLine
 62
7
  6
CONTINUOUS
 10
127.814017555
 20
173.6004452006
 11
118.7638703843
 21
173.6004452006
  0
LINE
  5
56A
100
AcDbEntity
  8
0
100
AcDbLine
 62
7
  6
CONTINUOUS
 10
128.04502629
 20
173.1921890508
 11
127.814017555
 21
173.6004452006
  0
ARC
  5
56B
100
AcDbEntity
  8
DTM_AXIS
100
AcDbCircle
 62
8
  6
HIDDEN
 10
33.1186773643
 20
70.3468632307
 40
9.4419694998
100
AcDbArc
 50
273.0572039839
 51
275.3209353373
  0
ARC
  5
56C
100
AcDbEntity
  8
DTM_AXIS
100
AcDbCircle
 62
8
  6
HIDDEN
 10
35.7451807734
 20
69.3336235031
 40
6.6805551976
100
AcDbArc
 50
354.7804416608
 51
357.0715225168
  0
SPLINE
  5
56D
100
AcDbEntity
  8
0
100
AcDbSpline
 62
7
  6
CONTINUOUS
 70
0
 71
3
 72
16
 73
12
 74
0
 42
0.0000001
 43
0.0000001
 44
0.0000000001
 40
0.0
 40
0.0
 40
0.0
 40
0.0
 40
0.1413373663
 40
0.2676479011
 40
0.3871057462
 40
0.5031776625
 40
0.6184525626
 40
0.735831873
 40
0.8595599488
 40
0.9264444126
 40
1.0
 40
1.0
 40
1.0
 40
1.0
 10
237.4421979733
 20
76.1396969133
 30
0.0
 10
237.7465097795
 20
76.1589715576
 30
0.0
 10
238.3217781382
 20
76.2518993146
 30
0.0
 10
239.1048692401
 20
76.5533906097
 30
0.0
 10
239.7869186418
 20
76.9383973905
 30
0.0
 10
240.3863952992
 20
77.4047147556
 30
0.0
 10
240.9088865597
 20
77.9502171839
 30
0.0
 10
241.3439612243
 20
78.5884548701
 30
0.0
 10
241.6168854392
 20
79.1992841519
 30
0.0
 10
241.7638097934
 20
79.7512430885
 30
0.0
 10
241.79925439
 20
80.0535455693
 30
0.0
 10
241.8064777393
 20
80.2120701036
 30
0.0
  0
SPLINE
  5
56E
100
AcDbEntity
  8
0
100
AcDbSpline
 62
7
  6
CONTINUOUS
 70
0
 71
3
 72
16
 73
12
 74
0
 42
0.0000001
 43
0.0000001
 44
0.0000000001
 40
0.0
 40
0.0
 40
0.0
 40
0.0
 40
0.1413373663
 40
0.2676479011
 40
0.3871057462
 40
0.5031776625
 40
0.6184525626
 40
0.735831873
 40
0.8595599488
 40
0.9264444126
 40
1.0
 40
1.0
 40
1.0
 40
1.0
 10
169.3157411472
 20
135.4620844525
 30
0.0
 10
169.6200529534
 20
135.4813590968
 30
0.0
 10
170.1953213121
 20
135.5742868537
 30
0.0
 10
170.978412414
 20
135.8757781489
 30
0.0
 10
171.6604618157
 20
136.2607849297
 30
0.0
 10
172.2599384731
 20
136.7271022948
 30
0.0
 10
172.7824297336
 20
137.2726047231
 30
0.0
 10
173.2175043982
 20
137.9108424092
 30
0.0
 10
173.4904286131
 20
138.521671691
 30
0.0
 10
173.6373529673
 20
139.0736306276
 30
0.0
 10
173.6727975639
 20
139.3759331085
 30
0.0
 10
173.6800209132
 20
139.5344576428
 30
0.0
  0
SPLINE
  5
56F
100
AcDbEntity
  8
DTM_AXIS
100
AcDbSpline
 62
8
  6
HIDDEN
 70
0
 71
3
 72
12
 73
8
 74
0
 42
0.0000001
 43
0.0000001
 44
0.0000000001
 40
0.0
 40
0.0
 40
0.0
 40
0.0
 40
0.1128323881
 40
0.2431267007
 40
0.5037153259
 40
0.7643039511
 40
1.0
 40
1.0
 40
1.0
 40
1.0
 10
42.3980343975
 20
68.7258765121
 30
0.0
 10
42.346538463
 20
68.1628490181
 30
0.0
 10
42.0912618495
 20
67.0971542173
 30
0.0
 10
41.2266097071
 20
65.2323845725
 30
0.0
 10
39.6176614789
 20
63.3220904852
 30
0.0
 10
37.1624755793
 20
61.7015619076
 30
0.0
 10
35.1473600804
 20
61.0531427861
 30
0.0
 10
33.9942728321
 20
60.945580307
 30
0.0
  0
SPLINE
  5
570
100
AcDbEntity
  8
0
100
AcDbSpline
 62
7
  6
CONTINUOUS
 70
0
 71
3
 72
12
 73
8
 74
0
 42
0.0000001
 43
0.0000001
 44
0.0000000001
 40
0.0
 40
0.0
 40
0.0
 40
0.0
 40
0.25
 40
0.5
 40
0.75
 40
0.875
 40
1.0
 40
1.0
 40
1.0
 40
1.0
 10
33.622245542
 20
60.9183316841
 30
0.0
 10
34.9441928157
 20
60.9891381245
 30
0.0
 10
37.081727715
 20
61.6482648348
 30
0.0
 10
39.6176614789
 20
63.3220904852
 30
0.0
 10
41.2266097071
 20
65.2323845725
 30
0.0
 10
42.1212361021
 20
67.1617987996
 30
0.0
 10
42.3823715922
 20
68.3167847767
 30
0.0
 10
42.4170117527
 20
68.9923184599
 30
0.0
  0
ELLIPSE
  5
571
100
AcDbEntity
  8
0
100
AcDbEllipse
 62
7
  6
CONTINUOUS
 10
287.0111430739
 20
132.1023219023
 30
0.0
 11
0.2541573709
 21
3.072232509
 31
0.0
 40
0.9775969666
 41
-3.0485011327
 42
-1.4805845609
  0
ELLIPSE
  5
572
100
AcDbEntity
  8
0
100
AcDbEllipse
 62
7
  6
CONTINUOUS
 10
286.0343215816
 20
121.6984573147
 30
0.0
 11
0.3382802998
 21
4.0891032617
 31
0.0
 40
0.9775969666
 41
0.0902117659
 42
1.253804296
  0
ELLIPSE
  5
573
100
AcDbEntity
  8
0
100
AcDbEllipse
 62
7
  6
CONTINUOUS
 10
277.2637226507
 20
125.47195041
 30
0.0
 11
0.4651354122
 21
5.6225169849
 31
0.0
 40
0.9775969666
 41
-2.6136360818
 42
-1.8877883576
  0
ELLIPSE
  5
574
100
AcDbEntity
  8
0
100
AcDbEllipse
 62
7
  6
CONTINUOUS
 10
278.9803929829
 20
113.7404262369
 30
0.0
 11
0.2965950417
 21
3.5852154358
 31
0.0
 40
0.9775969666
 41
0.0902117659
 42
1.6610080927
  0
ELLIPSE
  5
575
100
AcDbEntity
  8
0
100
AcDbEllipse
 62
7
  6
CONTINUOUS
 10
252.4141854523
 20
96.7106710655
 30
0.0
 11
0.232482315
 21
2.8102262915
 31
0.0
 40
0.9775969666
 41
0.0902117659
 42
1.661302385
  0
ELLIPSE
  5
576
100
AcDbEntity
  8
0
100
AcDbEllipse
 62
7
  6
CONTINUOUS
 10
264.6584674085
 20
97.8711357457
 30
0.0
 11
0.4803859451
 21
5.806864119
 31
0.0
 40
0.9775969666
 41
-0.239931949
 42
0.0902117659
  0
ELLIPSE
  5
577
100
AcDbEntity
  8
0
100
AcDbEllipse
 62
7
  6
CONTINUOUS
 10
166.0366474939
 20
138.8875706347
 30
0.0
 11
0.0761130675
 21
0.9200482339
 31
0.0
 40
0.9775969666
 41
-2.7023150373
 42
-1.1308013717
  0
ELLIPSE
  5
578
100
AcDbEntity
  8
0
100
AcDbEllipse
 62
7
  6
CONTINUOUS
 10
168.3551802186
 20
149.4773669042
 30
0.0
 11
0.3382802998
 21
4.0891032617
 31
0.0
 40
0.9775969666
 41
-2.7020207449
 42
-1.4802902685
  0
ELLIPSE
  5
579
100
AcDbEntity
  8
0
100
AcDbEllipse
 62
7
  6
CONTINUOUS
 10
199.3227615811
 20
171.2515424589
 30
0.0
 11
0.2537102248
 21
3.0668274463
 31
0.0
 40
0.9775969666
 41
-3.0513808877
 42
-1.4805845609
  0
ELLIPSE
  5
57A
100
AcDbEntity
  8
0
100
AcDbEllipse
 62
7
  6
CONTINUOUS
 10
206.3334172042
 20
173.058812031
 30
0.0
 11
0.3382802998
 21
4.0891032617
 31
0.0
 40
0.9775969666
 41
1.1767871997
 42
1.6610080927
  0
ELLIPSE
  5
57B
100
AcDbEntity
  8
0
100
AcDbEllipse
 62
7
  6
CONTINUOUS
 10
178.3670657234
 20
152.4999024393
 30
0.0
 11
0.5074204497
 21
6.1336548926
 31
0.0
 40
0.9775969666
 41
0.7430351065
 42
1.661302385
  0
ELLIPSE
  5
57C
100
AcDbEntity
  8
0
100
AcDbEllipse
 62
7
  6
CONTINUOUS
 10
191.6105383335
 20
157.8434073013
 30
0.0
 11
0.8457007495
 21
10.2227581543
 31
0.0
 40
0.9775969666
 41
0.0902117659
 42
0.7430351065
  0
ELLIPSE
  5
57D
100
AcDbEntity
  8
0
100
AcDbEllipse
 62
7
  6
CONTINUOUS
 10
218.8846862478
 20
191.4247094415
 30
0.0
 11
0.2541573709
 21
3.072232509
 31
0.0
 40
0.9775969666
 41
-3.0485011327
 42
-1.4805845609
  0
ELLIPSE
  5
57E
100
AcDbEntity
  8
0
100
AcDbEllipse
 62
7
  6
CONTINUOUS
 10
217.9078647555
 20
181.0208448539
 30
0.0
 11
0.3382802998
 21
4.0891032617
 31
0.0
 40
0.9775969666
 41
0.0902117659
 42
1.253804296
  0
ELLIPSE
  5
57F
100
AcDbEntity
  8
0
100
AcDbEllipse
 62
7
  6
CONTINUOUS
 10
209.1372658246
 20
184.7943379491
 30
0.0
 11
0.4651354122
 21
5.6225169849
 31
0.0
 40
0.9775969666
 41
-2.6136360818
 42
-1.8877883576
  0
ELLIPSE
  5
580
100
AcDbEntity
  8
0
100
AcDbEllipse
 62
7
  6
CONTINUOUS
 10
210.8539361568
 20
173.0628137761
 30
0.0
 11
0.2965950417
 21
3.5852154358
 31
0.0
 40
0.9775969666
 41
0.0902117659
 42
1.6610080927
  0
ELLIPSE
  5
581
100
AcDbEntity
  8
0
100
AcDbEllipse
 62
7
  6
CONTINUOUS
 10
184.2877286261
 20
156.0330586047
 30
0.0
 11
0.232482315
 21
2.8102262915
 31
0.0
 40
0.9775969666
 41
0.0902117659
 42
1.661302385
  0
ELLIPSE
  5
582
100
AcDbEntity
  8
0
100
AcDbEllipse
 62
7
  6
CONTINUOUS
 10
216.8781771749
 20
192.4254026953
 30
0.0
 11
0.0761130675
 21
0.9200482339
 31
0.0
 40
0.9775969666
 41
-4.0978611001
 42
-1.8296504113
  0
ELLIPSE
  5
583
100
AcDbEntity
  8
0
100
AcDbEllipse
 62
7
  6
CONTINUOUS
 10
196.5320105823
 20
157.1935232849
 30
0.0
 11
0.4803859451
 21
5.806864119
 31
0.0
 40
0.9775969666
 41
5.2766996883
 42
6.3733970731
  0
ELLIPSE
  5
584
100
AcDbEntity
  8
0
100
AcDbEllipse
 62
7
  6
CONTINUOUS
 10
27.087922292
 20
67.8452506108
 30
0.0
 11
-0.0
 21
1.849365
 31
0.0
 40
0.9784466019
 41
-2.7925268032
 42
-1.2210131376
  0
ELLIPSE
  5
585
100
AcDbEntity
  8
0
100
AcDbEllipse
 62
7
  6
CONTINUOUS
 10
133.622302427
 20
172.07400917
 30
0.0
 11
0.0
 21
6.1754145758
 31
0.0
 40
0.9784466019
 41
-3.1387128986
 42
-1.5707963268
  0
ELLIPSE
  5
586
100
AcDbEntity
  8
0
100
AcDbEllipse
 62
7
  6
CONTINUOUS
 10
131.5461014714
 20
151.2487726411
 30
0.0
 11
0.0
 21
8.2194
 31
0.0
 40
0.9784466019
 41
-0.0
 42
1.1635925301
  0
ELLIPSE
  5
587
100
AcDbEntity
  8
0
100
AcDbEllipse
 62
7
  6
CONTINUOUS
 10
114.0075709853
 20
158.9799639299
 30
0.0
 11
0.0
 21
11.301675
 31
0.0
 40
0.9784466019
 41
-2.7038478477
 42
-1.9780001235
  0
ELLIPSE
  5
588
100
AcDbEntity
  8
0
100
AcDbEllipse
 62
7
  6
CONTINUOUS
 10
117.3156185923
 20
135.4422450155
 30
0.0
 11
0.0
 21
7.2065482006
 31
0.0
 40
0.9784466019
 41
-0.0
 42
1.5707963268
  0
ELLIPSE
  5
589
100
AcDbEntity
  8
0
100
AcDbEllipse
 62
7
  6
CONTINUOUS
 10
88.4260666853
 20
103.9270698437
 30
0.0
 11
-0.0
 21
11.6722263746
 31
0.0
 40
0.9784466019
 41
-1.0966973848
 42
-0.0
  0
ELLIPSE
  5
58A
100
AcDbEntity
  8
0
100
AcDbEllipse
 62
7
  6
CONTINUOUS
 10
63.8682626001
 20
101.8407198014
 30
0.0
 11
-0.0
 21
5.6487626999
 31
0.0
 40
0.9784466019
 41
0.0
 42
1.5710906191
  0
ELLIPSE
  5
58B
100
AcDbEntity
  8
0
100
AcDbEllipse
 62
7
  6
CONTINUOUS
 10
129.6114540845
 20
174.1180202006
 30
0.0
 11
0.0
 21
1.849365
 31
0.0
 40
0.9784466019
 41
-4.188072866
 42
-1.9198621772
  0
ELLIPSE
  5
58C
100
AcDbEntity
  8
0
100
AcDbEllipse
 62
7
  6
CONTINUOUS
 10
78.567962127
 20
105.3250462183
 30
0.0
 11
-0.0
 21
20.5485
 31
0.0
 40
0.9784466019
 41
0.0
 42
0.6528233406
  0
ELLIPSE
  5
58D
100
AcDbEntity
  8
0
100
AcDbEllipse
 62
7
  6
CONTINUOUS
 10
51.9597233247
 20
94.8773970241
 30
0.0
 11
0.0
 21
-12.3291
 31
0.0
 40
0.9784466019
 41
-2.488769313
 42
-1.5705020345
  0
ELLIPSE
  5
58E
100
AcDbEntity
  8
0
100
AcDbEllipse
 62
7
  6
CONTINUOUS
 10
108.2538349937
 20
135.522337829
 30
0.0
 11
-0.0
 21
8.2194
 31
0.0
 40
0.9784466019
 41
1.0865754338
 42
1.5707963268
  0
ELLIPSE
  5
58F
100
AcDbEntity
  8
0
100
AcDbEllipse
 62
7
  6
CONTINUOUS
 10
94.1799079937
 20
132.0380962183
 30
0.0
 11
-0.0
 21
-6.16455
 31
0.0
 40
0.9784466019
 41
0.0
 42
1.5707963268
  0
ELLIPSE
  5
590
100
AcDbEntity
  8
0
100
AcDbEllipse
 62
7
  6
CONTINUOUS
 10
31.8557999942
 20
89.0168520774
 30
0.0
 11
0.0
 21
8.2194
 31
0.0
 40
0.9784466019
 41
-2.7922325109
 42
-1.5705020345
  0
ENDSEC
  0
SECTION
  2
OBJECTS
  0
DICTIONARY
  5
C
100
AcDbDictionary
280
0
281
1
  3
ACAD_GROUP
350
D
  3
ACAD_MLINESTYLE
350
17
  3
ACAD_LAYOUT
350
1A
  3
ACAD_PLOTSETTINGS
350
19
  3
ACAD_PLOTSTYLENAME
350
E
  3
ACAD_IMAGE_DICT
350
       592
  3
ACAD_IMAGE_VARS
350
       593
  3
ACAD_TABLESTYLE
350
       594
  0
IMAGEDEF_REACTOR
  5
591
100
AcDbRasterImageDefReactor
 90
2
330
2BB
  0
DICTIONARY
  5
D
102
{ACAD_REACTORS
330
C
102
}
100
AcDbDictionary
280
0
281
1
  0
ACDBDICTIONARYWDFLT
  5
E
102
{ACAD_REACTORS
330
C
102
}
100
AcDbDictionary
281
1
  3
Normal
350
F
100
AcDbDictionaryWithDefault
340
F
  0
DICTIONARY
  5
592
330
C
100
AcDbDictionary
281
1
  3
c211-prod-mm_img_1
350
       597
  0
RASTERVARIABLES
  5
593
330
C
100
AcDbRasterVariables
 90
0
 70
0
 71
1
 72
1
  0
DICTIONARY
  5
17
102
{ACAD_REACTORS
330
C
102
}
100
AcDbDictionary
280
0
281
1
  3
Standard
350
18
  0
DICTIONARY
  5
594
330
C
100
AcDbDictionary
281
1
  3
Standard
350
       598
  3
Standard1
350
       599
  0
DICTIONARY
  5
19
102
{ACAD_REACTORS
330
C
102
}
100
AcDbDictionary
281
1
  0
DICTIONARY
  5
1A
102
{ACAD_REACTORS
330
C
102
}
100
AcDbDictionary
281
1
  3
Model
350
595
  3
Layout1
350
596
  0
ACDBPLACEHOLDER
  5
F
102
{ACAD_REACTORS
330
E
102
}
  0
MLINESTYLE
  5
18
102
{ACAD_REACTORS
330
17
102
}
100
AcDbMlineStyle
  2
STANDARD
 70
0
  3

 62
256
 51
90.0
 52
90.0
 71
2
 49
0.5
 62
256
  6
BYLAYER
 49
-0.5
 62
256
  6
BYLAYER
  0
LAYOUT
  5
595
102
{ACAD_REACTORS
330
1A
102
}
100
AcDbPlotSettings
  1

  2
none_device
  4
ISO_A4_(297.00_x_210.00_MM)
  6

 40
0.0
 41
0.0
 42
0.0
 43
0.0
 44
297.0
 45
210.0
 46
0.0
 47
0.0
 48
0.0
 49
0.0
140
0.0
141
0.0
142
1.0
143
1.0
 70
1024
 72
1
 73
0
 74
0
  7

 75
0
147
1.0
148
0.0
149
0.0
100
AcDbLayout
  1
Model
 70
0
 71
0
 10
0.0
 20
0.0
 11
297.0
 21
210.0
 12
0.0
 22
0.0
 32
0.0
 14
0.0
 24
0.0
 34
0.0
 15
0.0
 25
0.0
 35
0.0
146
0.0
 13
0.0
 23
0.0
 33
0.0
 16
1.0
 26
0.0
 36
0.0
 17
0.0
 27
1.0
 37
0.0
 76
0
330
215
345
0
346
0
  0
LAYOUT
  5
596
102
{ACAD_REACTORS
330
1A
102
}
100
AcDbPlotSettings
  1

  2
none_device
  4
ISO_A4_(297.00_x_210.00_MM)
  6

 40
0.0
 41
0.0
 42
0.0
 43
0.0
 44
297.0
 45
210.0
 46
0.0
 47
0.0
 48
0.0
 49
0.0
140
0.0
141
0.0
142
1.0
143
1.0
 70
0
 72
1
 73
0
 74
0
  7

 75
0
147
1.0
148
0.0
149
0.0
100
AcDbLayout
  1
Layout1
 70
0
 71
1
 10
0.0
 20
0.0
 11
297.0
 21
210.0
 12
0.0
 22
0.0
 32
0.0
 14
0.0
 24
0.0
 34
0.0
 15
0.0
 25
0.0
 35
0.0
146
0.0
 13
0.0
 23
0.0
 33
0.0
 16
1.0
 26
0.0
 36
0.0
 17
0.0
 27
1.0
 37
0.0
 76
0
330
216
345
0
346
0
  0
IMAGEDEF
  5
597
102
{ACAD_REACTORS
330
592
330
591
102
}
100
AcDbRasterImageDef
 90
0
  1
c211-prod-mm_img_1.png
 10
263.0
 20
178.0
 11
0.1693333333
 21
0.1693333333
280
1
281
0
  0
TABLESTYLE
  5
598
102
{ACAD_REACTORS
330
594
330
2C6
102
}
330
594
100
AcDbTableStyle
  3
Standard
 70
0
 71
0
 40
0.06
 41
0.06
280
1
281
1
  7
Standard
140
0.18
170
1
 62
0
 63
7
283
0
  7
Standard
140
0.18
170
1
 62
0
 63
7
283
0
  7
Standard
140
0.18
170
1
 62
0
 63
7
283
0
  0
TABLESTYLE
  5
599
102
{ACAD_REACTORS
330
594
102
}
330
594
100
AcDbTableStyle
  3
Standard1
 70
1
 71
0
 40
0.06
 41
0.06
280
1
281
1
  7
Standard
140
0.18
170
1
 62
0
 63
7
283
0
  7
Standard
140
0.18
170
1
 62
0
 63
7
283
0
  7
Standard
140
0.18
170
1
 62
0
 63
7
283
0
  0
ENDSEC
  0
EOF
